  0
SECTION
  2
HEADER
  9
$ACADVER
  1
AC1015
  9
$ACADMAINTVER
 70
     6
  9
$DWGCODEPAGE
  3
ANSI_1252
  9
$INSBASE
 10
0.0
 20
0.0
 30
0.0
  9
$EXTMIN
 10
0.0
 20
0.0
 30
0.0
  9
$EXTMAX
 10
420.0
 20
297.0
 30
0.0
  9
$LIMMIN
 10
0.0
 20
0.0
  9
$LIMMAX
 10
420.0
 20
297.0
  9
$ORTHOMODE
 70
     0
  9
$REGENMODE
 70
     1
  9
$FILLMODE
 70
     1
  9
$QTEXTMODE
 70
     0
  9
$MIRRTEXT
 70
     1
  9
$LTSCALE
 40
1.0
  9
$ATTMODE
 70
     1
  9
$TEXTSIZE
 40
3.5
  9
$TRACEWID
 40
1.0
  9
$TEXTSTYLE
  7
Standard
  9
$CLAYER
  8
0
  9
$CELTYPE
  6
ByLayer
  9
$CECOLOR
 62
   256
  9
$CELTSCALE
 40
1.0
  9
$DISPSILH
 70
     0
  9
$DIMSCALE
 40
1.0
  9
$DIMASZ
 40
3.302
  9
$DIMEXO
 40
1.0
  9
$DIMDLI
 40
3.75
  9
$DIMRND
 40
0.0
  9
$DIMDLE
 40
0.0
  9
$DIMEXE
 40
1.0
  9
$DIMTP
 40
0.0
  9
$DIMTM
 40
0.0
  9
$DIMTXT
 40
3.5
  9
$DIMCEN
 40
2.5
  9
$DIMTSZ
 40
0.0
  9
$DIMTOL
 70
     0
  9
$DIMLIM
 70
     0
  9
$DIMTIH
 70
     1
  9
$DIMTOH
 70
     1
  9
$DIMSE1
 70
     0
  9
$DIMSE2
 70
     0
  9
$DIMTAD
 70
     1
  9
$DIMZIN
 70
     0
  9
$DIMBLK
  1

  9
$DIMASO
 70
     1
  9
$DIMSHO
 70
     1
  9
$DIMPOST
  1

  9
$DIMAPOST
  1

  9
$DIMALT
 70
     0
  9
$DIMALTD
 70
     3
  9
$DIMALTF
 40
0.0393700787
  9
$DIMLFAC
 40
5.0
  9
$DIMTOFL
 70
     1
  9
$DIMTVP
 40
0.0
  9
$DIMTIX
 70
     0
  9
$DIMSOXD
 70
     0
  9
$DIMSAH
 70
     0
  9
$DIMBLK1
  1

  9
$DIMBLK2
  1

  9
$DIMSTYLE
  2
ISO-25
  9
$DIMCLRD
 70
     0
  9
$DIMCLRE
 70
     0
  9
$DIMCLRT
 70
     0
  9
$DIMTFAC
 40
1.0
  9
$DIMGAP
 40
1.524
  9
$DIMJUST
 70
     0
  9
$DIMSD1
 70
     0
  9
$DIMSD2
 70
     0
  9
$DIMTOLJ
 70
     0
  9
$DIMTZIN
 70
     0
  9
$DIMALTZ
 70
     0
  9
$DIMALTTZ
 70
     0
  9
$DIMUPT
 70
     0
  9
$DIMDEC
 70
     3
  9
$DIMTDEC
 70
     3
  9
$DIMALTU
 70
     2
  9
$DIMALTTD
 70
     3
  9
$DIMTXSTY
  7
Standard
  9
$DIMAUNIT
 70
     0
  9
$DIMADEC
 70
     2
  9
$DIMALTRND
 40
0.0
  9
$DIMAZIN
 70
     0
  9
$DIMDSEP
 70
    44
  9
$DIMATFIT
 70
     3
  9
$DIMFRAC
 70
     0
  9
$DIMLDRBLK
  1

  9
$DIMLUNIT
 70
     2
  9
$DIMLWD
 70
    -2
  9
$DIMLWE
 70
    -2
  9
$DIMTMOVE
 70
     0
  9
$LUNITS
 70
     2
  9
$LUPREC
 70
     2
  9
$SKETCHINC
 40
1.0
  9
$FILLETRAD
 40
10.0
  9
$AUNITS
 70
     0
  9
$AUPREC
 70
     2
  9
$MENU
  1
.
  9
$ELEVATION
 40
0.0
  9
$PELEVATION
 40
0.0
  9
$THICKNESS
 40
0.0
  9
$LIMCHECK
 70
     0
  9
$CHAMFERA
 40
10.0
  9
$CHAMFERB
 40
10.0
  9
$CHAMFERC
 40
20.0
  9
$CHAMFERD
 40
0.0
  9
$SKPOLY
 70
     0
  9
$TDCREATE
 40
2455821.389682778
  9
$TDUCREATE
 40
2455821.306349445
  9
$TDUPDATE
 40
2455821.389682789
  9
$TDUUPDATE
 40
2455821.306349456
  9
$TDINDWG
 40
0.0000000116
  9
$TDUSRTIMER
 40
0.0000000116
  9
$USRTIMER
 70
     1
  9
$ANGBASE
 50
0.0
  9
$ANGDIR
 70
     0
  9
$PDMODE
 70
     0
  9
$PDSIZE
 40
-1.0
  9
$PLINEWID
 40
0.0
  9
$SPLFRAME
 70
     0
  9
$SPLINETYPE
 70
     6
  9
$SPLINESEGS
 70
     8
  9
$HANDSEED
  5
4A3
  9
$SURFTAB1
 70
     6
  9
$SURFTAB2
 70
     6
  9
$SURFTYPE
 70
     6
  9
$SURFU
 70
     6
  9
$SURFV
 70
     6
  9
$UCSBASE
  2

  9
$UCSNAME
  2

  9
$UCSORG
 10
0.0
 20
0.0
 30
0.0
  9
$UCSXDIR
 10
1.0
 20
0.0
 30
0.0
  9
$UCSYDIR
 10
0.0
 20
1.0
 30
0.0
  9
$UCSORTHOREF
  2

  9
$UCSORTHOVIEW
 70
     0
  9
$UCSORGTOP
 10
0.0
 20
0.0
 30
0.0
  9
$UCSORGBOTTOM
 10
0.0
 20
0.0
 30
0.0
  9
$UCSORGLEFT
 10
0.0
 20
0.0
 30
0.0
  9
$UCSORGRIGHT
 10
0.0
 20
0.0
 30
0.0
  9
$UCSORGFRONT
 10
0.0
 20
0.0
 30
0.0
  9
$UCSORGBACK
 10
0.0
 20
0.0
 30
0.0
  9
$PUCSBASE
  2

  9
$PUCSNAME
  2

  9
$PUCSORG
 10
0.0
 20
0.0
 30
0.0
  9
$PUCSXDIR
 10
1.0
 20
0.0
 30
0.0
  9
$PUCSYDIR
 10
0.0
 20
1.0
 30
0.0
  9
$PUCSORTHOREF
  2

  9
$PUCSORTHOVIEW
 70
     0
  9
$PUCSORGTOP
 10
0.0
 20
0.0
 30
0.0
  9
$PUCSORGBOTTOM
 10
0.0
 20
0.0
 30
0.0
  9
$PUCSORGLEFT
 10
0.0
 20
0.0
 30
0.0
  9
$PUCSORGRIGHT
 10
0.0
 20
0.0
 30
0.0
  9
$PUCSORGFRONT
 10
0.0
 20
0.0
 30
0.0
  9
$PUCSORGBACK
 10
0.0
 20
0.0
 30
0.0
  9
$USERI1
 70
     0
  9
$USERI2
 70
     0
  9
$USERI3
 70
     0
  9
$USERI4
 70
     0
  9
$USERI5
 70
     0
  9
$USERR1
 40
0.0
  9
$USERR2
 40
0.0
  9
$USERR3
 40
0.0
  9
$USERR4
 40
0.0
  9
$USERR5
 40
0.0
  9
$WORLDVIEW
 70
     1
  9
$SHADEDGE
 70
     3
  9
$SHADEDIF
 70
    70
  9
$TILEMODE
 70
     1
  9
$MAXACTVP
 70
    64
  9
$PINSBASE
 10
0.0
 20
0.0
 30
0.0
  9
$PLIMCHECK
 70
     0
  9
$PEXTMIN
 10
1.0000000000E+20
 20
1.0000000000E+20
 30
1.0000000000E+20
  9
$PEXTMAX
 10
-1.0000000000E+20
 20
-1.0000000000E+20
 30
-1.0000000000E+20
  9
$PLIMMIN
 10
0.0
 20
0.0
  9
$PLIMMAX
 10
420.0
 20
297.0
  9
$UNITMODE
 70
     0
  9
$VISRETAIN
 70
     1
  9
$PLINEGEN
 70
     0
  9
$PSLTSCALE
 70
     1
  9
$TREEDEPTH
 70
  3020
  9
$CMLSTYLE
  2
Standard
  9
$CMLJUST
 70
     0
  9
$CMLSCALE
 40
20.0
  9
$PROXYGRAPHICS
 70
     1
  9
$MEASUREMENT
 70
     1
  9
$CELWEIGHT
370
    -1
  9
$ENDCAPS
280
     0
  9
$JOINSTYLE
280
     0
  9
$LWDISPLAY
290
     1
  9
$INSUNITS
 70
     4
  9
$HYPERLINKBASE
  1

  9
$STYLESHEET
  1

  9
$XEDIT
290
     1
  9
$CEPSNTYPE
380
     0
  9
$PSTYLEMODE
290
     1
  9
$FINGERPRINTGUID
  2
{950FCACA-CDA3-4EEA-8C5E-8FB751D35F54}
  9
$VERSIONGUID
  2
{FAEB1C32-E019-11D5-929B-00C0DF256EC4}
  9
$EXTNAMES
290
     1
  9
$PSVPSCALE
 40
0.0
  9
$OLESTARTUP
290
     0
  0
ENDSEC
  0
SECTION
  2
CLASSES
  0
CLASS
  1
ACDBDICTIONARYWDFLT
  2
AcDbDictionaryWithDefault
  3
ObjectDBX Classes
 90
        0
280
     0
281
     0
  0
CLASS
  1
VISUALSTYLE
  2
AcDbVisualStyle
  3
ObjectDBX Classes
 90
     4095
280
     0
281
     0
  0
CLASS
  1
SCALE
  2
AcDbScale
  3
ObjectDBX Classes
 90
     1153
280
     0
281
     0
  0
CLASS
  1
DICTIONARYVAR
  2
AcDbDictionaryVar
  3
ObjectDBX Classes
 90
        0
280
     0
281
     0
  0
CLASS
  1
ACDBPLACEHOLDER
  2
AcDbPlaceHolder
  3
ObjectDBX Classes
 90
        0
280
     0
281
     0
  0
CLASS
  1
LAYOUT
  2
AcDbLayout
  3
ObjectDBX Classes
 90
        0
280
     0
281
     0
  0
ENDSEC
  0
SECTION
  2
TABLES
  0
TABLE
  2
VPORT
  5
8
330
0
100
AcDbSymbolTable
 70
     1
  0
VPORT
  5
29
330
8
100
AcDbSymbolTableRecord
100
AcDbViewportTableRecord
  2
*Active
 70
     0
 10
0.0
 20
0.0
 11
1.0
 21
1.0
 12
210.0
 22
148.5
 13
0.0
 23
0.0
 14
10.0
 24
10.0
 15
10.0
 25
10.0
 16
0.0
 26
0.0
 36
1.0
 17
0.0
 27
0.0
 37
0.0
 40
297.0
 41
1.4141414141
 42
50.0
 43
0.0
 44
0.0
 50
0.0
 51
0.0
 71
     0
 72
  2000
 73
     1
 74
     3
 75
     0
 76
     0
 77
     0
 78
     0
281
     0
 65
     1
110
0.0
120
0.0
130
0.0
111
1.0
121
0.0
131
0.0
112
0.0
122
1.0
132
0.0
 79
     0
146
0.0
  0
ENDTAB
  0
TABLE
  2
LTYPE
  5
5
330
0
100
AcDbSymbolTable
 70
     6
  0
LTYPE
  5
14
330
5
100
AcDbSymbolTableRecord
100
AcDbLinetypeTableRecord
  2
ByBlock
 70
     0
  3

 72
    65
 73
     0
 40
0.0
  0
LTYPE
  5
15
330
5
100
AcDbSymbolTableRecord
100
AcDbLinetypeTableRecord
  2
ByLayer
 70
     0
  3

 72
    65
 73
     0
 40
0.0
  0
LTYPE
  5
16
330
5
100
AcDbSymbolTableRecord
100
AcDbLinetypeTableRecord
  2
Continuous
 70
     0
  3
Solid line
 72
    65
 73
     0
 40
0.0
  0
LTYPE
  5
3B
330
5
100
AcDbSymbolTableRecord
100
AcDbLinetypeTableRecord
  2
HIDDEN
 70
     0
  3
Hidden __ __ __ __ __ __ __ __ __ __ __ __ __ __
 72
    65
 73
     2
 40
1.905
 49
1.27
 74
     0
 49
-0.635
 74
     0
  0
LTYPE
  5
3C
330
5
100
AcDbSymbolTableRecord
100
AcDbLinetypeTableRecord
  2
PHANTOM
 70
     0
  3
Phantom ______  __  __  ______  __  __  ______
 72
    65
 73
     6
 40
12.7
 49
6.35
 74
     0
 49
-1.27
 74
     0
 49
1.27
 74
     0
 49
-1.27
 74
     0
 49
1.27
 74
     0
 49
-1.27
 74
     0
  0
LTYPE
  5
3D
330
5
100
AcDbSymbolTableRecord
100
AcDbLinetypeTableRecord
  2
CENTER
 70
     0
  3
Center ____ _ ____ _ ____ _ ____ _ ____ _ ____
 72
    65
 73
     4
 40
10.16
 49
6.35
 74
     0
 49
-1.27
 74
     0
 49
1.27
 74
     0
 49
-1.27
 74
     0
  0
LTYPE
  5
3E
330
5
100
AcDbSymbolTableRecord
100
AcDbLinetypeTableRecord
  2
CENTERX2
 70
     0
  3
Center (2x) ________  __  ________  __  _____
 72
    65
 73
     4
 40
20.32
 49
12.7
 74
     0
 49
-2.54
 74
     0
 49
2.54
 74
     0
 49
-2.54
 74
     0
  0
LTYPE
  5
3F
330
5
100
AcDbSymbolTableRecord
100
AcDbLinetypeTableRecord
  2
DOT2
 70
     0
  3
Dot (.5x) ........................................
 72
    65
 73
     2
 40
0.635
 49
0.0
 74
     0
 49
-0.635
 74
     0
  0
ENDTAB
  0
TABLE
  2
LAYER
  5
2
330
0
100
AcDbSymbolTable
 70
     3
  0
LAYER
  5
10
330
2
100
AcDbSymbolTableRecord
100
AcDbLayerTableRecord
  2
0
 70
     0
 62
     7
  6
Continuous
370
    -3
390
F
  0
LAYER
  5
40
330
2
100
AcDbSymbolTableRecord
100
AcDbLayerTableRecord
  2
FORMAT
 70
     0
 62
     7
  6
Continuous
370
    -3
390
F
  0
LAYER
  5
41
330
2
100
AcDbSymbolTableRecord
100
AcDbLayerTableRecord
  2
CALQUE_1
 70
     0
 62
   160
  6
Continuous
370
    -3
390
F
  0
ENDTAB
  0
TABLE
  2
STYLE
  5
3
330
0
100
AcDbSymbolTable
 70
     8
  0
STYLE
  5
11
330
3
100
AcDbSymbolTableRecord
100
AcDbTextStyleTableRecord
  2
Standard
 70
     0
 40
0.0
 41
1.0
 50
0.0
 71
     0
 42
2.5
  3
txt
  4

  0
STYLE
  5
52
330
3
100
AcDbSymbolTableRecord
100
AcDbTextStyleTableRecord
  2
SLDTEXTSTYLE0
 70
     0
 40
0.0
 41
0.663
 50
0.0
 71
     0
 42
0.2
  3
TXT
  4

  0
STYLE
  5
8F
330
3
100
AcDbSymbolTableRecord
100
AcDbTextStyleTableRecord
  2
SLDTEXTSTYLE1
 70
     0
 40
0.0
 41
0.605
 50
0.0
 71
     0
 42
0.2
  3
TXT
  4

  0
STYLE
  5
B2
330
3
100
AcDbSymbolTableRecord
100
AcDbTextStyleTableRecord
  2
SLDTEXTSTYLE2
 70
     0
 40
0.0
 41
0.7
 50
0.0
 71
     0
 42
0.2
  3
TXT
  4

  0
STYLE
  5
B4
330
3
100
AcDbSymbolTableRecord
100
AcDbTextStyleTableRecord
  2
SLDTEXTSTYLE3
 70
     0
 40
0.0
 41
0.575
 50
0.0
 71
     0
 42
0.2
  3
TXT
  4

  0
STYLE
  5
B6
330
3
100
AcDbSymbolTableRecord
100
AcDbTextStyleTableRecord
  2
SLDTEXTSTYLE4
 70
     0
 40
0.0
 41
0.644
 50
0.0
 71
     0
 42
0.2
  3
TXT
  4

  0
STYLE
  5
194
330
3
100
AcDbSymbolTableRecord
100
AcDbTextStyleTableRecord
  2
SLDTEXTSTYLE5
 70
     0
 40
0.0
 41
0.75
 50
0.0
 71
     0
 42
0.2
  3
TXT
  4

  0
STYLE
  5
498
330
3
100
AcDbSymbolTableRecord
100
AcDbTextStyleTableRecord
  2
SLDTEXTSTYLE6
 70
     0
 40
0.0
 41
0.6923076923
 50
0.0
 71
     0
 42
0.2
  3
TXT
  4

  0
ENDTAB
  0
TABLE
  2
VIEW
  5
6
330
0
100
AcDbSymbolTable
 70
     0
  0
ENDTAB
  0
TABLE
  2
UCS
  5
7
330
0
100
AcDbSymbolTable
 70
     0
  0
ENDTAB
  0
TABLE
  2
APPID
  5
9
330
0
100
AcDbSymbolTable
 70
     1
  0
APPID
  5
12
330
9
100
AcDbSymbolTableRecord
100
AcDbRegAppTableRecord
  2
ACAD
 70
     0
  0
ENDTAB
  0
TABLE
  2
DIMSTYLE
  5
A
330
0
100
AcDbSymbolTable
 70
     5
100
AcDbDimStyleTable
  0
DIMSTYLE
105
27
330
A
100
AcDbSymbolTableRecord
100
AcDbDimStyleTableRecord
  2
ISO-25
 70
     0
 41
2.5
 42
0.625
 43
3.75
 44
1.25
 73
     0
 74
     0
 77
     1
 78
     8
140
2.5
141
2.5
143
0.0393700787
147
0.625
171
     3
172
     1
271
     2
272
     2
274
     3
278
    44
283
     0
284
     8
340
11
  0
DIMSTYLE
105
195
102
{ACAD_REACTORS
330
193
102
}
330
A
100
AcDbSymbolTableRecord
100
AcDbDimStyleTableRecord
  2
SLDDIMSTYLE0
 70
     0
 41
3.302
 44
0.0
 45
0.000000001
 73
     0
 77
     1
 78
    12
140
3.5
144
10.0
147
0.875
173
     1
271
     2
272
     2
284
    12
340
194
  0
DIMSTYLE
105
41F
102
{ACAD_REACTORS
330
41E
330
429
330
44B
330
455
102
}
330
A
100
AcDbSymbolTableRecord
100
AcDbDimStyleTableRecord
  2
SLDDIMSTYLE1
 70
     0
 41
3.302
 44
0.0
 45
0.000000001
 73
     0
 77
     1
 78
    12
140
3.5
147
0.875
173
     1
271
     1
272
     1
284
    12
340
194
  0
DIMSTYLE
105
434
102
{ACAD_REACTORS
330
433
330
47E
102
}
330
A
100
AcDbSymbolTableRecord
100
AcDbDimStyleTableRecord
  2
SLDDIMSTYLE2
 70
     0
 41
3.302
 44
0.0
 45
0.000000001
 73
     0
 77
     1
 78
    12
140
3.5
147
0.875
173
     1
271
     1
272
     2
284
    12
340
194
  0
DIMSTYLE
105
441
102
{ACAD_REACTORS
330
440
330
45F
330
46A
330
474
330
48A
102
}
330
A
100
AcDbSymbolTableRecord
100
AcDbDimStyleTableRecord
  2
SLDDIMSTYLE3
 70
     0
 41
3.302
 44
0.0
 45
0.000000001
 73
     0
 77
     1
 78
    12
140
3.5
147
0.875
173
     1
271
     1
272
     2
284
    12
340
194
  0
ENDTAB
  0
TABLE
  2
BLOCK_RECORD
  5
1
330
0
100
AcDbSymbolTable
 70
    19
  0
BLOCK_RECORD
  5
1F
330
1
100
AcDbSymbolTableRecord
100
AcDbBlockTableRecord
  2
*Model_Space
340
22
  0
BLOCK_RECORD
  5
1B
330
1
100
AcDbSymbolTableRecord
100
AcDbBlockTableRecord
  2
*Paper_Space
340
1E
  0
BLOCK_RECORD
  5
23
330
1
100
AcDbSymbolTableRecord
100
AcDbBlockTableRecord
  2
*Paper_Space0
340
26
  0
BLOCK_RECORD
  5
42
330
1
100
AcDbSymbolTableRecord
100
AcDbBlockTableRecord
  2
Bloc1
340
0
102
{BLKREFS
331
8D
102
}
  0
BLOCK_RECORD
  5
91
330
1
100
AcDbSymbolTableRecord
100
AcDbBlockTableRecord
  2
SW_NOTE_0
340
0
102
{BLKREFS
331
97
102
}
  0
BLOCK_RECORD
  5
9B
330
1
100
AcDbSymbolTableRecord
100
AcDbBlockTableRecord
  2
SW_NOTE_1
340
0
102
{BLKREFS
331
A1
102
}
  0
BLOCK_RECORD
  5
A9
330
1
100
AcDbSymbolTableRecord
100
AcDbBlockTableRecord
  2
SW_NOTE_2
340
0
102
{BLKREFS
331
AE
102
}
  0
BLOCK_RECORD
  5
AF
330
1
100
AcDbSymbolTableRecord
100
AcDbBlockTableRecord
  2
SW_NOTE_3
340
0
102
{BLKREFS
331
BA
102
}
  0
BLOCK_RECORD
  5
196
330
1
100
AcDbSymbolTableRecord
100
AcDbBlockTableRecord
  2
*D6
340
0
  0
BLOCK_RECORD
  5
420
330
1
100
AcDbSymbolTableRecord
100
AcDbBlockTableRecord
  2
*D7
340
0
  0
BLOCK_RECORD
  5
42A
330
1
100
AcDbSymbolTableRecord
100
AcDbBlockTableRecord
  2
*D8
340
0
  0
BLOCK_RECORD
  5
435
330
1
100
AcDbSymbolTableRecord
100
AcDbBlockTableRecord
  2
*D9
340
0
  0
BLOCK_RECORD
  5
442
330
1
100
AcDbSymbolTableRecord
100
AcDbBlockTableRecord
  2
*D10
340
0
  0
BLOCK_RECORD
  5
44C
330
1
100
AcDbSymbolTableRecord
100
AcDbBlockTableRecord
  2
*D11
340
0
  0
BLOCK_RECORD
  5
456
330
1
100
AcDbSymbolTableRecord
100
AcDbBlockTableRecord
  2
*D12
340
0
  0
BLOCK_RECORD
  5
460
330
1
100
AcDbSymbolTableRecord
100
AcDbBlockTableRecord
  2
*D13
340
0
  0
BLOCK_RECORD
  5
46B
330
1
100
AcDbSymbolTableRecord
100
AcDbBlockTableRecord
  2
*D14
340
0
  0
BLOCK_RECORD
  5
475
330
1
100
AcDbSymbolTableRecord
100
AcDbBlockTableRecord
  2
*D15
340
0
  0
BLOCK_RECORD
  5
47F
330
1
100
AcDbSymbolTableRecord
100
AcDbBlockTableRecord
  2
*D16
340
0
  0
BLOCK_RECORD
  5
48B
330
1
100
AcDbSymbolTableRecord
100
AcDbBlockTableRecord
  2
*D17
340
0
  0
BLOCK_RECORD
  5
494
330
1
100
AcDbSymbolTableRecord
100
AcDbBlockTableRecord
  2
SW_NOTE_4
340
0
102
{BLKREFS
331
49A
102
}
  0
ENDTAB
  0
ENDSEC
  0
SECTION
  2
BLOCKS
  0
BLOCK
  5
20
330
1F
100
AcDbEntity
  8
0
100
AcDbBlockBegin
  2
*Model_Space
 70
     0
 10
0.0
 20
0.0
 30
0.0
  3
*Model_Space
  1

  0
ENDBLK
  5
21
330
1F
100
AcDbEntity
  8
0
100
AcDbBlockEnd
  0
BLOCK
  5
1C
330
1B
100
AcDbEntity
 67
     1
  8
0
100
AcDbBlockBegin
  2
*Paper_Space
 70
     0
 10
0.0
 20
0.0
 30
0.0
  3
*Paper_Space
  1

  0
ENDBLK
  5
1D
330
1B
100
AcDbEntity
 67
     1
  8
0
100
AcDbBlockEnd
  0
BLOCK
  5
24
330
23
100
AcDbEntity
  8
0
100
AcDbBlockBegin
  2
*Paper_Space0
 70
     0
 10
0.0
 20
0.0
 30
0.0
  3
*Paper_Space0
  1

  0
ENDBLK
  5
25
330
23
100
AcDbEntity
  8
0
100
AcDbBlockEnd
  0
BLOCK
  5
43
330
42
100
AcDbEntity
  8
0
100
AcDbBlockBegin
  2
Bloc1
 70
     0
 10
0.0
 20
0.0
 30
0.0
  3
Bloc1
  1

  0
ARC
  5
45
330
42
100
AcDbEntity
  8
CALQUE_1
 62
   179
100
AcDbCircle
 10
-35.4631973664
 20
3.4120225694
 30
0.0
 40
8.000000000000004
100
AcDbArc
 50
135.0
 51
225.0
  0
ARC
  5
46
330
42
100
AcDbEntity
  8
CALQUE_1
 62
   179
100
AcDbCircle
 10
-35.4631973664
 20
3.4120225694
 30
0.0
 40
4.999999999999996
100
AcDbArc
 50
135.0
 51
225.0
  0
ARC
  5
47
330
42
100
AcDbEntity
  8
0
  6
Continuous
 62
   179
370
     0
100
AcDbCircle
 10
-35.4631973664
 20
3.4120225694
 30
0.0
 40
8.000000000000002
100
AcDbArc
 50
315.0
 51
45.0
  0
ARC
  5
48
330
42
100
AcDbEntity
  8
0
  6
Continuous
 62
   179
370
     0
100
AcDbCircle
 10
-35.4631973664
 20
3.4120225694
 30
0.0
 40
5.000000000000001
100
AcDbArc
 50
315.0
 51
45.0
  0
LINE
  5
49
330
42
100
AcDbEntity
  8
CALQUE_1
 62
   179
100
AcDbLine
 10
-45.4631973664
 20
-6.5879774306
 30
0.0
 11
-25.4631973664
 21
-6.5879774306
 31
0.0
  0
LINE
  5
4A
330
42
100
AcDbEntity
  8
CALQUE_1
 62
   179
100
AcDbLine
 10
-31.9276634605
 20
6.9475564754
 30
0.0
 11
-38.9987312724
 21
-0.1235113365
 31
0.0
  0
LINE
  5
4B
330
42
100
AcDbEntity
  8
CALQUE_1
 62
   179
100
AcDbLine
 10
-29.8063431169
 20
9.0688768189
 30
0.0
 11
-25.4631973664
 21
13.4120225694
 31
0.0
  0
LINE
  5
4C
330
42
100
AcDbEntity
  8
CALQUE_1
 62
   179
100
AcDbLine
 10
-25.4631973664
 20
-6.5879774306
 30
0.0
 11
-29.8063431169
 21
-2.24483168
 31
0.0
  0
LINE
  5
4D
330
42
100
AcDbEntity
  8
CALQUE_1
 62
   179
100
AcDbLine
 10
-45.4631973664
 20
13.4120225694
 30
0.0
 11
-25.4631973664
 21
13.4120225694
 31
0.0
  0
LINE
  5
4E
330
42
100
AcDbEntity
  8
CALQUE_1
 62
   179
100
AcDbLine
 10
-41.1200516159
 20
-2.24483168
 30
0.0
 11
-45.4631973664
 21
-6.5879774306
 31
0.0
  0
LINE
  5
4F
330
42
100
AcDbEntity
  8
CALQUE_1
 62
   179
100
AcDbLine
 10
-31.9276634605
 20
-0.1235113365
 30
0.0
 11
-38.9987312724
 21
6.9475564754
 31
0.0
  0
LINE
  5
50
330
42
100
AcDbEntity
  8
CALQUE_1
 62
   179
100
AcDbLine
 10
-41.1200516159
 20
9.0688768189
 30
0.0
 11
-45.4631973664
 21
13.4120225694
 31
0.0
  0
HATCH
  5
51
330
42
100
AcDbEntity
  8
0
  6
Continuous
 62
     7
100
AcDbHatch
 10
0.0
 20
0.0
 30
0.0
210
0.0
220
0.0
230
1.0
  2
SOLID
 70
     1
 71
     0
 91
        2
 92
        0
 93
        8
 72
     2
 10
-35.46319736642428
 20
3.412022569444451
 40
7.999999999999985
 50
315.0000000000007
 51
405.0000000000009
 73
     1
 72
     1
 10
-29.80634311693192
 20
9.068876818936825
 11
-25.46319736642433
 21
13.41202256944444
 72
     1
 10
-25.46319736642433
 20
13.41202256944444
 11
-45.46319736642429
 21
13.41202256944446
 72
     1
 10
-45.46319736642429
 20
13.41202256944446
 11
-41.12005161591669
 21
9.068876818936838
 72
     2
 10
-35.46319736642428
 20
3.412022569444451
 40
8.000000000000025
 50
135.0000000000001
 51
225.0000000000007
 73
     1
 72
     1
 10
-41.12005161591669
 20
-2.24483168004793
 11
-45.46319736642429
 21
-6.587977430555545
 72
     1
 10
-45.46319736642429
 20
-6.587977430555545
 11
-25.46319736642433
 21
-6.587977430555545
 72
     1
 10
-25.46319736642433
 20
-6.587977430555545
 11
-29.80634311693192
 21
-2.244831680047923
 97
        0
 92
        0
 93
        6
 72
     1
 10
-35.46319736642434
 20
3.412022569444464
 11
-31.92766346049158
 21
6.94755647537719
 72
     2
 10
-35.46319736642428
 20
3.412022569444451
 40
4.99999999999997
 50
315.0000000000005
 51
405.0000000000012
 73
     0
 72
     1
 10
-31.92766346049158
 20
-0.1235113364882884
 11
-35.46319736642434
 21
3.412022569444464
 72
     1
 10
-35.46319736642434
 20
3.412022569444464
 11
-38.99873127235703
 21
-0.1235113364882606
 72
     2
 10
-35.46319736642428
 20
3.412022569444451
 40
5.000000000000009
 50
135.0000000000003
 51
225.0000000000006
 73
     0
 72
     1
 10
-38.99873127235703
 20
6.947556475377183
 11
-35.46319736642434
 21
3.412022569444464
 97
        0
 75
     0
 76
     1
 98
        1
 10
0.0
 20
0.0
  0
MTEXT
  5
75
330
42
100
AcDbEntity
  8
CALQUE_1
100
AcDbMText
 10
-45.7151642717
 20
-8.2605906468
 30
0.0
 40
5.2
 41
0.0
 71
     1
 72
     1
  1
DIGIT
  7
SLDTEXTSTYLE0
 73
     1
 44
1.0
  0
ENDBLK
  5
44
330
42
100
AcDbEntity
  8
0
100
AcDbBlockEnd
  0
BLOCK
  5
92
330
91
100
AcDbEntity
  8
0
100
AcDbBlockBegin
  2
SW_NOTE_0
 70
     0
 10
0.0
 20
0.0
 30
0.0
  3
SW_NOTE_0
  1

  0
MTEXT
  5
94
330
91
100
AcDbEntity
  8
CALQUE_1
 62
     0
100
AcDbMText
 10
0.0
 20
3.4106583948
 30
0.0
 40
2.6458333333
 41
0.0
 71
     1
 72
     1
  1
Vol. (mm
  7
SLDTEXTSTYLE1
 73
     1
 44
1.0
  0
MTEXT
  5
95
330
91
100
AcDbEntity
  8
CALQUE_1
 62
     0
100
AcDbMText
 10
14.1111118719
 20
5.1891516803
 30
0.0
 40
2.1166666667
 41
0.0
 71
     1
 72
     1
  1
3
  7
SLDTEXTSTYLE1
 73
     1
 44
1.0
  0
MTEXT
  5
96
330
91
100
AcDbEntity
  8
CALQUE_1
 62
     0
100
AcDbMText
 10
15.679012984
 20
3.4106583948
 30
0.0
 40
2.6458333333
 41
0.0
 71
     1
 72
     1
  1
) : 
  7
SLDTEXTSTYLE1
 73
     1
 44
1.0
  0
ENDBLK
  5
93
330
91
100
AcDbEntity
  8
0
100
AcDbBlockEnd
  0
BLOCK
  5
9C
330
9B
100
AcDbEntity
  8
0
100
AcDbBlockBegin
  2
SW_NOTE_1
 70
     0
 10
0.0
 20
0.0
 30
0.0
  3
SW_NOTE_1
  1

  0
MTEXT
  5
9E
330
9B
100
AcDbEntity
  8
CALQUE_1
 62
     0
100
AcDbMText
 10
0.0
 20
3.4106583948
 30
0.0
 40
2.6458333333
 41
0.0
 71
     1
 72
     1
  1
Tolérance gale : 
  7
SLDTEXTSTYLE1
 73
     1
 44
1.0
  0
MTEXT
  5
9F
330
9B
100
AcDbEntity
  8
CALQUE_1
 62
     0
100
AcDbMText
 10
26.2623466551
 20
3.4106585112
 30
0.0
 40
2.6458333333
 41
0.0
 71
     1
 72
     1
  1
%%p
  7
SLDTEXTSTYLE1
 73
     1
 44
1.0
  0
MTEXT
  5
A0
330
9B
100
AcDbEntity
  8
CALQUE_1
 62
     0
100
AcDbMText
 10
29.6088363975
 20
3.4106583948
 30
0.0
 40
2.6458333333
 41
0.0
 71
     1
 72
     1
  1
0.1
  7
SLDTEXTSTYLE1
 73
     1
 44
1.0
  0
ENDBLK
  5
9D
330
9B
100
AcDbEntity
  8
0
100
AcDbBlockEnd
  0
BLOCK
  5
AA
330
A9
100
AcDbEntity
  8
0
100
AcDbBlockBegin
  2
SW_NOTE_2
 70
     0
 10
0.0
 20
0.0
 30
0.0
  3
SW_NOTE_2
  1

  0
MTEXT
  5
AC
330
A9
100
AcDbEntity
  8
CALQUE_1
 62
     0
100
AcDbMText
 10
0.0
 20
2.7285267159
 30
0.0
 40
2.1166666667
 41
0.0
 71
     1
 72
     1
  1
Ce document est la propritété exclusive de DIGIT, il ne peut être communiqué à des tiers sans son autorisation.
  7
SLDTEXTSTYLE1
 73
     1
 44
1.0
  0
MTEXT
  5
AD
330
A9
100
AcDbEntity
  8
CALQUE_1
 62
     0
100
AcDbMText
 10
0.0
 20
-0.0936954723
 30
0.0
 40
2.1166666667
 41
0.0
 71
     1
 72
     1
  1
This document is the exclusive property of DIGIT and it may not be disclosed to others without permission.
  7
SLDTEXTSTYLE1
 73
     1
 44
1.0
  0
ENDBLK
  5
AB
330
A9
100
AcDbEntity
  8
0
100
AcDbBlockEnd
  0
BLOCK
  5
B0
330
AF
100
AcDbEntity
  8
0
100
AcDbBlockBegin
  2
SW_NOTE_3
 70
     0
 10
0.0
 20
0.0
 30
0.0
  3
SW_NOTE_3
  1

  0
MTEXT
  5
B3
330
AF
100
AcDbEntity
  8
CALQUE_1
 62
     0
100
AcDbMText
 10
0.0
 20
2.7285267159
 30
0.0
 40
2.1166666667
 41
0.0
 71
     1
 72
     1
  1
31, av du Général Leclerc 93500 PANTIN 
  7
SLDTEXTSTYLE2
 73
     1
 44
1.0
  0
MTEXT
  5
B5
330
AF
100
AcDbEntity
  8
CALQUE_1
 62
     0
100
AcDbMText
 10
0.0
 20
-0.0936954723
 30
0.0
 40
2.1166666667
 41
0.0
 71
     1
 72
     1
  1
F  R  A  N  C  E
  7
SLDTEXTSTYLE3
 73
     1
 44
1.0
  0
MTEXT
  5
B7
330
AF
100
AcDbEntity
  8
CALQUE_1
 62
     0
100
AcDbMText
 10
0.0
 20
-2.9159176604
 30
0.0
 40
2.1166666667
 41
0.0
 71
     1
 72
     1
  1
Tel : 33 (0)1 41 71 06 85
  7
SLDTEXTSTYLE4
 73
     1
 44
1.0
  0
MTEXT
  5
B8
330
AF
100
AcDbEntity
  8
CALQUE_1
 62
     0
100
AcDbMText
 10
0.0
 20
-5.7381398485
 30
0.0
 40
2.1166666667
 41
0.0
 71
     1
 72
     1
  1
Fax : 33 (0)1 41 71 06 86
  7
SLDTEXTSTYLE4
 73
     1
 44
1.0
  0
MTEXT
  5
B9
330
AF
100
AcDbEntity
  8
CALQUE_1
 62
     0
100
AcDbMText
 10
0.0
 20
-8.5603620366
 30
0.0
 40
2.1166666667
 41
0.0
 71
     1
 72
     1
  1
www.digit.fr
  7
SLDTEXTSTYLE2
 73
     1
 44
1.0
  0
ENDBLK
  5
B1
330
AF
100
AcDbEntity
  8
0
100
AcDbBlockEnd
  0
BLOCK
  5
197
330
196
100
AcDbEntity
  8
0
100
AcDbBlockBegin
  2
*D6
 70
     1
 10
0.0
 20
0.0
 30
0.0
  3
*D6
  1

  0
SOLID
  5
199
330
196
100
AcDbEntity
  8
0
  6
Continuous
 62
     7
370
     0
100
AcDbTrace
 10
151.1990923605
 20
262.3118105925
 30
0.0
 11
151.7070923605
 21
265.6138105925
 31
0.0
 12
150.6910923605
 22
265.6138105925
 32
0.0
 13
150.6910923605
 23
265.6138105925
 33
0.0
  0
SOLID
  5
19A
330
196
100
AcDbEntity
  8
0
  6
Continuous
 62
     7
370
     0
100
AcDbTrace
 10
151.1990923605
 20
244.1618105925
 30
0.0
 11
150.6910923605
 21
240.8598105925
 31
0.0
 12
151.7070923605
 22
240.8598105925
 32
0.0
 13
151.7070923605
 23
240.8598105925
 33
0.0
  0
LINE
  5
19B
330
196
100
AcDbEntity
  8
0
  6
Continuous
 62
     7
370
     0
100
AcDbLine
 10
160.1990923605
 20
262.3118105925
 30
0.0
 11
150.1990923605
 21
262.3118105925
 31
0.0
  0
LINE
  5
19C
330
196
100
AcDbEntity
  8
0
  6
Continuous
 62
     7
370
     0
100
AcDbLine
 10
153.3436656435
 20
244.1618105925
 30
0.0
 11
150.1990923605
 21
244.1618105925
 31
0.0
  0
LINE
  5
19D
330
196
100
AcDbEntity
  8
0
  6
Continuous
 62
     7
370
     0
100
AcDbLine
 10
151.1990923605
 20
262.3118105925
 30
0.0
 11
151.1990923605
 21
268.6618105925
 31
0.0
  0
LINE
  5
19E
330
196
100
AcDbEntity
  8
0
  6
Continuous
 62
     7
370
     0
100
AcDbLine
 10
151.1990923605
 20
262.3118105925
 30
0.0
 11
151.1990923605
 21
244.1618105925
 31
0.0
  0
LINE
  5
19F
330
196
100
AcDbEntity
  8
0
  6
Continuous
 62
     7
370
     0
100
AcDbLine
 10
151.1990923605
 20
244.1618105925
 30
0.0
 11
151.1990923605
 21
237.8118105925
 31
0.0
  0
MTEXT
  5
1A0
330
196
100
AcDbEntity
  8
0
  6
Continuous
 62
     7
370
     0
100
AcDbMText
 10
146.6873554459
 20
236.6767568251
 30
0.0
 40
3.5
 41
0.0
 71
     1
 72
     1
  1
181,500
  7
SLDTEXTSTYLE5
 11
6.123233995736766E-17
 21
1.0
 31
0.0
 73
     1
 44
1.0
  0
ENDBLK
  5
198
330
196
100
AcDbEntity
  8
0
100
AcDbBlockEnd
  0
BLOCK
  5
421
330
420
100
AcDbEntity
  8
0
100
AcDbBlockBegin
  2
*D7
 70
     1
 10
0.0
 20
0.0
 30
0.0
  3
*D7
  1

  0
SOLID
  5
423
330
420
100
AcDbEntity
  8
0
  6
Continuous
 62
     7
370
     0
100
AcDbTrace
 10
87.6738133973
 20
156.7246670679
 30
0.0
 11
87.1658133973
 21
153.4226670679
 31
0.0
 12
88.1818133973
 22
153.4226670679
 32
0.0
 13
88.1818133973
 23
153.4226670679
 33
0.0
  0
SOLID
  5
424
330
420
100
AcDbEntity
  8
0
  6
Continuous
 62
     7
370
     0
100
AcDbTrace
 10
87.6738133973
 20
96.7344783165
 30
0.0
 11
88.1818133973
 21
100.0364783165
 31
0.0
 12
87.1658133973
 22
100.0364783165
 32
0.0
 13
87.1658133973
 23
100.0364783165
 33
0.0
  0
LINE
  5
425
330
420
100
AcDbEntity
  8
0
  6
Continuous
 62
     7
370
     0
100
AcDbLine
 10
155.8635382922
 20
156.7246670679
 30
0.0
 11
86.6738133973
 21
156.7246670679
 31
0.0
  0
LINE
  5
426
330
420
100
AcDbEntity
  8
0
  6
Continuous
 62
     7
370
     0
100
AcDbLine
 10
112.4204089816
 20
96.7344783165
 30
0.0
 11
86.6738133973
 21
96.7344783165
 31
0.0
  0
LINE
  5
427
330
420
100
AcDbEntity
  8
0
  6
Continuous
 62
     7
370
     0
100
AcDbLine
 10
87.6738133973
 20
156.7246670679
 30
0.0
 11
87.6738133973
 21
96.7344783165
 31
0.0
  0
MTEXT
  5
428
330
420
100
AcDbEntity
  8
0
  6
Continuous
 62
     7
370
     0
100
AcDbMText
 10
83.1620764827
 20
122.8742531644
 30
0.0
 40
3.5
 41
0.0
 71
     1
 72
     1
  1
60
  7
SLDTEXTSTYLE5
 11
-7.044195017643634E-15
 21
1.0
 31
0.0
 73
     1
 44
1.0
  0
ENDBLK
  5
422
330
420
100
AcDbEntity
  8
0
100
AcDbBlockEnd
  0
BLOCK
  5
42B
330
42A
100
AcDbEntity
  8
0
100
AcDbBlockBegin
  2
*D8
 70
     1
 10
0.0
 20
0.0
 30
0.0
  3
*D8
  1

  0
SOLID
  5
42D
330
42A
100
AcDbEntity
  8
0
  6
Continuous
 62
     7
370
     0
100
AcDbTrace
 10
175.4049333018
 20
75.7766528622
 30
0.0
 11
178.7069333018
 21
75.2686528622
 31
0.0
 12
178.7069333018
 22
76.2846528622
 32
0.0
 13
178.7069333018
 23
76.2846528622
 33
0.0
  0
SOLID
  5
42E
330
42A
100
AcDbEntity
  8
0
  6
Continuous
 62
     7
370
     0
100
AcDbTrace
 10
218.8110951668
 20
75.7766528622
 30
0.0
 11
215.5090951668
 21
76.2846528622
 31
0.0
 12
215.5090951668
 22
75.2686528622
 32
0.0
 13
215.5090951668
 23
75.2686528622
 33
0.0
  0
LINE
  5
42F
330
42A
100
AcDbEntity
  8
0
  6
Continuous
 62
     7
370
     0
100
AcDbLine
 10
175.4049333018
 20
94.2344783165
 30
0.0
 11
175.4049333018
 21
74.7766528622
 31
0.0
  0
LINE
  5
430
330
42A
100
AcDbEntity
  8
0
  6
Continuous
 62
     7
370
     0
100
AcDbLine
 10
218.8110951668
 20
94.2344783165
 30
0.0
 11
218.8110951668
 21
74.7766528622
 31
0.0
  0
LINE
  5
431
330
42A
100
AcDbEntity
  8
0
  6
Continuous
 62
     7
370
     0
100
AcDbLine
 10
175.4049333018
 20
75.7766528622
 30
0.0
 11
218.8110951668
 21
75.7766528622
 31
0.0
  0
MTEXT
  5
432
330
42A
100
AcDbEntity
  8
0
  6
Continuous
 62
     7
370
     0
100
AcDbMText
 10
190.3901434325
 20
80.2883897768
 30
0.0
 40
3.5
 41
0.0
 71
     1
 72
     1
  1
43,4
  7
SLDTEXTSTYLE5
 73
     1
 44
1.0
  0
ENDBLK
  5
42C
330
42A
100
AcDbEntity
  8
0
100
AcDbBlockEnd
  0
BLOCK
  5
436
330
435
100
AcDbEntity
  8
0
100
AcDbBlockBegin
  2
*D9
 70
     1
 10
0.0
 20
0.0
 30
0.0
  3
*D9
  1

  0
SOLID
  5
438
330
435
100
AcDbEntity
  8
0
  6
Continuous
 62
     7
370
     0
100
AcDbTrace
 10
230.8731571778
 20
102.939820209
 30
0.0
 11
231.3811571778
 21
106.241820209
 31
0.0
 12
230.3651571778
 22
106.241820209
 32
0.0
 13
230.3651571778
 23
106.241820209
 33
0.0
  0
SOLID
  5
439
330
435
100
AcDbEntity
  8
0
  6
Continuous
 62
     7
370
     0
100
AcDbTrace
 10
230.8731571778
 20
95.2344783165
 30
0.0
 11
230.3651571778
 21
91.9324783165
 31
0.0
 12
231.3811571778
 22
91.9324783165
 32
0.0
 13
231.3811571778
 23
91.9324783165
 33
0.0
  0
LINE
  5
43A
330
435
100
AcDbEntity
  8
0
  6
Continuous
 62
     7
370
     0
100
AcDbLine
 10
218.4503586119
 20
102.9398202089
 30
0.0
 11
231.8731571778
 21
102.939820209
 31
0.0
  0
LINE
  5
43B
330
435
100
AcDbEntity
  8
0
  6
Continuous
 62
     7
370
     0
100
AcDbLine
 10
219.8110951668
 20
95.2344783165
 30
0.0
 11
231.8731571778
 21
95.2344783165
 31
0.0
  0
LINE
  5
43C
330
435
100
AcDbEntity
  8
0
  6
Continuous
 62
     7
370
     0
100
AcDbLine
 10
230.8731571778
 20
102.939820209
 30
0.0
 11
230.8731571778
 21
109.289820209
 31
0.0
  0
LINE
  5
43D
330
435
100
AcDbEntity
  8
0
  6
Continuous
 62
     7
370
     0
100
AcDbLine
 10
230.8731571778
 20
102.939820209
 30
0.0
 11
230.8731571778
 21
95.2344783165
 31
0.0
  0
LINE
  5
43E
330
435
100
AcDbEntity
  8
0
  6
Continuous
 62
     7
370
     0
100
AcDbLine
 10
230.8731571778
 20
95.2344783165
 30
0.0
 11
230.8731571778
 21
88.8844783165
 31
0.0
  0
MTEXT
  5
43F
330
435
100
AcDbEntity
  8
0
  6
Continuous
 62
     7
370
     0
100
AcDbMText
 10
226.3614202632
 20
95.9725687154
 30
0.0
 40
3.5
 41
0.0
 71
     1
 72
     1
  1
7,7
  7
SLDTEXTSTYLE5
 11
-2.610632230518794E-13
 21
1.0
 31
0.0
 73
     1
 44
1.0
  0
ENDBLK
  5
437
330
435
100
AcDbEntity
  8
0
100
AcDbBlockEnd
  0
BLOCK
  5
443
330
442
100
AcDbEntity
  8
0
100
AcDbBlockBegin
  2
*D10
 70
     1
 10
0.0
 20
0.0
 30
0.0
  3
*D10
  1

  0
SOLID
  5
445
330
442
100
AcDbEntity
  8
0
  6
Continuous
 62
     7
370
     0
100
AcDbTrace
 10
241.115475012
 20
132.2746822499
 30
0.0
 11
240.607475012
 21
128.9726822499
 31
0.0
 12
241.623475012
 22
128.9726822499
 32
0.0
 13
241.623475012
 23
128.9726822499
 33
0.0
  0
SOLID
  5
446
330
442
100
AcDbEntity
  8
0
  6
Continuous
 62
     7
370
     0
100
AcDbTrace
 10
241.115475012
 20
95.2344783165
 30
0.0
 11
241.623475012
 21
98.5364783165
 31
0.0
 12
240.607475012
 22
98.5364783165
 32
0.0
 13
240.607475012
 23
98.5364783165
 33
0.0
  0
LINE
  5
447
330
442
100
AcDbEntity
  8
0
  6
Continuous
 62
     7
370
     0
100
AcDbLine
 10
170.7733011205
 20
132.2746822499
 30
0.0
 11
242.115475012
 21
132.2746822499
 31
0.0
  0
LINE
  5
448
330
442
100
AcDbEntity
  8
0
  6
Continuous
 62
     7
370
     0
100
AcDbLine
 10
177.6049333018
 20
95.2344783165
 30
0.0
 11
242.115475012
 21
95.2344783165
 31
0.0
  0
LINE
  5
449
330
442
100
AcDbEntity
  8
0
  6
Continuous
 62
     7
370
     0
100
AcDbLine
 10
241.115475012
 20
132.2746822499
 30
0.0
 11
241.115475012
 21
95.2344783165
 31
0.0
  0
MTEXT
  5
44A
330
442
100
AcDbEntity
  8
0
  6
Continuous
 62
     7
370
     0
100
AcDbMText
 10
236.6037380974
 20
114.2197457024
 30
0.0
 40
3.5
 41
0.0
 71
     1
 72
     1
  1
37
  7
SLDTEXTSTYLE5
 11
-8.269460797427576E-16
 21
1.0
 31
0.0
 73
     1
 44
1.0
  0
ENDBLK
  5
444
330
442
100
AcDbEntity
  8
0
100
AcDbBlockEnd
  0
BLOCK
  5
44D
330
44C
100
AcDbEntity
  8
0
100
AcDbBlockBegin
  2
*D11
 70
     1
 10
0.0
 20
0.0
 30
0.0
  3
*D11
  1

  0
SOLID
  5
44F
330
44C
100
AcDbEntity
  8
0
  6
Continuous
 62
     7
370
     0
100
AcDbTrace
 10
77.4056490785
 20
156.7246670679
 30
0.0
 11
76.8976490785
 21
153.4226670679
 31
0.0
 12
77.9136490785
 22
153.4226670679
 32
0.0
 13
77.9136490785
 23
153.4226670679
 33
0.0
  0
SOLID
  5
450
330
44C
100
AcDbEntity
  8
0
  6
Continuous
 62
     7
370
     0
100
AcDbTrace
 10
77.4056490785
 20
93.5344783165
 30
0.0
 11
77.9136490785
 21
96.8364783165
 31
0.0
 12
76.8976490785
 22
96.8364783165
 32
0.0
 13
76.8976490785
 23
96.8364783165
 33
0.0
  0
LINE
  5
451
330
44C
100
AcDbEntity
  8
0
  6
Continuous
 62
     7
370
     0
100
AcDbLine
 10
155.8635382922
 20
156.7246670679
 30
0.0
 11
76.4056490785
 21
156.7246670679
 31
0.0
  0
LINE
  5
452
330
44C
100
AcDbEntity
  8
0
  6
Continuous
 62
     7
370
     0
100
AcDbLine
 10
160.9130597439
 20
93.5344783165
 30
0.0
 11
76.4056490785
 21
93.5344783165
 31
0.0
  0
LINE
  5
453
330
44C
100
AcDbEntity
  8
0
  6
Continuous
 62
     7
370
     0
100
AcDbLine
 10
77.4056490785
 20
156.7246670679
 30
0.0
 11
77.4056490785
 21
93.5344783165
 31
0.0
  0
MTEXT
  5
454
330
44C
100
AcDbEntity
  8
0
  6
Continuous
 62
     7
370
     0
100
AcDbMText
 10
72.8939121639
 20
120.9341067783
 30
0.0
 40
3.5
 41
0.0
 71
     1
 72
     1
  1
63,2
  7
SLDTEXTSTYLE5
 11
8.976725272967002E-14
 21
1.0
 31
0.0
 73
     1
 44
1.0
  0
ENDBLK
  5
44E
330
44C
100
AcDbEntity
  8
0
100
AcDbBlockEnd
  0
BLOCK
  5
457
330
456
100
AcDbEntity
  8
0
100
AcDbBlockBegin
  2
*D12
 70
     1
 10
0.0
 20
0.0
 30
0.0
  3
*D12
  1

  0
SOLID
  5
459
330
456
100
AcDbEntity
  8
0
  6
Continuous
 62
     7
370
     0
100
AcDbTrace
 10
119.8130397439
 20
75.7766528622
 30
0.0
 11
123.1150397439
 21
75.2686528622
 31
0.0
 12
123.1150397439
 22
76.2846528622
 32
0.0
 13
123.1150397439
 23
76.2846528622
 33
0.0
  0
SOLID
  5
45A
330
456
100
AcDbEntity
  8
0
  6
Continuous
 62
     7
370
     0
100
AcDbTrace
 10
163.2130397439
 20
75.7766528622
 30
0.0
 11
159.9110397439
 21
76.2846528622
 31
0.0
 12
159.9110397439
 22
75.2686528622
 32
0.0
 13
159.9110397439
 23
75.2686528622
 33
0.0
  0
LINE
  5
45B
330
456
100
AcDbEntity
  8
0
  6
Continuous
 62
     7
370
     0
100
AcDbLine
 10
119.8130397439
 20
95.3344783165
 30
0.0
 11
119.8130397439
 21
74.7766528622
 31
0.0
  0
LINE
  5
45C
330
456
100
AcDbEntity
  8
0
  6
Continuous
 62
     7
370
     0
100
AcDbLine
 10
163.2130397439
 20
95.3344783165
 30
0.0
 11
163.2130397439
 21
74.7766528622
 31
0.0
  0
LINE
  5
45D
330
456
100
AcDbEntity
  8
0
  6
Continuous
 62
     7
370
     0
100
AcDbLine
 10
119.8130397439
 20
75.7766528622
 30
0.0
 11
163.2130397439
 21
75.7766528622
 31
0.0
  0
MTEXT
  5
45E
330
456
100
AcDbEntity
  8
0
  6
Continuous
 62
     7
370
     0
100
AcDbMText
 10
138.5721488893
 20
80.2883897768
 30
0.0
 40
3.5
 41
0.0
 71
     1
 72
     1
  1
43,4
  7
SLDTEXTSTYLE5
 73
     1
 44
1.0
  0
ENDBLK
  5
458
330
456
100
AcDbEntity
  8
0
100
AcDbBlockEnd
  0
BLOCK
  5
461
330
460
100
AcDbEntity
  8
0
100
AcDbBlockBegin
  2
*D13
 70
     1
 10
0.0
 20
0.0
 30
0.0
  3
*D13
  1

  0
SOLID
  5
463
330
460
100
AcDbEntity
  8
0
  6
Continuous
 62
     7
370
     0
100
AcDbTrace
 10
170.2249618528
 20
102.3344783165
 30
0.0
 11
169.7169618528
 21
99.0324783165
 31
0.0
 12
170.7329618528
 22
99.0324783165
 32
0.0
 13
170.7329618528
 23
99.0324783165
 33
0.0
  0
SOLID
  5
464
330
460
100
AcDbEntity
  8
0
  6
Continuous
 62
     7
370
     0
100
AcDbTrace
 10
170.2249618528
 20
93.5344783165
 30
0.0
 11
170.7329618528
 21
96.8364783165
 31
0.0
 12
169.7169618528
 22
96.8364783165
 32
0.0
 13
169.7169618528
 23
96.8364783165
 33
0.0
  0
LINE
  5
465
330
460
100
AcDbEntity
  8
0
  6
Continuous
 62
     7
370
     0
100
AcDbLine
 10
149.5101567924
 20
102.3344783165
 30
0.0
 11
171.2249618528
 21
102.3344783165
 31
0.0
  0
LINE
  5
466
330
460
100
AcDbEntity
  8
0
  6
Continuous
 62
     7
370
     0
100
AcDbLine
 10
164.2130597439
 20
93.5344783165
 30
0.0
 11
171.2249618528
 21
93.5344783165
 31
0.0
  0
LINE
  5
467
330
460
100
AcDbEntity
  8
0
  6
Continuous
 62
     7
370
     0
100
AcDbLine
 10
170.2249618528
 20
102.3344783165
 30
0.0
 11
170.2249618528
 21
93.5344783165
 31
0.0
  0
LINE
  5
468
330
460
100
AcDbEntity
  8
0
  6
Continuous
 62
     7
370
     0
100
AcDbLine
 10
170.2249618528
 20
93.5344783165
 30
0.0
 11
170.2249618528
 21
77.2510046804
 31
0.0
  0
MTEXT
  5
469
330
460
100
AcDbEntity
  8
0
  6
Continuous
 62
     7
370
     0
100
AcDbMText
 10
165.7132249382
 20
78.8385046804
 30
0.0
 40
3.5
 41
0.0
 71
     1
 72
     1
  1
8,8
  7
SLDTEXTSTYLE5
 11
-3.491481338843133E-15
 21
1.0
 31
0.0
 73
     1
 44
1.0
  0
ENDBLK
  5
462
330
460
100
AcDbEntity
  8
0
100
AcDbBlockEnd
  0
BLOCK
  5
46C
330
46B
100
AcDbEntity
  8
0
100
AcDbBlockBegin
  2
*D14
 70
     1
 10
0.0
 20
0.0
 30
0.0
  3
*D14
  1

  0
SOLID
  5
46E
330
46B
100
AcDbEntity
  8
0
  6
Continuous
 62
     7
370
     0
100
AcDbTrace
 10
97.8129611001
 20
93.5344783165
 30
0.0
 11
98.3209611001
 21
96.8364783165
 31
0.0
 12
97.3049611001
 22
96.8364783165
 32
0.0
 13
97.3049611001
 23
96.8364783165
 33
0.0
  0
SOLID
  5
46F
330
46B
100
AcDbEntity
  8
0
  6
Continuous
 62
     7
370
     0
100
AcDbTrace
 10
97.8129611001
 20
124.4354837145
 30
0.0
 11
97.3049611001
 21
121.1334837145
 31
0.0
 12
98.3209611001
 22
121.1334837145
 32
0.0
 13
98.3209611001
 23
121.1334837145
 33
0.0
  0
LINE
  5
470
330
46B
100
AcDbEntity
  8
0
  6
Continuous
 62
     7
370
     0
100
AcDbLine
 10
118.8130397439
 20
93.5344783165
 30
0.0
 11
96.8129611001
 21
93.5344783165
 31
0.0
  0
LINE
  5
471
330
46B
100
AcDbEntity
  8
0
  6
Continuous
 62
     7
370
     0
100
AcDbLine
 10
119.8130397439
 20
124.4354837145
 30
0.0
 11
96.8129611001
 21
124.4354837145
 31
0.0
  0
LINE
  5
472
330
46B
100
AcDbEntity
  8
0
  6
Continuous
 62
     7
370
     0
100
AcDbLine
 10
97.8129611001
 20
93.5344783165
 30
0.0
 11
97.8129611001
 21
124.4354837145
 31
0.0
  0
MTEXT
  5
473
330
46B
100
AcDbEntity
  8
0
  6
Continuous
 62
     7
370
     0
100
AcDbMText
 10
93.3012241855
 20
106.7150327265
 30
0.0
 40
3.5
 41
0.0
 71
     1
 72
     1
  1
30,9
  7
SLDTEXTSTYLE5
 11
1.649253310440968E-14
 21
1.0
 31
0.0
 73
     1
 44
1.0
  0
ENDBLK
  5
46D
330
46B
100
AcDbEntity
  8
0
100
AcDbBlockEnd
  0
BLOCK
  5
476
330
475
100
AcDbEntity
  8
0
100
AcDbBlockBegin
  2
*D15
 70
     1
 10
0.0
 20
0.0
 30
0.0
  3
*D15
  1

  0
SOLID
  5
478
330
475
100
AcDbEntity
  8
0
  6
Continuous
 62
     7
370
     0
100
AcDbTrace
 10
108.0701604588
 20
95.8344783165
 30
0.0
 11
108.5781604588
 21
99.1364783165
 31
0.0
 12
107.5621604588
 22
99.1364783165
 32
0.0
 13
107.5621604588
 23
99.1364783165
 33
0.0
  0
SOLID
  5
479
330
475
100
AcDbEntity
  8
0
  6
Continuous
 62
     7
370
     0
100
AcDbTrace
 10
108.0701604588
 20
124.4354837145
 30
0.0
 11
107.5621604588
 21
121.1334837145
 31
0.0
 12
108.5781604588
 22
121.1334837145
 32
0.0
 13
108.5781604588
 23
121.1334837145
 33
0.0
  0
LINE
  5
47A
330
475
100
AcDbEntity
  8
0
  6
Continuous
 62
     7
370
     0
100
AcDbLine
 10
119.1130397439
 20
95.8344783165
 30
0.0
 11
107.0701604588
 21
95.8344783165
 31
0.0
  0
LINE
  5
47B
330
475
100
AcDbEntity
  8
0
  6
Continuous
 62
     7
370
     0
100
AcDbLine
 10
119.8130397439
 20
124.4354837145
 30
0.0
 11
107.0701604588
 21
124.4354837145
 31
0.0
  0
LINE
  5
47C
330
475
100
AcDbEntity
  8
0
  6
Continuous
 62
     7
370
     0
100
AcDbLine
 10
108.0701604588
 20
95.8344783165
 30
0.0
 11
108.0701604588
 21
124.4354837145
 31
0.0
  0
MTEXT
  5
47D
330
475
100
AcDbEntity
  8
0
  6
Continuous
 62
     7
370
     0
100
AcDbMText
 10
103.5584235442
 20
106.7150327265
 30
0.0
 40
3.5
 41
0.0
 71
     1
 72
     1
  1
28,6
  7
SLDTEXTSTYLE5
 11
1.649253310440968E-14
 21
1.0
 31
0.0
 73
     1
 44
1.0
  0
ENDBLK
  5
477
330
475
100
AcDbEntity
  8
0
100
AcDbBlockEnd
  0
BLOCK
  5
480
330
47F
100
AcDbEntity
  8
0
100
AcDbBlockBegin
  2
*D16
 70
     1
 10
0.0
 20
0.0
 30
0.0
  3
*D16
  1

  0
SOLID
  5
482
330
47F
100
AcDbEntity
  8
0
  6
Continuous
 62
     7
370
     0
100
AcDbTrace
 10
108.0701604588
 20
95.8344783165
 30
0.0
 11
108.5781604588
 21
99.1364783165
 31
0.0
 12
107.5621604588
 22
99.1364783165
 32
0.0
 13
107.5621604588
 23
99.1364783165
 33
0.0
  0
SOLID
  5
483
330
47F
100
AcDbEntity
  8
0
  6
Continuous
 62
     7
370
     0
100
AcDbTrace
 10
108.0701604588
 20
93.5344783165
 30
0.0
 11
107.5621604588
 21
90.2324783165
 31
0.0
 12
108.5781604588
 22
90.2324783165
 32
0.0
 13
108.5781604588
 23
90.2324783165
 33
0.0
  0
LINE
  5
484
330
47F
100
AcDbEntity
  8
0
  6
Continuous
 62
     7
370
     0
100
AcDbLine
 10
119.1130397439
 20
95.8344783165
 30
0.0
 11
107.0701604588
 21
95.8344783165
 31
0.0
  0
LINE
  5
485
330
47F
100
AcDbEntity
  8
0
  6
Continuous
 62
     7
370
     0
100
AcDbLine
 10
118.8130397439
 20
93.5344783165
 30
0.0
 11
107.0701604588
 21
93.5344783165
 31
0.0
  0
LINE
  5
486
330
47F
100
AcDbEntity
  8
0
  6
Continuous
 62
     7
370
     0
100
AcDbLine
 10
108.0701604588
 20
95.8344783165
 30
0.0
 11
108.0701604588
 21
102.1844783165
 31
0.0
  0
LINE
  5
487
330
47F
100
AcDbEntity
  8
0
  6
Continuous
 62
     7
370
     0
100
AcDbLine
 10
108.0701604588
 20
95.8344783165
 30
0.0
 11
108.0701604588
 21
93.5344783165
 31
0.0
  0
LINE
  5
488
330
47F
100
AcDbEntity
  8
0
  6
Continuous
 62
     7
370
     0
100
AcDbLine
 10
108.0701604588
 20
93.5344783165
 30
0.0
 11
108.0701604588
 21
77.4788738833
 31
0.0
  0
MTEXT
  5
489
330
47F
100
AcDbEntity
  8
0
  6
Continuous
 62
     7
370
     0
100
AcDbMText
 10
103.5584235442
 20
79.0663738833
 30
0.0
 40
3.5
 41
0.0
 71
     1
 72
     1
  1
2,3
  7
SLDTEXTSTYLE5
 11
-3.491481338843133E-15
 21
1.0
 31
0.0
 73
     1
 44
1.0
  0
ENDBLK
  5
481
330
47F
100
AcDbEntity
  8
0
100
AcDbBlockEnd
  0
BLOCK
  5
48C
330
48B
100
AcDbEntity
  8
0
100
AcDbBlockBegin
  2
*D17
 70
     1
 10
0.0
 20
0.0
 30
0.0
  3
*D17
  1

  0
SOLID
  5
48E
330
48B
100
AcDbEntity
  8
0
  6
Continuous
 62
     7
370
     0
100
AcDbTrace
 10
113.8129611001
 20
164.5343312415
 30
0.0
 11
117.1149611001
 21
164.0263312415
 31
0.0
 12
117.1149611001
 22
165.0423312415
 32
0.0
 13
117.1149611001
 23
165.0423312415
 33
0.0
  0
SOLID
  5
48F
330
48B
100
AcDbEntity
  8
0
  6
Continuous
 62
     7
370
     0
100
AcDbTrace
 10
218.8110951668
 20
164.5343312415
 30
0.0
 11
215.5090951668
 21
165.0423312415
 31
0.0
 12
215.5090951668
 22
164.0263312415
 32
0.0
 13
215.5090951668
 23
164.0263312415
 33
0.0
  0
LINE
  5
490
330
48B
100
AcDbEntity
  8
0
  6
Continuous
 62
     7
370
     0
100
AcDbLine
 10
113.8129611001
 20
136.9762664228
 30
0.0
 11
113.8129611001
 21
165.5343312415
 31
0.0
  0
LINE
  5
491
330
48B
100
AcDbEntity
  8
0
  6
Continuous
 62
     7
370
     0
100
AcDbLine
 10
218.8110951668
 20
102.4462989694
 30
0.0
 11
218.8110951668
 21
165.5343312415
 31
0.0
  0
LINE
  5
492
330
48B
100
AcDbEntity
  8
0
  6
Continuous
 62
     7
370
     0
100
AcDbLine
 10
113.8129611001
 20
164.5343312415
 30
0.0
 11
218.8110951668
 21
164.5343312415
 31
0.0
  0
MTEXT
  5
493
330
48B
100
AcDbEntity
  8
0
  6
Continuous
 62
     7
370
     0
100
AcDbMText
 10
159.1390597118
 20
169.0460681561
 30
0.0
 40
3.5
 41
0.0
 71
     1
 72
     1
  1
105
  7
SLDTEXTSTYLE5
 73
     1
 44
1.0
  0
ENDBLK
  5
48D
330
48B
100
AcDbEntity
  8
0
100
AcDbBlockEnd
  0
BLOCK
  5
495
330
494
100
AcDbEntity
  8
0
100
AcDbBlockBegin
  2
SW_NOTE_4
 70
     0
 10
0.0
 20
0.0
 30
0.0
  3
SW_NOTE_4
  1

  0
MTEXT
  5
497
330
494
100
AcDbEntity
  8
0
  6
Continuous
 62
     0
370
     0
100
AcDbMText
 10
0.0
 20
4.5117370892
 30
0.0
 40
3.5
 41
0.0
 71
     1
 72
     1
  1
COUPE A-A 
  7
SLDTEXTSTYLE5
 73
     1
 44
1.0
  0
MTEXT
  5
499
330
494
100
AcDbEntity
  8
0
  6
Continuous
 62
     0
370
     0
100
AcDbMText
 10
-0.9673619643
 20
-0.0139574413
 30
0.0
 40
3.5
 41
0.0
 71
     1
 72
     1
  1
ECHELLE 1 : 1
  7
SLDTEXTSTYLE6
 73
     1
 44
1.0
  0
ENDBLK
  5
496
330
494
100
AcDbEntity
  8
0
100
AcDbBlockEnd
  0
ENDSEC
  0
SECTION
  2
ENTITIES
  0
LINE
  5
76
330
1F
100
AcDbEntity
  8
0
  6
Continuous
 62
     7
370
     0
100
AcDbLine
 10
220.0
 20
61.0
 30
0.0
 11
410.0
 21
61.0
 31
0.0
  0
LINE
  5
77
330
1F
100
AcDbEntity
  8
0
  6
Continuous
 62
     7
370
     0
100
AcDbLine
 10
10.0
 20
10.0
 30
0.0
 11
410.0
 21
10.0
 31
0.0
  0
LINE
  5
78
330
1F
100
AcDbEntity
  8
0
  6
Continuous
 62
     7
370
     0
100
AcDbLine
 10
10.0
 20
10.0
 30
0.0
 11
10.0
 21
287.0
 31
0.0
  0
LINE
  5
79
330
1F
100
AcDbEntity
  8
0
  6
Continuous
 62
     7
370
     0
100
AcDbLine
 10
10.0
 20
287.0
 30
0.0
 11
410.0
 21
287.0
 31
0.0
  0
LINE
  5
7A
330
1F
100
AcDbEntity
  8
0
  6
Continuous
 62
     7
370
     0
100
AcDbLine
 10
410.0
 20
10.0
 30
0.0
 11
410.0
 21
287.0
 31
0.0
  0
LINE
  5
7B
330
1F
100
AcDbEntity
  8
0
  6
Continuous
 62
     7
370
     0
100
AcDbLine
 10
220.0
 20
61.0
 30
0.0
 11
220.0
 21
10.0
 31
0.0
  0
LINE
  5
7C
330
1F
100
AcDbEntity
  8
0
  6
Continuous
 62
     7
370
     0
100
AcDbLine
 10
220.0
 20
27.0
 30
0.0
 11
410.0
 21
27.0
 31
0.0
  0
LINE
  5
7D
330
1F
100
AcDbEntity
  8
0
  6
Continuous
 62
     7
370
     0
100
AcDbLine
 10
220.0
 20
52.5
 30
0.0
 11
410.0
 21
52.5
 31
0.0
  0
LINE
  5
7E
330
1F
100
AcDbEntity
  8
0
  6
Continuous
 62
     7
370
     0
100
AcDbLine
 10
334.0
 20
52.5
 30
0.0
 11
334.0
 21
10.0
 31
0.0
  0
LINE
  5
7F
330
1F
100
AcDbEntity
  8
0
  6
Continuous
 62
     7
370
     0
100
AcDbLine
 10
334.0
 20
18.5
 30
0.0
 11
220.0
 21
18.5
 31
0.0
  0
LINE
  5
80
330
1F
100
AcDbEntity
  8
0
  6
Continuous
 62
     7
370
     0
100
AcDbLine
 10
372.0
 20
61.0
 30
0.0
 11
372.0
 21
27.0
 31
0.0
  0
LINE
  5
81
330
1F
100
AcDbEntity
  8
0
  6
Continuous
 62
     7
370
     0
100
AcDbLine
 10
334.0
 20
44.0
 30
0.0
 11
410.0
 21
44.0
 31
0.0
  0
LINE
  5
82
330
1F
100
AcDbEntity
  8
0
  6
Continuous
 62
     7
370
     0
100
AcDbLine
 10
334.0
 20
35.5
 30
0.0
 11
410.0
 21
35.5
 31
0.0
  0
LINE
  5
83
330
1F
100
AcDbEntity
  8
0
  6
Continuous
 62
     7
370
     0
100
AcDbLine
 10
258.0
 20
27.0
 30
0.0
 11
258.0
 21
10.0
 31
0.0
  0
LINE
  5
84
330
1F
100
AcDbEntity
  8
0
  6
Continuous
 62
     7
370
     0
100
AcDbLine
 10
296.0
 20
27.0
 30
0.0
 11
296.0
 21
10.0
 31
0.0
  0
LINE
  5
85
330
1F
100
AcDbEntity
  8
0
  6
Continuous
 62
   160
370
     0
100
AcDbLine
 10
344.625
 20
39.75
 30
0.0
 11
360.5
 21
39.75
 31
0.0
  0
LINE
  5
86
330
1F
100
AcDbEntity
  8
0
  6
Continuous
 62
   160
370
     0
100
AcDbLine
 10
346.5
 20
40.6875
 30
0.0
 11
346.5
 21
38.8125
 31
0.0
  0
LINE
  5
87
330
1F
100
AcDbEntity
  8
0
  6
Continuous
 62
   160
370
     0
100
AcDbLine
 10
346.5
 20
40.6875
 30
0.0
 11
353.0
 21
41.625
 31
0.0
  0
LINE
  5
88
330
1F
100
AcDbEntity
  8
0
  6
Continuous
 62
   160
370
     0
100
AcDbLine
 10
353.0
 20
41.625
 30
0.0
 11
353.0
 21
37.875
 31
0.0
  0
LINE
  5
89
330
1F
100
AcDbEntity
  8
0
  6
Continuous
 62
   160
370
     0
100
AcDbLine
 10
353.0
 20
37.875
 30
0.0
 11
346.5
 21
38.8125
 31
0.0
  0
LINE
  5
8A
330
1F
100
AcDbEntity
  8
0
  6
Continuous
 62
   160
370
     0
100
AcDbLine
 10
356.75
 20
43.5
 30
0.0
 11
356.75
 21
36.0
 31
0.0
  0
CIRCLE
  5
8B
330
1F
100
AcDbEntity
  8
0
  6
Continuous
 62
   160
370
     0
100
AcDbCircle
 10
356.75
 20
39.75
 30
0.0
 40
1.874999999999971
  0
CIRCLE
  5
8C
330
1F
100
AcDbEntity
  8
0
  6
Continuous
 62
   160
370
     0
100
AcDbCircle
 10
356.75
 20
39.75
 30
0.0
 40
0.9375000000000138
  0
INSERT
  5
8D
330
1F
100
AcDbEntity
  8
CALQUE_1
100
AcDbBlockReference
  2
Bloc1
 10
361.0686769764
 20
17.9208044845
 30
0.0
 41
0.5
 42
0.5
 43
0.5
  0
POINT
  5
8E
330
1F
100
AcDbEntity
  8
0
  6
Continuous
 62
     7
370
     0
100
AcDbPoint
 10
10.0
 20
10.0
 30
0.0
  0
MTEXT
  5
90
330
1F
100
AcDbEntity
  8
CALQUE_1
100
AcDbMText
 10
297.4225551496
 20
15.5050410702
 30
0.0
 40
2.6458333333
 41
0.0
 71
     1
 72
     1
  1
Poids (g) : 
  7
SLDTEXTSTYLE1
 73
     1
 44
1.0
  0
INSERT
  5
97
330
1F
100
AcDbEntity
  8
CALQUE_1
100
AcDbBlockReference
  2
SW_NOTE_0
 10
259.5469081999
 20
12.0589899288
 30
0.0
  0
MTEXT
  5
98
330
1F
100
AcDbEntity
  8
CALQUE_1
100
AcDbMText
 10
373.7998998186
 20
32.7527167938
 30
0.0
 40
2.6458333333
 41
0.0
 71
     1
 72
     1
  1
C.A.: ...
  7
SLDTEXTSTYLE1
 73
     1
 44
1.0
  0
MTEXT
  5
99
330
1F
100
AcDbEntity
  8
CALQUE_1
100
AcDbMText
 10
258.4314403303
 20
43.5873456371
 30
0.0
 40
5.8208333333
 41
0.0
 71
     1
 72
     1
  1
BO600RP
  7
SLDTEXTSTYLE1
 73
     1
 44
1.0
  0
MTEXT
  5
9A
330
1F
100
AcDbEntity
  8
CALQUE_1
100
AcDbMText
 10
296.6269216112
 20
24.2771621962
 30
0.0
 40
2.6458333333
 41
0.0
 71
     1
 72
     1
  1
Etat de surface : Ra 3,2
  7
SLDTEXTSTYLE1
 73
     1
 44
1.0
  0
INSERT
  5
A1
330
1F
100
AcDbEntity
  8
CALQUE_1
100
AcDbBlockReference
  2
SW_NOTE_1
 10
259.2790928849
 20
21.0054549774
 30
0.0
  0
MTEXT
  5
A2
330
1F
100
AcDbEntity
  8
CALQUE_1
100
AcDbMText
 10
221.256756159
 20
24.6157365754
 30
0.0
 40
3.175
 41
0.0
 71
     1
 72
     1
  1
Matière : ...
  7
SLDTEXTSTYLE1
 73
     1
 44
1.0
  0
MTEXT
  5
A3
330
1F
100
AcDbEntity
  8
CALQUE_1
100
AcDbMText
 10
221.9372002789
 20
15.7341310033
 30
0.0
 40
3.175
 41
0.0
 71
     1
 72
     1
  1
DES.: S. Ghorbel
  7
SLDTEXTSTYLE1
 73
     1
 44
1.0
  0
MTEXT
  5
A4
330
1F
100
AcDbEntity
  8
CALQUE_1
100
AcDbMText
 10
348.4952163557
 20
32.7396853625
 30
0.0
 40
3.175
 41
0.0
 71
     1
 72
     1
  1
A3
  7
SLDTEXTSTYLE1
 73
     1
 44
1.0
  0
MTEXT
  5
A5
330
1F
100
AcDbEntity
  8
CALQUE_1
100
AcDbMText
 10
339.7765476612
 20
49.9405399688
 30
0.0
 40
3.175
 41
0.0
 71
     1
 72
     1
  1
ECHELLE 1:1
  7
SLDTEXTSTYLE1
 73
     1
 44
1.0
  0
MTEXT
  5
A6
330
1F
100
AcDbEntity
  8
CALQUE_1
100
AcDbMText
 10
373.5448197642
 20
41.9151427745
 30
0.0
 40
3.4395833333
 41
0.0
 71
     1
 72
     1
  1
Date 24/01/2010
  7
SLDTEXTSTYLE1
 73
     1
 44
1.0
  0
MTEXT
  5
A7
330
1F
100
AcDbEntity
  8
CALQUE_1
100
AcDbMText
 10
373.4311818116
 20
50.4467800862
 30
0.0
 40
3.4395833333
 41
0.0
 71
     1
 72
     1
  1
Edition 00
  7
SLDTEXTSTYLE1
 73
     1
 44
1.0
  0
MTEXT
  5
A8
330
1F
100
AcDbEntity
  8
CALQUE_1
100
AcDbMText
 10
373.4431976676
 20
59.0945335686
 30
0.0
 40
3.4395833333
 41
0.0
 71
     1
 72
     1
  1
Plan M ...
  7
SLDTEXTSTYLE1
 73
     1
 44
1.0
  0
INSERT
  5
AE
330
1F
100
AcDbEntity
  8
CALQUE_1
100
AcDbBlockReference
  2
SW_NOTE_2
 10
221.258533295
 20
56.7762917137
 30
0.0
  0
INSERT
  5
BA
330
1F
100
AcDbEntity
  8
CALQUE_1
100
AcDbBlockReference
  2
SW_NOTE_3
 10
354.9591168585
 20
22.2312720122
 30
0.0
  0
LINE
  5
BB
330
1F
100
AcDbEntity
  8
0
  6
Continuous
 62
     7
370
    15
100
AcDbLine
 10
170.7182715253
 20
182.3118093158
 30
0.0
 11
170.7182715253
 21
262.3118105079
 31
0.0
  0
LINE
  5
BC
330
1F
100
AcDbEntity
  8
0
  6
Continuous
 62
     7
370
    15
100
AcDbLine
 10
171.6174742745
 20
182.3118093158
 30
0.0
 11
171.6174742745
 21
262.3118105079
 31
0.0
  0
LINE
  5
BD
330
1F
100
AcDbEntity
  8
0
  6
Continuous
 62
     7
370
    15
100
AcDbLine
 10
165.9788119213
 20
262.3118105079
 30
0.0
 11
165.9788119213
 21
262.711805358
 31
0.0
  0
LINE
  5
BE
330
1F
100
AcDbEntity
  8
0
  6
Continuous
 62
     7
370
    15
100
AcDbLine
 10
161.9588120447
 20
262.711805358
 30
0.0
 11
161.9588120447
 21
262.3118105079
 31
0.0
  0
LINE
  5
BF
330
1F
100
AcDbEntity
  8
0
  6
Continuous
 62
     7
370
    15
100
AcDbLine
 10
168.5112495513
 20
182.3118093158
 30
0.0
 11
168.5112495513
 21
262.3118105079
 31
0.0
  0
LINE
  5
C0
330
1F
100
AcDbEntity
  8
0
  6
Continuous
 62
     7
370
    15
100
AcDbLine
 10
168.8316710831
 20
182.3118093158
 30
0.0
 11
168.8316710831
 21
262.3118105079
 31
0.0
  0
LINE
  5
C1
330
1F
100
AcDbEntity
  8
0
  6
Continuous
 62
     7
370
    15
100
AcDbLine
 10
170.3699598626
 20
182.3118093158
 30
0.0
 11
170.3699598626
 21
262.3118105079
 31
0.0
  0
LINE
  5
C2
330
1F
100
AcDbEntity
  8
0
  6
Continuous
 62
     7
370
    15
100
AcDbLine
 10
170.3699598626
 20
262.3118105079
 30
0.0
 11
168.8371742682
 21
262.3118105079
 31
0.0
  0
LINE
  5
C3
330
1F
100
AcDbEntity
  8
0
  6
Continuous
 62
     7
370
    15
100
AcDbLine
 10
170.3699598626
 20
182.3118093158
 30
0.0
 11
168.8371742682
 21
182.3118093158
 31
0.0
  0
LINE
  5
C4
330
1F
100
AcDbEntity
  8
0
  6
Continuous
 62
     7
370
    15
100
AcDbLine
 10
170.5216801332
 20
182.3118093158
 30
0.0
 11
170.5216801332
 21
262.3118105079
 31
0.0
  0
LINE
  5
C5
330
1F
100
AcDbEntity
  8
0
  6
Continuous
 62
     7
370
    15
100
AcDbLine
 10
170.4077372865
 20
182.3118093158
 30
0.0
 11
170.4077372865
 21
262.3118105079
 31
0.0
  0
LINE
  5
C6
330
1F
100
AcDbEntity
  8
0
  6
Continuous
 62
     7
370
    15
100
AcDbLine
 10
170.5216801332
 20
262.3118105079
 30
0.0
 11
170.4077372865
 21
262.3118105079
 31
0.0
  0
LINE
  5
C7
330
1F
100
AcDbEntity
  8
0
  6
Continuous
 62
     7
370
    15
100
AcDbLine
 10
170.5216801332
 20
182.3118093158
 30
0.0
 11
170.4077372865
 21
182.3118093158
 31
0.0
  0
LINE
  5
C8
330
1F
100
AcDbEntity
  8
0
  6
Continuous
 62
     7
370
    15
100
AcDbLine
 10
170.7090942727
 20
182.3118093158
 30
0.0
 11
170.7090942727
 21
262.3118105079
 31
0.0
  0
LINE
  5
C9
330
1F
100
AcDbEntity
  8
0
  6
Continuous
 62
     7
370
    15
100
AcDbLine
 10
170.545290278
 20
182.3118093158
 30
0.0
 11
170.545290278
 21
262.3118105079
 31
0.0
  0
LINE
  5
CA
330
1F
100
AcDbEntity
  8
0
  6
Continuous
 62
     7
370
    15
100
AcDbLine
 10
170.7090942727
 20
262.3118105079
 30
0.0
 11
170.545290278
 21
262.3118105079
 31
0.0
  0
LINE
  5
CB
330
1F
100
AcDbEntity
  8
0
  6
Continuous
 62
     7
370
    15
100
AcDbLine
 10
170.7090942727
 20
182.3118093158
 30
0.0
 11
170.545290278
 21
182.3118093158
 31
0.0
  0
LINE
  5
CC
330
1F
100
AcDbEntity
  8
0
  6
Continuous
 62
     7
370
    15
100
AcDbLine
 10
170.4077372865
 20
262.3118105079
 30
0.0
 11
170.3699598626
 21
262.3118105079
 31
0.0
  0
LINE
  5
CD
330
1F
100
AcDbEntity
  8
0
  6
Continuous
 62
     7
370
    15
100
AcDbLine
 10
170.4077372865
 20
182.3118093158
 30
0.0
 11
170.3699598626
 21
182.3118093158
 31
0.0
  0
LINE
  5
CE
330
1F
100
AcDbEntity
  8
0
  6
Continuous
 62
     7
370
    15
100
AcDbLine
 10
170.545290278
 20
262.3118105079
 30
0.0
 11
170.5216801332
 21
262.3118105079
 31
0.0
  0
LINE
  5
CF
330
1F
100
AcDbEntity
  8
0
  6
Continuous
 62
     7
370
    15
100
AcDbLine
 10
170.545290278
 20
182.3118093158
 30
0.0
 11
170.5216801332
 21
182.3118093158
 31
0.0
  0
LINE
  5
D0
330
1F
100
AcDbEntity
  8
0
  6
Continuous
 62
     7
370
    15
100
AcDbLine
 10
170.7182715253
 20
262.3118105079
 30
0.0
 11
170.7090942727
 21
262.3118105079
 31
0.0
  0
LINE
  5
D1
330
1F
100
AcDbEntity
  8
0
  6
Continuous
 62
     7
370
    15
100
AcDbLine
 10
170.7182715253
 20
182.3118093158
 30
0.0
 11
170.7090942727
 21
182.3118093158
 31
0.0
  0
LINE
  5
D2
330
1F
100
AcDbEntity
  8
0
  6
Continuous
 62
     7
370
    15
100
AcDbLine
 10
171.1427329646
 20
182.3118093158
 30
0.0
 11
171.1427329646
 21
262.3118105079
 31
0.0
  0
LINE
  5
D3
330
1F
100
AcDbEntity
  8
0
  6
Continuous
 62
     7
370
    15
100
AcDbLine
 10
170.7269223945
 20
182.3118093158
 30
0.0
 11
170.7269223945
 21
262.3118105079
 31
0.0
  0
LINE
  5
D4
330
1F
100
AcDbEntity
  8
0
  6
Continuous
 62
     7
370
    15
100
AcDbLine
 10
171.1427329646
 20
262.3118105079
 30
0.0
 11
170.7269223945
 21
262.3118105079
 31
0.0
  0
LINE
  5
D5
330
1F
100
AcDbEntity
  8
0
  6
Continuous
 62
     7
370
    15
100
AcDbLine
 10
171.1427329646
 20
182.3118093158
 30
0.0
 11
170.7269223945
 21
182.3118093158
 31
0.0
  0
LINE
  5
D6
330
1F
100
AcDbEntity
  8
0
  6
Continuous
 62
     7
370
    15
100
AcDbLine
 10
170.7269223945
 20
262.3118105079
 30
0.0
 11
170.7182715253
 21
262.3118105079
 31
0.0
  0
LINE
  5
D7
330
1F
100
AcDbEntity
  8
0
  6
Continuous
 62
     7
370
    15
100
AcDbLine
 10
170.7269223945
 20
182.3118093158
 30
0.0
 11
170.7182715253
 21
182.3118093158
 31
0.0
  0
LINE
  5
D8
330
1F
100
AcDbEntity
  8
0
  6
Continuous
 62
     7
370
    15
100
AcDbLine
 10
171.6104692386
 20
182.3118093158
 30
0.0
 11
171.6104692386
 21
262.3118105079
 31
0.0
  0
LINE
  5
D9
330
1F
100
AcDbEntity
  8
0
  6
Continuous
 62
     7
370
    15
100
AcDbLine
 10
171.6104692386
 20
262.3118105079
 30
0.0
 11
171.1427329646
 21
262.3118105079
 31
0.0
  0
LINE
  5
DA
330
1F
100
AcDbEntity
  8
0
  6
Continuous
 62
     7
370
    15
100
AcDbLine
 10
171.6104692386
 20
182.3118093158
 30
0.0
 11
171.1427329646
 21
182.3118093158
 31
0.0
  0
LINE
  5
DB
330
1F
100
AcDbEntity
  8
0
  6
Continuous
 62
     7
370
    15
100
AcDbLine
 10
171.6174742745
 20
262.3118105079
 30
0.0
 11
171.6104692386
 21
262.3118105079
 31
0.0
  0
LINE
  5
DC
330
1F
100
AcDbEntity
  8
0
  6
Continuous
 62
     7
370
    15
100
AcDbLine
 10
171.6174742745
 20
182.3118093158
 30
0.0
 11
171.6104692386
 21
182.3118093158
 31
0.0
  0
LINE
  5
DD
330
1F
100
AcDbEntity
  8
0
  6
Continuous
 62
     7
370
    15
100
AcDbLine
 10
165.7688119521
 20
262.711805358
 30
0.0
 11
165.7688119521
 21
262.3118105079
 31
0.0
  0
LINE
  5
DE
330
1F
100
AcDbEntity
  8
0
  6
Continuous
 62
     7
370
    15
100
AcDbLine
 10
165.8272724205
 20
262.711805358
 30
0.0
 11
165.7688119521
 21
262.711805358
 31
0.0
  0
LINE
  5
DF
330
1F
100
AcDbEntity
  8
0
  6
Continuous
 62
     7
370
    15
100
AcDbLine
 10
162.1688118742
 20
262.711805358
 30
0.0
 11
162.1688118742
 21
262.3118105079
 31
0.0
  0
LINE
  5
E0
330
1F
100
AcDbEntity
  8
0
  6
Continuous
 62
     7
370
    15
100
AcDbLine
 10
162.1688118742
 20
262.711805358
 30
0.0
 11
162.1103512661
 21
262.711805358
 31
0.0
  0
LINE
  5
E1
330
1F
100
AcDbEntity
  8
0
  6
Continuous
 62
     7
370
    15
100
AcDbLine
 10
165.9188119301
 20
262.711805358
 30
0.0
 11
165.9188119301
 21
262.3118105079
 31
0.0
  0
LINE
  5
E2
330
1F
100
AcDbEntity
  8
0
  6
Continuous
 62
     7
370
    15
100
AcDbLine
 10
165.9188119301
 20
262.711805358
 30
0.0
 11
165.8272724205
 21
262.711805358
 31
0.0
  0
LINE
  5
E3
330
1F
100
AcDbEntity
  8
0
  6
Continuous
 62
     7
370
    15
100
AcDbLine
 10
162.0188119428
 20
262.711805358
 30
0.0
 11
162.0188119428
 21
262.3118105079
 31
0.0
  0
LINE
  5
E4
330
1F
100
AcDbEntity
  8
0
  6
Continuous
 62
     7
370
    15
100
AcDbLine
 10
162.0188119428
 20
262.711805358
 30
0.0
 11
162.1103512661
 21
262.711805358
 31
0.0
  0
LINE
  5
E5
330
1F
100
AcDbEntity
  8
0
  6
Continuous
 62
     7
370
    15
100
AcDbLine
 10
163.2688118682
 20
262.711805358
 30
0.0
 11
164.6688119115
 21
262.711805358
 31
0.0
  0
LINE
  5
E6
330
1F
100
AcDbEntity
  8
0
  6
Continuous
 62
     7
370
    15
100
AcDbLine
 10
163.1688120381
 20
262.711805358
 30
0.0
 11
163.1688120381
 21
262.3118105079
 31
0.0
  0
LINE
  5
E7
330
1F
100
AcDbEntity
  8
0
  6
Continuous
 62
     7
370
    15
100
AcDbLine
 10
163.2688118682
 20
262.711805358
 30
0.0
 11
163.1688120381
 21
262.711805358
 31
0.0
  0
LINE
  5
E8
330
1F
100
AcDbEntity
  8
0
  6
Continuous
 62
     7
370
    15
100
AcDbLine
 10
164.7688119279
 20
262.711805358
 30
0.0
 11
164.7688119279
 21
262.3118105079
 31
0.0
  0
LINE
  5
E9
330
1F
100
AcDbEntity
  8
0
  6
Continuous
 62
     7
370
    15
100
AcDbLine
 10
164.7688119279
 20
262.711805358
 30
0.0
 11
164.6688119115
 21
262.711805358
 31
0.0
  0
LINE
  5
EA
330
1F
100
AcDbEntity
  8
0
  6
Continuous
 62
     7
370
    15
100
AcDbLine
 10
165.9188119301
 20
262.711805358
 30
0.0
 11
165.9242373963
 21
262.711805358
 31
0.0
  0
LINE
  5
EB
330
1F
100
AcDbEntity
  8
0
  6
Continuous
 62
     7
370
    15
100
AcDbLine
 10
162.01338643
 20
262.711805358
 30
0.0
 11
162.0188119428
 21
262.711805358
 31
0.0
  0
LINE
  5
EC
330
1F
100
AcDbEntity
  8
0
  6
Continuous
 62
     7
370
    15
100
AcDbLine
 10
165.9242373963
 20
262.711805358
 30
0.0
 11
165.9742907227
 21
262.711805358
 31
0.0
  0
LINE
  5
ED
330
1F
100
AcDbEntity
  8
0
  6
Continuous
 62
     7
370
    15
100
AcDbLine
 10
161.963333057
 20
262.711805358
 30
0.0
 11
162.01338643
 21
262.711805358
 31
0.0
  0
LINE
  5
EE
330
1F
100
AcDbEntity
  8
0
  6
Continuous
 62
     7
370
    15
100
AcDbLine
 10
165.9788119213
 20
262.711805358
 30
0.0
 11
165.9742907227
 21
262.711805358
 31
0.0
  0
LINE
  5
EF
330
1F
100
AcDbEntity
  8
0
  6
Continuous
 62
     7
370
    15
100
AcDbLine
 10
161.963333057
 20
262.711805358
 30
0.0
 11
161.9588120447
 21
262.711805358
 31
0.0
  0
LINE
  5
F0
330
1F
100
AcDbEntity
  8
0
  6
Continuous
 62
     7
370
    15
100
AcDbLine
 10
163.1188119368
 20
262.711805358
 30
0.0
 11
163.1688120381
 21
262.711805358
 31
0.0
  0
LINE
  5
F1
330
1F
100
AcDbEntity
  8
0
  6
Continuous
 62
     7
370
    15
100
AcDbLine
 10
165.7188119439
 20
262.711805358
 30
0.0
 11
165.7688119521
 21
262.711805358
 31
0.0
  0
LINE
  5
F2
330
1F
100
AcDbEntity
  8
0
  6
Continuous
 62
     7
370
    15
100
AcDbLine
 10
164.7688119279
 20
262.711805358
 30
0.0
 11
164.8188118429
 21
262.711805358
 31
0.0
  0
LINE
  5
F3
330
1F
100
AcDbEntity
  8
0
  6
Continuous
 62
     7
370
    15
100
AcDbLine
 10
162.1688118742
 20
262.711805358
 30
0.0
 11
162.2188119755
 21
262.711805358
 31
0.0
  0
LINE
  5
F4
330
1F
100
AcDbEntity
  8
0
  6
Continuous
 62
     7
370
    15
100
AcDbLine
 10
165.2081012332
 20
262.711805358
 30
0.0
 11
164.8188118429
 21
262.711805358
 31
0.0
  0
LINE
  5
F5
330
1F
100
AcDbEntity
  8
0
  6
Continuous
 62
     7
370
    15
100
AcDbLine
 10
166.1391022221
 20
262.711805358
 30
0.0
 11
166.1391022221
 21
262.3118105079
 31
0.0
  0
LINE
  5
F6
330
1F
100
AcDbEntity
  8
0
  6
Continuous
 62
     7
370
    15
100
AcDbLine
 10
166.1391022221
 20
262.711805358
 30
0.0
 11
166.1091022265
 21
262.711805358
 31
0.0
  0
LINE
  5
F7
330
1F
100
AcDbEntity
  8
0
  6
Continuous
 62
     7
370
    15
100
AcDbLine
 10
166.1091022265
 20
262.711805358
 30
0.0
 11
165.9788119213
 21
262.711805358
 31
0.0
  0
LINE
  5
F8
330
1F
100
AcDbEntity
  8
0
  6
Continuous
 62
     7
370
    15
100
AcDbLine
 10
162.7295224534
 20
262.711805358
 30
0.0
 11
163.1188119368
 21
262.711805358
 31
0.0
  0
LINE
  5
F9
330
1F
100
AcDbEntity
  8
0
  6
Continuous
 62
     7
370
    15
100
AcDbLine
 10
162.7295224534
 20
262.711805358
 30
0.0
 11
162.7083095328
 21
262.711805358
 31
0.0
  0
LINE
  5
FA
330
1F
100
AcDbEntity
  8
0
  6
Continuous
 62
     7
370
    15
100
AcDbLine
 10
165.2293144332
 20
262.711805358
 30
0.0
 11
165.2081012332
 21
262.711805358
 31
0.0
  0
LINE
  5
FB
330
1F
100
AcDbEntity
  8
0
  6
Continuous
 62
     7
370
    15
100
AcDbLine
 10
165.7188119439
 20
262.711805358
 30
0.0
 11
165.3295226001
 21
262.711805358
 31
0.0
  0
LINE
  5
FC
330
1F
100
AcDbEntity
  8
0
  6
Continuous
 62
     7
370
    15
100
AcDbLine
 10
165.3295226001
 20
262.711805358
 30
0.0
 11
165.3083094002
 21
262.711805358
 31
0.0
  0
LINE
  5
FD
330
1F
100
AcDbEntity
  8
0
  6
Continuous
 62
     7
370
    15
100
AcDbLine
 10
162.2188119755
 20
262.711805358
 30
0.0
 11
162.6081010864
 21
262.711805358
 31
0.0
  0
LINE
  5
FE
330
1F
100
AcDbEntity
  8
0
  6
Continuous
 62
     7
370
    15
100
AcDbLine
 10
162.6293143795
 20
262.711805358
 30
0.0
 11
162.6081010864
 21
262.711805358
 31
0.0
  0
LINE
  5
FF
330
1F
100
AcDbEntity
  8
0
  6
Continuous
 62
     7
370
    15
100
AcDbLine
 10
161.8291000442
 20
262.711805358
 30
0.0
 11
161.9588120447
 21
262.711805358
 31
0.0
  0
LINE
  5
100
330
1F
100
AcDbEntity
  8
0
  6
Continuous
 62
     7
370
    15
100
AcDbLine
 10
161.7991002814
 20
262.711805358
 30
0.0
 11
161.7991002814
 21
262.3118105079
 31
0.0
  0
LINE
  5
101
330
1F
100
AcDbEntity
  8
0
  6
Continuous
 62
     7
370
    15
100
AcDbLine
 10
161.8291000442
 20
262.711805358
 30
0.0
 11
161.7991002814
 21
262.711805358
 31
0.0
  0
LINE
  5
102
330
1F
100
AcDbEntity
  8
0
  6
Continuous
 62
     7
370
    15
100
AcDbLine
 10
162.7083095328
 20
262.711805358
 30
0.0
 11
162.6829540895
 21
262.711805358
 31
0.0
  0
LINE
  5
103
330
1F
100
AcDbEntity
  8
0
  6
Continuous
 62
     7
370
    15
100
AcDbLine
 10
162.6546698229
 20
262.711805358
 30
0.0
 11
162.6293143795
 21
262.711805358
 31
0.0
  0
LINE
  5
104
330
1F
100
AcDbEntity
  8
0
  6
Continuous
 62
     7
370
    15
100
AcDbLine
 10
165.2293144332
 20
262.711805358
 30
0.0
 11
165.2546697834
 21
262.711805358
 31
0.0
  0
LINE
  5
105
330
1F
100
AcDbEntity
  8
0
  6
Continuous
 62
     7
370
    15
100
AcDbLine
 10
165.28295405
 20
262.711805358
 30
0.0
 11
165.3083094002
 21
262.711805358
 31
0.0
  0
LINE
  5
106
330
1F
100
AcDbEntity
  8
0
  6
Continuous
 62
     7
370
    15
100
AcDbLine
 10
165.2546697834
 20
262.711805358
 30
0.0
 11
165.28295405
 21
262.711805358
 31
0.0
  0
LINE
  5
107
330
1F
100
AcDbEntity
  8
0
  6
Continuous
 62
     7
370
    15
100
AcDbLine
 10
162.6546698229
 20
262.711805358
 30
0.0
 11
162.6829540895
 21
262.711805358
 31
0.0
  0
LINE
  5
108
330
1F
100
AcDbEntity
  8
0
  6
Continuous
 62
     7
370
    15
100
AcDbLine
 10
165.2290459329
 20
182.3118093158
 30
0.0
 11
165.2290459329
 21
262.3118105079
 31
0.0
  0
LINE
  5
109
330
1F
100
AcDbEntity
  8
0
  6
Continuous
 62
     7
370
    15
100
AcDbLine
 10
165.2290459329
 20
182.3118093158
 30
0.0
 11
165.1880883218
 21
182.3118093158
 31
0.0
  0
LINE
  5
10A
330
1F
100
AcDbEntity
  8
0
  6
Continuous
 62
     7
370
    15
100
AcDbLine
 10
165.1880883218
 20
182.3118093158
 30
0.0
 11
165.1880883218
 21
262.3118105079
 31
0.0
  0
LINE
  5
10B
330
1F
100
AcDbEntity
  8
0
  6
Continuous
 62
     7
370
    15
100
AcDbLine
 10
165.2290459329
 20
262.3118105079
 30
0.0
 11
165.1880883218
 21
262.3118105079
 31
0.0
  0
LINE
  5
10C
330
1F
100
AcDbEntity
  8
0
  6
Continuous
 62
     7
370
    15
100
AcDbLine
 10
165.5474513375
 20
182.3118093158
 30
0.0
 11
165.5474513375
 21
262.3118105079
 31
0.0
  0
LINE
  5
10D
330
1F
100
AcDbEntity
  8
0
  6
Continuous
 62
     7
370
    15
100
AcDbLine
 10
165.5041500532
 20
182.3118093158
 30
0.0
 11
165.5041500532
 21
262.3118105079
 31
0.0
  0
LINE
  5
10E
330
1F
100
AcDbEntity
  8
0
  6
Continuous
 62
     7
370
    15
100
AcDbLine
 10
165.5474513375
 20
262.3118105079
 30
0.0
 11
165.5041500532
 21
262.3118105079
 31
0.0
  0
LINE
  5
10F
330
1F
100
AcDbEntity
  8
0
  6
Continuous
 62
     7
370
    15
100
AcDbLine
 10
165.5474513375
 20
182.3118093158
 30
0.0
 11
165.5041500532
 21
182.3118093158
 31
0.0
  0
LINE
  5
110
330
1F
100
AcDbEntity
  8
0
  6
Continuous
 62
     7
370
    15
100
AcDbLine
 10
165.2290459329
 20
262.3118105079
 30
0.0
 11
165.5041500532
 21
262.3118105079
 31
0.0
  0
LINE
  5
111
330
1F
100
AcDbEntity
  8
0
  6
Continuous
 62
     7
370
    15
100
AcDbLine
 10
165.2290459329
 20
182.3118093158
 30
0.0
 11
165.5041500532
 21
182.3118093158
 31
0.0
  0
LINE
  5
112
330
1F
100
AcDbEntity
  8
0
  6
Continuous
 62
     7
370
    15
100
AcDbLine
 10
162.7992684559
 20
182.3118093158
 30
0.0
 11
162.7992684559
 21
262.3118105079
 31
0.0
  0
LINE
  5
113
330
1F
100
AcDbEntity
  8
0
  6
Continuous
 62
     7
370
    15
100
AcDbLine
 10
162.7559671716
 20
182.3118093158
 30
0.0
 11
162.7559671716
 21
262.3118105079
 31
0.0
  0
LINE
  5
114
330
1F
100
AcDbEntity
  8
0
  6
Continuous
 62
     7
370
    15
100
AcDbLine
 10
162.7992684559
 20
262.3118105079
 30
0.0
 11
162.7559671716
 21
262.3118105079
 31
0.0
  0
LINE
  5
115
330
1F
100
AcDbEntity
  8
0
  6
Continuous
 62
     7
370
    15
100
AcDbLine
 10
162.7992684559
 20
182.3118093158
 30
0.0
 11
162.7559671716
 21
182.3118093158
 31
0.0
  0
LINE
  5
116
330
1F
100
AcDbEntity
  8
0
  6
Continuous
 62
     7
370
    15
100
AcDbLine
 10
163.0766200439
 20
182.3118093158
 30
0.0
 11
163.0766200439
 21
262.3118105079
 31
0.0
  0
LINE
  5
117
330
1F
100
AcDbEntity
  8
0
  6
Continuous
 62
     7
370
    15
100
AcDbLine
 10
162.7992684559
 20
262.3118105079
 30
0.0
 11
163.0766200439
 21
262.3118105079
 31
0.0
  0
LINE
  5
118
330
1F
100
AcDbEntity
  8
0
  6
Continuous
 62
     7
370
    15
100
AcDbLine
 10
162.7992684559
 20
182.3118093158
 30
0.0
 11
163.0766200439
 21
182.3118093158
 31
0.0
  0
LINE
  5
119
330
1F
100
AcDbEntity
  8
0
  6
Continuous
 62
     7
370
    15
100
AcDbLine
 10
163.1175773756
 20
182.3118093158
 30
0.0
 11
163.1175773756
 21
262.3118105079
 31
0.0
  0
LINE
  5
11A
330
1F
100
AcDbEntity
  8
0
  6
Continuous
 62
     7
370
    15
100
AcDbLine
 10
163.1175773756
 20
262.3118105079
 30
0.0
 11
163.0766200439
 21
262.3118105079
 31
0.0
  0
LINE
  5
11B
330
1F
100
AcDbEntity
  8
0
  6
Continuous
 62
     7
370
    15
100
AcDbLine
 10
163.1175773756
 20
182.3118093158
 30
0.0
 11
163.0766200439
 21
182.3118093158
 31
0.0
  0
LINE
  5
11C
330
1F
100
AcDbEntity
  8
0
  6
Continuous
 62
     7
370
    15
100
AcDbLine
 10
165.158555431
 20
182.3118093158
 30
0.0
 11
165.158555431
 21
262.3118105079
 31
0.0
  0
LINE
  5
11D
330
1F
100
AcDbEntity
  8
0
  6
Continuous
 62
     7
370
    15
100
AcDbLine
 10
165.1880883218
 20
262.3118105079
 30
0.0
 11
165.158555431
 21
262.3118105079
 31
0.0
  0
LINE
  5
11E
330
1F
100
AcDbEntity
  8
0
  6
Continuous
 62
     7
370
    15
100
AcDbLine
 10
165.1880883218
 20
182.3118093158
 30
0.0
 11
165.158555431
 21
182.3118093158
 31
0.0
  0
LINE
  5
11F
330
1F
100
AcDbEntity
  8
0
  6
Continuous
 62
     7
370
    15
100
AcDbLine
 10
163.1676482574
 20
182.3118093158
 30
0.0
 11
163.1676482574
 21
262.3118105079
 31
0.0
  0
LINE
  5
120
330
1F
100
AcDbEntity
  8
0
  6
Continuous
 62
     7
370
    15
100
AcDbLine
 10
163.1175773756
 20
262.3118105079
 30
0.0
 11
163.1676482574
 21
262.3118105079
 31
0.0
  0
LINE
  5
121
330
1F
100
AcDbEntity
  8
0
  6
Continuous
 62
     7
370
    15
100
AcDbLine
 10
163.1175773756
 20
182.3118093158
 30
0.0
 11
163.1676482574
 21
182.3118093158
 31
0.0
  0
LINE
  5
122
330
1F
100
AcDbEntity
  8
0
  6
Continuous
 62
     7
370
    15
100
AcDbLine
 10
165.5866909378
 20
182.3118093158
 30
0.0
 11
165.5866909378
 21
262.3118105079
 31
0.0
  0
LINE
  5
123
330
1F
100
AcDbEntity
  8
0
  6
Continuous
 62
     7
370
    15
100
AcDbLine
 10
165.5474513375
 20
262.3118105079
 30
0.0
 11
165.5866909378
 21
262.3118105079
 31
0.0
  0
LINE
  5
124
330
1F
100
AcDbEntity
  8
0
  6
Continuous
 62
     7
370
    15
100
AcDbLine
 10
165.5474513375
 20
182.3118093158
 30
0.0
 11
165.5866909378
 21
182.3118093158
 31
0.0
  0
LINE
  5
125
330
1F
100
AcDbEntity
  8
0
  6
Continuous
 62
     7
370
    15
100
AcDbLine
 10
162.6993427591
 20
182.3118093158
 30
0.0
 11
162.6993427591
 21
262.3118105079
 31
0.0
  0
LINE
  5
126
330
1F
100
AcDbEntity
  8
0
  6
Continuous
 62
     7
370
    15
100
AcDbLine
 10
162.7559671716
 20
262.3118105079
 30
0.0
 11
162.6993427591
 21
262.3118105079
 31
0.0
  0
LINE
  5
127
330
1F
100
AcDbEntity
  8
0
  6
Continuous
 62
     7
370
    15
100
AcDbLine
 10
162.7559671716
 20
182.3118093158
 30
0.0
 11
162.6993427591
 21
182.3118093158
 31
0.0
  0
LINE
  5
128
330
1F
100
AcDbEntity
  8
0
  6
Continuous
 62
     7
370
    15
100
AcDbLine
 10
165.1324814723
 20
182.3118093158
 30
0.0
 11
165.1324814723
 21
262.3118105079
 31
0.0
  0
LINE
  5
129
330
1F
100
AcDbEntity
  8
0
  6
Continuous
 62
     7
370
    15
100
AcDbLine
 10
163.1951852308
 20
182.3118093158
 30
0.0
 11
163.1951852308
 21
262.3118105079
 31
0.0
  0
LINE
  5
12A
330
1F
100
AcDbEntity
  8
0
  6
Continuous
 62
     7
370
    15
100
AcDbLine
 10
165.1324814723
 20
262.3118105079
 30
0.0
 11
163.1951852308
 21
262.3118105079
 31
0.0
  0
LINE
  5
12B
330
1F
100
AcDbEntity
  8
0
  6
Continuous
 62
     7
370
    15
100
AcDbLine
 10
165.1324814723
 20
182.3118093158
 30
0.0
 11
163.1951852308
 21
182.3118093158
 31
0.0
  0
LINE
  5
12C
330
1F
100
AcDbEntity
  8
0
  6
Continuous
 62
     7
370
    15
100
AcDbLine
 10
165.1324814723
 20
262.3118105079
 30
0.0
 11
165.158555431
 21
262.3118105079
 31
0.0
  0
LINE
  5
12D
330
1F
100
AcDbEntity
  8
0
  6
Continuous
 62
     7
370
    15
100
AcDbLine
 10
165.1324814723
 20
182.3118093158
 30
0.0
 11
165.158555431
 21
182.3118093158
 31
0.0
  0
LINE
  5
12E
330
1F
100
AcDbEntity
  8
0
  6
Continuous
 62
     7
370
    15
100
AcDbLine
 10
163.1676482574
 20
262.3118105079
 30
0.0
 11
163.1951852308
 21
262.3118105079
 31
0.0
  0
LINE
  5
12F
330
1F
100
AcDbEntity
  8
0
  6
Continuous
 62
     7
370
    15
100
AcDbLine
 10
163.1676482574
 20
182.3118093158
 30
0.0
 11
163.1951852308
 21
182.3118093158
 31
0.0
  0
LINE
  5
130
330
1F
100
AcDbEntity
  8
0
  6
Continuous
 62
     7
370
    15
100
AcDbLine
 10
165.6102101856
 20
182.3118093158
 30
0.0
 11
165.6102101856
 21
262.3118105079
 31
0.0
  0
LINE
  5
131
330
1F
100
AcDbEntity
  8
0
  6
Continuous
 62
     7
370
    15
100
AcDbLine
 10
165.5866909378
 20
262.3118105079
 30
0.0
 11
165.6102101856
 21
262.3118105079
 31
0.0
  0
LINE
  5
132
330
1F
100
AcDbEntity
  8
0
  6
Continuous
 62
     7
370
    15
100
AcDbLine
 10
165.5866909378
 20
182.3118093158
 30
0.0
 11
165.6102101856
 21
182.3118093158
 31
0.0
  0
LINE
  5
133
330
1F
100
AcDbEntity
  8
0
  6
Continuous
 62
     7
370
    15
100
AcDbLine
 10
167.5193251648
 20
182.3118093158
 30
0.0
 11
167.5193251648
 21
262.3118105079
 31
0.0
  0
LINE
  5
134
330
1F
100
AcDbEntity
  8
0
  6
Continuous
 62
     7
370
    15
100
AcDbLine
 10
167.5193251648
 20
262.3118105079
 30
0.0
 11
165.6102101856
 21
262.3118105079
 31
0.0
  0
LINE
  5
135
330
1F
100
AcDbEntity
  8
0
  6
Continuous
 62
     7
370
    15
100
AcDbLine
 10
167.5193251648
 20
182.3118093158
 30
0.0
 11
165.6102101856
 21
182.3118093158
 31
0.0
  0
LINE
  5
136
330
1F
100
AcDbEntity
  8
0
  6
Continuous
 62
     7
370
    15
100
AcDbLine
 10
162.6692867444
 20
182.3118093158
 30
0.0
 11
162.6692867444
 21
262.3118105079
 31
0.0
  0
LINE
  5
137
330
1F
100
AcDbEntity
  8
0
  6
Continuous
 62
     7
370
    15
100
AcDbLine
 10
162.6692867444
 20
262.3118105079
 30
0.0
 11
162.6993427591
 21
262.3118105079
 31
0.0
  0
LINE
  5
138
330
1F
100
AcDbEntity
  8
0
  6
Continuous
 62
     7
370
    15
100
AcDbLine
 10
162.6692867444
 20
182.3118093158
 30
0.0
 11
162.6993427591
 21
182.3118093158
 31
0.0
  0
LINE
  5
139
330
1F
100
AcDbEntity
  8
0
  6
Continuous
 62
     7
370
    15
100
AcDbLine
 10
162.4201154874
 20
182.3118093158
 30
0.0
 11
162.4201154874
 21
262.3118105079
 31
0.0
  0
LINE
  5
13A
330
1F
100
AcDbEntity
  8
0
  6
Continuous
 62
     7
370
    15
100
AcDbLine
 10
162.6692867444
 20
262.3118105079
 30
0.0
 11
162.4201154874
 21
262.3118105079
 31
0.0
  0
LINE
  5
13B
330
1F
100
AcDbEntity
  8
0
  6
Continuous
 62
     7
370
    15
100
AcDbLine
 10
162.6692867444
 20
182.3118093158
 30
0.0
 11
162.4201154874
 21
182.3118093158
 31
0.0
  0
LINE
  5
13C
330
1F
100
AcDbEntity
  8
0
  6
Continuous
 62
     7
370
    15
100
AcDbLine
 10
162.2768922315
 20
182.3118093158
 30
0.0
 11
162.2768922315
 21
262.3118105079
 31
0.0
  0
LINE
  5
13D
330
1F
100
AcDbEntity
  8
0
  6
Continuous
 62
     7
370
    15
100
AcDbLine
 10
162.2472586648
 20
182.3118093158
 30
0.0
 11
162.2472586648
 21
262.3118105079
 31
0.0
  0
LINE
  5
13E
330
1F
100
AcDbEntity
  8
0
  6
Continuous
 62
     7
370
    15
100
AcDbLine
 10
162.2768922315
 20
262.3118105079
 30
0.0
 11
162.2472586648
 21
262.3118105079
 31
0.0
  0
LINE
  5
13F
330
1F
100
AcDbEntity
  8
0
  6
Continuous
 62
     7
370
    15
100
AcDbLine
 10
162.2768922315
 20
182.3118093158
 30
0.0
 11
162.2472586648
 21
182.3118093158
 31
0.0
  0
LINE
  5
140
330
1F
100
AcDbEntity
  8
0
  6
Continuous
 62
     7
370
    15
100
AcDbLine
 10
162.3938879536
 20
182.3118093158
 30
0.0
 11
162.3938879536
 21
262.3118105079
 31
0.0
  0
LINE
  5
141
330
1F
100
AcDbEntity
  8
0
  6
Continuous
 62
     7
370
    15
100
AcDbLine
 10
162.2768922315
 20
262.3118105079
 30
0.0
 11
162.3938879536
 21
262.3118105079
 31
0.0
  0
LINE
  5
142
330
1F
100
AcDbEntity
  8
0
  6
Continuous
 62
     7
370
    15
100
AcDbLine
 10
162.2768922315
 20
182.3118093158
 30
0.0
 11
162.3938879536
 21
182.3118093158
 31
0.0
  0
LINE
  5
143
330
1F
100
AcDbEntity
  8
0
  6
Continuous
 62
     7
370
    15
100
AcDbLine
 10
162.0588647739
 20
182.3118093158
 30
0.0
 11
162.0588647739
 21
262.3118105079
 31
0.0
  0
LINE
  5
144
330
1F
100
AcDbEntity
  8
0
  6
Continuous
 62
     7
370
    15
100
AcDbLine
 10
162.2472586648
 20
262.3118105079
 30
0.0
 11
162.0588647739
 21
262.3118105079
 31
0.0
  0
LINE
  5
145
330
1F
100
AcDbEntity
  8
0
  6
Continuous
 62
     7
370
    15
100
AcDbLine
 10
162.2472586648
 20
182.3118093158
 30
0.0
 11
162.0588647739
 21
182.3118093158
 31
0.0
  0
LINE
  5
146
330
1F
100
AcDbEntity
  8
0
  6
Continuous
 62
     7
370
    15
100
AcDbLine
 10
162.3938879536
 20
262.3118105079
 30
0.0
 11
162.4201154874
 21
262.3118105079
 31
0.0
  0
LINE
  5
147
330
1F
100
AcDbEntity
  8
0
  6
Continuous
 62
     7
370
    15
100
AcDbLine
 10
162.3938879536
 20
182.3118093158
 30
0.0
 11
162.4201154874
 21
182.3118093158
 31
0.0
  0
LINE
  5
148
330
1F
100
AcDbEntity
  8
0
  6
Continuous
 62
     7
370
    15
100
AcDbLine
 10
167.6627446504
 20
182.3118093158
 30
0.0
 11
167.6627446504
 21
262.3118105079
 31
0.0
  0
LINE
  5
149
330
1F
100
AcDbEntity
  8
0
  6
Continuous
 62
     7
370
    15
100
AcDbLine
 10
167.6224400827
 20
182.3118093158
 30
0.0
 11
167.6224400827
 21
262.3118105079
 31
0.0
  0
LINE
  5
14A
330
1F
100
AcDbEntity
  8
0
  6
Continuous
 62
     7
370
    15
100
AcDbLine
 10
167.6627446504
 20
262.3118105079
 30
0.0
 11
167.6224400827
 21
262.3118105079
 31
0.0
  0
LINE
  5
14B
330
1F
100
AcDbEntity
  8
0
  6
Continuous
 62
     7
370
    15
100
AcDbLine
 10
167.6627446504
 20
182.3118093158
 30
0.0
 11
167.6224400827
 21
182.3118093158
 31
0.0
  0
LINE
  5
14C
330
1F
100
AcDbEntity
  8
0
  6
Continuous
 62
     7
370
    15
100
AcDbLine
 10
167.8623484054
 20
182.3118093158
 30
0.0
 11
167.8623484054
 21
262.3118105079
 31
0.0
  0
LINE
  5
14D
330
1F
100
AcDbEntity
  8
0
  6
Continuous
 62
     7
370
    15
100
AcDbLine
 10
167.8623484054
 20
262.3118105079
 30
0.0
 11
167.6627446504
 21
262.3118105079
 31
0.0
  0
LINE
  5
14E
330
1F
100
AcDbEntity
  8
0
  6
Continuous
 62
     7
370
    15
100
AcDbLine
 10
167.8623484054
 20
182.3118093158
 30
0.0
 11
167.6627446504
 21
182.3118093158
 31
0.0
  0
LINE
  5
14F
330
1F
100
AcDbEntity
  8
0
  6
Continuous
 62
     7
370
    15
100
AcDbLine
 10
167.543262949
 20
182.3118093158
 30
0.0
 11
167.543262949
 21
262.3118105079
 31
0.0
  0
LINE
  5
150
330
1F
100
AcDbEntity
  8
0
  6
Continuous
 62
     7
370
    15
100
AcDbLine
 10
167.543262949
 20
262.3118105079
 30
0.0
 11
167.6224400827
 21
262.3118105079
 31
0.0
  0
LINE
  5
151
330
1F
100
AcDbEntity
  8
0
  6
Continuous
 62
     7
370
    15
100
AcDbLine
 10
167.543262949
 20
182.3118093158
 30
0.0
 11
167.6224400827
 21
182.3118093158
 31
0.0
  0
LINE
  5
152
330
1F
100
AcDbEntity
  8
0
  6
Continuous
 62
     7
370
    15
100
AcDbLine
 10
162.0398374812
 20
182.3118093158
 30
0.0
 11
162.0398374812
 21
262.3118105079
 31
0.0
  0
LINE
  5
153
330
1F
100
AcDbEntity
  8
0
  6
Continuous
 62
     7
370
    15
100
AcDbLine
 10
162.0588647739
 20
262.3118105079
 30
0.0
 11
162.0398374812
 21
262.3118105079
 31
0.0
  0
LINE
  5
154
330
1F
100
AcDbEntity
  8
0
  6
Continuous
 62
     7
370
    15
100
AcDbLine
 10
162.0588647739
 20
182.3118093158
 30
0.0
 11
162.0398374812
 21
182.3118093158
 31
0.0
  0
LINE
  5
155
330
1F
100
AcDbEntity
  8
0
  6
Continuous
 62
     7
370
    15
100
AcDbLine
 10
161.9960597323
 20
182.3118093158
 30
0.0
 11
161.9960597323
 21
262.3118105079
 31
0.0
  0
LINE
  5
156
330
1F
100
AcDbEntity
  8
0
  6
Continuous
 62
     7
370
    15
100
AcDbLine
 10
162.0398374812
 20
262.3118105079
 30
0.0
 11
161.9960597323
 21
262.3118105079
 31
0.0
  0
LINE
  5
157
330
1F
100
AcDbEntity
  8
0
  6
Continuous
 62
     7
370
    15
100
AcDbLine
 10
162.0398374812
 20
182.3118093158
 30
0.0
 11
161.9960597323
 21
182.3118093158
 31
0.0
  0
LINE
  5
158
330
1F
100
AcDbEntity
  8
0
  6
Continuous
 62
     7
370
    15
100
AcDbLine
 10
167.8949134031
 20
182.3118093158
 30
0.0
 11
167.8949134031
 21
262.3118105079
 31
0.0
  0
LINE
  5
159
330
1F
100
AcDbEntity
  8
0
  6
Continuous
 62
     7
370
    15
100
AcDbLine
 10
167.8949134031
 20
262.3118105079
 30
0.0
 11
167.8623484054
 21
262.3118105079
 31
0.0
  0
LINE
  5
15A
330
1F
100
AcDbEntity
  8
0
  6
Continuous
 62
     7
370
    15
100
AcDbLine
 10
167.8949134031
 20
182.3118093158
 30
0.0
 11
167.8623484054
 21
182.3118093158
 31
0.0
  0
LINE
  5
15B
330
1F
100
AcDbEntity
  8
0
  6
Continuous
 62
     7
370
    15
100
AcDbLine
 10
167.5193251648
 20
262.3118105079
 30
0.0
 11
167.543262949
 21
262.3118105079
 31
0.0
  0
LINE
  5
15C
330
1F
100
AcDbEntity
  8
0
  6
Continuous
 62
     7
370
    15
100
AcDbLine
 10
167.5193251648
 20
182.3118093158
 30
0.0
 11
167.543262949
 21
182.3118093158
 31
0.0
  0
LINE
  5
15D
330
1F
100
AcDbEntity
  8
0
  6
Continuous
 62
     7
370
    15
100
AcDbLine
 10
167.9408490264
 20
182.3118093158
 30
0.0
 11
167.9408490264
 21
262.3118105079
 31
0.0
  0
LINE
  5
15E
330
1F
100
AcDbEntity
  8
0
  6
Continuous
 62
     7
370
    15
100
AcDbLine
 10
167.8949134031
 20
262.3118105079
 30
0.0
 11
167.9408490264
 21
262.3118105079
 31
0.0
  0
LINE
  5
15F
330
1F
100
AcDbEntity
  8
0
  6
Continuous
 62
     7
370
    15
100
AcDbLine
 10
167.8949134031
 20
182.3118093158
 30
0.0
 11
167.9408490264
 21
182.3118093158
 31
0.0
  0
LINE
  5
160
330
1F
100
AcDbEntity
  8
0
  6
Continuous
 62
     7
370
    15
100
AcDbLine
 10
161.9800979809
 20
182.3118093158
 30
0.0
 11
161.9800979809
 21
262.3118105079
 31
0.0
  0
LINE
  5
161
330
1F
100
AcDbEntity
  8
0
  6
Continuous
 62
     7
370
    15
100
AcDbLine
 10
161.9800979809
 20
262.3118105079
 30
0.0
 11
161.9960597323
 21
262.3118105079
 31
0.0
  0
LINE
  5
162
330
1F
100
AcDbEntity
  8
0
  6
Continuous
 62
     7
370
    15
100
AcDbLine
 10
161.9800979809
 20
182.3118093158
 30
0.0
 11
161.9960597323
 21
182.3118093158
 31
0.0
  0
LINE
  5
163
330
1F
100
AcDbEntity
  8
0
  6
Continuous
 62
     7
370
    15
100
AcDbLine
 10
167.9601443538
 20
182.3118093158
 30
0.0
 11
167.9601443538
 21
262.3118105079
 31
0.0
  0
LINE
  5
164
330
1F
100
AcDbEntity
  8
0
  6
Continuous
 62
     7
370
    15
100
AcDbLine
 10
167.9408490264
 20
262.3118105079
 30
0.0
 11
167.9601443538
 21
262.3118105079
 31
0.0
  0
LINE
  5
165
330
1F
100
AcDbEntity
  8
0
  6
Continuous
 62
     7
370
    15
100
AcDbLine
 10
167.9408490264
 20
182.3118093158
 30
0.0
 11
167.9601443538
 21
182.3118093158
 31
0.0
  0
LINE
  5
166
330
1F
100
AcDbEntity
  8
0
  6
Continuous
 62
     7
370
    15
100
AcDbLine
 10
161.19909236
 20
182.3118093158
 30
0.0
 11
161.19909236
 21
262.3118105079
 31
0.0
  0
LINE
  5
167
330
1F
100
AcDbEntity
  8
0
  6
Continuous
 62
     7
370
    15
100
AcDbLine
 10
161.9800979809
 20
262.3118105079
 30
0.0
 11
161.19909236
 21
262.3118105079
 31
0.0
  0
LINE
  5
168
330
1F
100
AcDbEntity
  8
0
  6
Continuous
 62
     7
370
    15
100
AcDbLine
 10
161.9800979809
 20
182.3118093158
 30
0.0
 11
161.19909236
 21
182.3118093158
 31
0.0
  0
LINE
  5
169
330
1F
100
AcDbEntity
  8
0
  6
Continuous
 62
     7
370
    15
100
AcDbLine
 10
168.489510061
 20
182.3118093158
 30
0.0
 11
168.489510061
 21
262.3118105079
 31
0.0
  0
LINE
  5
16A
330
1F
100
AcDbEntity
  8
0
  6
Continuous
 62
     7
370
    15
100
AcDbLine
 10
168.489510061
 20
262.3118105079
 30
0.0
 11
167.9601443538
 21
262.3118105079
 31
0.0
  0
LINE
  5
16B
330
1F
100
AcDbEntity
  8
0
  6
Continuous
 62
     7
370
    15
100
AcDbLine
 10
168.489510061
 20
182.3118093158
 30
0.0
 11
167.9601443538
 21
182.3118093158
 31
0.0
  0
LINE
  5
16C
330
1F
100
AcDbEntity
  8
0
  6
Continuous
 62
     7
370
    15
100
AcDbLine
 10
168.5112495513
 20
262.3118105079
 30
0.0
 11
168.489510061
 21
262.3118105079
 31
0.0
  0
LINE
  5
16D
330
1F
100
AcDbEntity
  8
0
  6
Continuous
 62
     7
370
    15
100
AcDbLine
 10
168.5112495513
 20
182.3118093158
 30
0.0
 11
168.489510061
 21
182.3118093158
 31
0.0
  0
LINE
  5
16E
330
1F
100
AcDbEntity
  8
0
  6
Continuous
 62
     7
370
    15
100
AcDbLine
 10
168.5501682178
 20
182.3118093158
 30
0.0
 11
168.5501682178
 21
262.3118105079
 31
0.0
  0
LINE
  5
16F
330
1F
100
AcDbEntity
  8
0
  6
Continuous
 62
     7
370
    15
100
AcDbLine
 10
168.5112495513
 20
262.3118105079
 30
0.0
 11
168.5501682178
 21
262.3118105079
 31
0.0
  0
LINE
  5
170
330
1F
100
AcDbEntity
  8
0
  6
Continuous
 62
     7
370
    15
100
AcDbLine
 10
168.5112495513
 20
182.3118093158
 30
0.0
 11
168.5501682178
 21
182.3118093158
 31
0.0
  0
LINE
  5
171
330
1F
100
AcDbEntity
  8
0
  6
Continuous
 62
     7
370
    15
100
AcDbLine
 10
168.6947506459
 20
182.3118093158
 30
0.0
 11
168.6947506459
 21
262.3118105079
 31
0.0
  0
LINE
  5
172
330
1F
100
AcDbEntity
  8
0
  6
Continuous
 62
     7
370
    15
100
AcDbLine
 10
168.6947506459
 20
262.3118105079
 30
0.0
 11
168.5501682178
 21
262.3118105079
 31
0.0
  0
LINE
  5
173
330
1F
100
AcDbEntity
  8
0
  6
Continuous
 62
     7
370
    15
100
AcDbLine
 10
168.6947506459
 20
182.3118093158
 30
0.0
 11
168.5501682178
 21
182.3118093158
 31
0.0
  0
LINE
  5
174
330
1F
100
AcDbEntity
  8
0
  6
Continuous
 62
     7
370
    15
100
AcDbLine
 10
168.8316710831
 20
262.3118105079
 30
0.0
 11
168.6947506459
 21
262.3118105079
 31
0.0
  0
LINE
  5
175
330
1F
100
AcDbEntity
  8
0
  6
Continuous
 62
     7
370
    15
100
AcDbLine
 10
168.8316710831
 20
182.3118093158
 30
0.0
 11
168.6947506459
 21
182.3118093158
 31
0.0
  0
LINE
  5
176
330
1F
100
AcDbEntity
  8
0
  6
Continuous
 62
     7
370
    15
100
AcDbLine
 10
171.6989057676
 20
182.3118093158
 30
0.0
 11
171.6989057676
 21
262.3118105079
 31
0.0
  0
LINE
  5
177
330
1F
100
AcDbEntity
  8
0
  6
Continuous
 62
     7
370
    15
100
AcDbLine
 10
171.6989057676
 20
262.3118105079
 30
0.0
 11
171.6174742745
 21
262.3118105079
 31
0.0
  0
LINE
  5
178
330
1F
100
AcDbEntity
  8
0
  6
Continuous
 62
     7
370
    15
100
AcDbLine
 10
171.6989057676
 20
182.3118093158
 30
0.0
 11
171.6174742745
 21
182.3118093158
 31
0.0
  0
LINE
  5
179
330
1F
100
AcDbEntity
  8
0
  6
Continuous
 62
     8
370
    15
100
AcDbLine
 10
165.8272724205
 20
262.711805358
 30
0.0
 11
165.8272724205
 21
262.3118105079
 31
0.0
  0
LINE
  5
17A
330
1F
100
AcDbEntity
  8
0
  6
Continuous
 62
     8
370
    15
100
AcDbLine
 10
162.1103512661
 20
262.711805358
 30
0.0
 11
162.1103512661
 21
262.3118105079
 31
0.0
  0
LINE
  5
17B
330
1F
100
AcDbEntity
  8
0
  6
Continuous
 62
     8
370
    15
100
AcDbLine
 10
164.6688119115
 20
262.711805358
 30
0.0
 11
164.6688119115
 21
262.3118105079
 31
0.0
  0
LINE
  5
17C
330
1F
100
AcDbEntity
  8
0
  6
Continuous
 62
     8
370
    15
100
AcDbLine
 10
163.2688118682
 20
262.711805358
 30
0.0
 11
163.2688118682
 21
262.3118105079
 31
0.0
  0
LINE
  5
17D
330
1F
100
AcDbEntity
  8
0
  6
Continuous
 62
     8
370
    15
100
AcDbLine
 10
165.9242373963
 20
262.711805358
 30
0.0
 11
165.9242373963
 21
262.3118105079
 31
0.0
  0
LINE
  5
17E
330
1F
100
AcDbEntity
  8
0
  6
Continuous
 62
     8
370
    15
100
AcDbLine
 10
162.01338643
 20
262.711805358
 30
0.0
 11
162.01338643
 21
262.3118105079
 31
0.0
  0
LINE
  5
17F
330
1F
100
AcDbEntity
  8
0
  6
Continuous
 62
     8
370
    15
100
AcDbLine
 10
165.9742907227
 20
262.711805358
 30
0.0
 11
165.9742907227
 21
262.3118105079
 31
0.0
  0
LINE
  5
180
330
1F
100
AcDbEntity
  8
0
  6
Continuous
 62
     8
370
    15
100
AcDbLine
 10
161.963333057
 20
262.711805358
 30
0.0
 11
161.963333057
 21
262.3118105079
 31
0.0
  0
LINE
  5
181
330
1F
100
AcDbEntity
  8
0
  6
Continuous
 62
     8
370
    15
100
AcDbLine
 10
163.1188119368
 20
262.711805358
 30
0.0
 11
163.1188119368
 21
262.3118105079
 31
0.0
  0
LINE
  5
182
330
1F
100
AcDbEntity
  8
0
  6
Continuous
 62
     8
370
    15
100
AcDbLine
 10
165.7188119439
 20
262.711805358
 30
0.0
 11
165.7188119439
 21
262.3118105079
 31
0.0
  0
LINE
  5
183
330
1F
100
AcDbEntity
  8
0
  6
Continuous
 62
     8
370
    15
100
AcDbLine
 10
164.8188118429
 20
262.711805358
 30
0.0
 11
164.8188118429
 21
262.3118105079
 31
0.0
  0
LINE
  5
184
330
1F
100
AcDbEntity
  8
0
  6
Continuous
 62
     8
370
    15
100
AcDbLine
 10
162.2188119755
 20
262.711805358
 30
0.0
 11
162.2188119755
 21
262.3118105079
 31
0.0
  0
LINE
  5
185
330
1F
100
AcDbEntity
  8
0
  6
Continuous
 62
     8
370
    15
100
AcDbLine
 10
165.2081012332
 20
262.711805358
 30
0.0
 11
165.2081012332
 21
262.3118105079
 31
0.0
  0
LINE
  5
186
330
1F
100
AcDbEntity
  8
0
  6
Continuous
 62
     8
370
    15
100
AcDbLine
 10
166.1091022265
 20
262.711805358
 30
0.0
 11
166.1091022265
 21
262.3118105079
 31
0.0
  0
LINE
  5
187
330
1F
100
AcDbEntity
  8
0
  6
Continuous
 62
     8
370
    15
100
AcDbLine
 10
162.7295224534
 20
262.711805358
 30
0.0
 11
162.7295224534
 21
262.3118105079
 31
0.0
  0
LINE
  5
188
330
1F
100
AcDbEntity
  8
0
  6
Continuous
 62
     8
370
    15
100
AcDbLine
 10
162.7083095328
 20
262.711805358
 30
0.0
 11
162.7083095328
 21
262.3118105079
 31
0.0
  0
LINE
  5
189
330
1F
100
AcDbEntity
  8
0
  6
Continuous
 62
     8
370
    15
100
AcDbLine
 10
165.2293144332
 20
262.711805358
 30
0.0
 11
165.2293144332
 21
262.3118105079
 31
0.0
  0
LINE
  5
18A
330
1F
100
AcDbEntity
  8
0
  6
Continuous
 62
     8
370
    15
100
AcDbLine
 10
165.3295226001
 20
262.711805358
 30
0.0
 11
165.3295226001
 21
262.3118105079
 31
0.0
  0
LINE
  5
18B
330
1F
100
AcDbEntity
  8
0
  6
Continuous
 62
     8
370
    15
100
AcDbLine
 10
165.3083094002
 20
262.711805358
 30
0.0
 11
165.3083094002
 21
262.3118105079
 31
0.0
  0
LINE
  5
18C
330
1F
100
AcDbEntity
  8
0
  6
Continuous
 62
     8
370
    15
100
AcDbLine
 10
162.6081010864
 20
262.711805358
 30
0.0
 11
162.6081010864
 21
262.3118105079
 31
0.0
  0
LINE
  5
18D
330
1F
100
AcDbEntity
  8
0
  6
Continuous
 62
     8
370
    15
100
AcDbLine
 10
162.6293143795
 20
262.711805358
 30
0.0
 11
162.6293143795
 21
262.3118105079
 31
0.0
  0
LINE
  5
18E
330
1F
100
AcDbEntity
  8
0
  6
Continuous
 62
     8
370
    15
100
AcDbLine
 10
161.8291000442
 20
262.711805358
 30
0.0
 11
161.8291000442
 21
262.3118105079
 31
0.0
  0
LINE
  5
18F
330
1F
100
AcDbEntity
  8
0
  6
Continuous
 62
     8
370
    15
100
AcDbLine
 10
162.6829540895
 20
262.711805358
 30
0.0
 11
162.6829540895
 21
262.3118105079
 31
0.0
  0
LINE
  5
190
330
1F
100
AcDbEntity
  8
0
  6
Continuous
 62
     8
370
    15
100
AcDbLine
 10
162.6546698229
 20
262.711805358
 30
0.0
 11
162.6546698229
 21
262.3118105079
 31
0.0
  0
LINE
  5
191
330
1F
100
AcDbEntity
  8
0
  6
Continuous
 62
     8
370
    15
100
AcDbLine
 10
165.2546697834
 20
262.711805358
 30
0.0
 11
165.2546697834
 21
262.3118105079
 31
0.0
  0
LINE
  5
192
330
1F
100
AcDbEntity
  8
0
  6
Continuous
 62
     8
370
    15
100
AcDbLine
 10
165.28295405
 20
262.711805358
 30
0.0
 11
165.28295405
 21
262.3118105079
 31
0.0
  0
DIMENSION
  5
193
330
1F
100
AcDbEntity
  8
0
  6
Continuous
 62
     7
370
     0
100
AcDbDimension
  2
*D6
 10
151.1990923605
 20
244.1618105925
 30
0.0
 11
151.1990923605
 21
245.0801383438
 31
0.0
 70
   160
 71
     2
 42
-1.0
  3
SLDDIMSTYLE0
100
AcDbAlignedDimension
 13
161.1990923605
 23
262.3118105925
 33
0.0
 14
154.3436656435
 24
244.1618105925
 34
0.0
 50
90.0
100
AcDbRotatedDimension
  0
LINE
  5
1A1
330
1F
100
AcDbEntity
  8
0
  6
CENTER
 62
     7
370
     0
100
AcDbLine
 10
179.7508992834
 20
244.1618105925
 30
0.0
 11
154.3436656435
 21
244.1618105925
 31
0.0
  0
LINE
  5
1A2
330
1F
100
AcDbEntity
  8
0
  6
Continuous
 62
     7
370
     0
100
AcDbLine
 10
177.7508992834
 20
231.4618105925
 30
0.0
 11
177.7508992834
 21
244.1618105925
 31
0.0
  0
SOLID
  5
1A3
330
1F
100
AcDbEntity
  8
0
  6
Continuous
 62
     7
370
     0
100
AcDbTrace
 10
177.7508992834
 20
244.1618105925
 30
0.0
 11
176.7348992834
 21
237.8118105925
 31
0.0
 12
178.7668992834
 22
237.8118105925
 32
0.0
 13
178.7668992834
 23
237.8118105925
 33
0.0
  0
LINE
  5
1A4
330
1F
100
AcDbEntity
  8
0
  6
Continuous
 62
     7
370
     0
100
AcDbLine
 10
156.3436656435
 20
231.4618105925
 30
0.0
 11
156.3436656435
 21
244.1618105925
 31
0.0
  0
SOLID
  5
1A5
330
1F
100
AcDbEntity
  8
0
  6
Continuous
 62
     7
370
     0
100
AcDbTrace
 10
156.3436656435
 20
244.1618105925
 30
0.0
 11
155.3276656435
 21
237.8118105925
 31
0.0
 12
157.3596656435
 22
237.8118105925
 32
0.0
 13
157.3596656435
 23
237.8118105925
 33
0.0
  0
MTEXT
  5
1A6
330
1F
100
AcDbEntity
  8
0
  6
Continuous
 62
     7
100
AcDbMText
 10
179.1305589358
 20
237.0157245907
 30
0.0
 40
3.5
 41
0.0
 71
     1
 72
     1
  1
A
  7
SLDTEXTSTYLE5
 73
     1
 44
1.0
  0
MTEXT
  5
1A7
330
1F
100
AcDbEntity
  8
0
  6
Continuous
 62
     7
100
AcDbMText
 10
157.7233252958
 20
237.0157245907
 30
0.0
 40
3.5
 41
0.0
 71
     1
 72
     1
  1
A
  7
SLDTEXTSTYLE5
 73
     1
 44
1.0
  0
SPLINE
  5
1A8
330
1F
100
AcDbEntity
  8
0
  6
Continuous
 62
     7
370
    15
100
AcDbSpline
210
0.0
220
0.0
230
1.0
 70
     8
 71
     3
 72
     9
 73
     5
 74
     0
 42
0.00000001
 43
0.00000001
 40
0.0
 40
0.0
 40
0.0
 40
0.0
 40
0.5001696656319731
 40
0.9999999999999999
 40
0.9999999999999999
 40
0.9999999999999999
 40
0.9999999999999999
 10
137.5232305761335
 20
137.6917321578247
 30
0.0
 10
137.635770525931
 20
137.618668570541
 30
0.0
 10
137.8607740747872
 20
137.4725909646724
 30
0.0
 10
138.0856564368806
 20
137.3263766903297
 30
0.0
 10
138.1980594631193
 20
137.2532943606955
 30
0.0
  0
SPLINE
  5
1A9
330
1F
100
AcDbEntity
  8
0
  6
Continuous
 62
     7
370
    15
100
AcDbSpline
210
0.0
220
0.0
230
1.0
 70
     8
 71
     3
 72
     9
 73
     5
 74
     0
 42
0.00000001
 43
0.00000001
 40
0.0
 40
0.0
 40
0.0
 40
0.0
 40
0.5001693506115045
 40
1.0
 40
1.0
 40
1.0
 40
1.0
 10
137.5232305761335
 20
138.9417309657318
 30
0.0
 10
137.6357705613731
 20
138.8686677434761
 30
0.0
 10
137.8607743228029
 20
138.7225907754124
 30
0.0
 10
138.0856564723002
 20
138.5763764841012
 30
0.0
 10
138.1980594631193
 20
138.5032940999252
 30
0.0
  0
SPLINE
  5
1AA
330
1F
100
AcDbEntity
  8
0
  6
Continuous
 62
     7
370
    15
100
AcDbSpline
210
0.0
220
0.0
230
1.0
 70
     8
 71
     3
 72
     9
 73
     5
 74
     0
 42
0.00000001
 43
0.00000001
 40
0.0
 40
0.0
 40
0.0
 40
0.0
 40
0.5001693506115045
 40
1.0
 40
1.0
 40
1.0
 40
1.0
 10
137.5232305761335
 20
142.6917311147434
 30
0.0
 10
137.6357705613731
 20
142.6186678924877
 30
0.0
 10
137.8607743228029
 20
142.472590924424
 30
0.0
 10
138.0856564723002
 20
142.3263766331128
 30
0.0
 10
138.1980594631193
 20
142.2532942489368
 30
0.0
  0
SPLINE
  5
1AB
330
1F
100
AcDbEntity
  8
0
  6
Continuous
 62
     7
370
    15
100
AcDbSpline
210
0.0
220
0.0
230
1.0
 70
     8
 71
     3
 72
     9
 73
     5
 74
     0
 42
0.00000001
 43
0.00000001
 40
0.0
 40
0.0
 40
0.0
 40
0.0
 40
0.5001699806529862
 40
1.0
 40
1.0
 40
1.0
 40
1.0
 10
137.5232305761335
 20
145.1917324558479
 30
0.0
 10
137.6357704904887
 20
145.1186685035364
 30
0.0
 10
137.8607738267711
 20
144.9725902598638
 30
0.0
 10
138.0856564014611
 20
144.8263760024888
 30
0.0
 10
138.1980594631193
 20
144.7532937273962
 30
0.0
  0
SPLINE
  5
1AC
330
1F
100
AcDbEntity
  8
0
  6
Continuous
 62
     7
370
    15
100
AcDbSpline
210
0.0
220
0.0
230
1.0
 70
     8
 71
     3
 72
     9
 73
     5
 74
     0
 42
0.00000001
 43
0.00000001
 40
0.0
 40
0.0
 40
0.0
 40
0.0
 40
0.5001693506115045
 40
1.0
 40
1.0
 40
1.0
 40
1.0
 10
137.5232305761335
 20
140.1917316362841
 30
0.0
 10
137.6357705613731
 20
140.1186684140283
 30
0.0
 10
137.8607743228029
 20
139.9725914459647
 30
0.0
 10
138.0856564723002
 20
139.8263771546535
 30
0.0
 10
138.1980594631193
 20
139.7532947704775
 30
0.0
  0
SPLINE
  5
1AD
330
1F
100
AcDbEntity
  8
0
  6
Continuous
 62
     7
370
    15
100
AcDbSpline
210
0.0
220
0.0
230
1.0
 70
     8
 71
     3
 72
     9
 73
     5
 74
     0
 42
0.00000001
 43
0.00000001
 40
0.0
 40
0.0
 40
0.0
 40
0.0
 40
0.5001699806529862
 40
1.0
 40
1.0
 40
1.0
 40
1.0
 10
137.5232305761335
 20
141.4417323068363
 30
0.0
 10
137.6357704904887
 20
141.3686683545248
 30
0.0
 10
137.8607738267711
 20
141.2225901108521
 30
0.0
 10
138.0856564014611
 20
141.0763758534771
 30
0.0
 10
138.1980594631193
 20
141.0032935783846
 30
0.0
  0
SPLINE
  5
1AE
330
1F
100
AcDbEntity
  8
0
  6
Continuous
 62
     7
370
    15
100
AcDbSpline
210
0.0
220
0.0
230
1.0
 70
     8
 71
     3
 72
     9
 73
     5
 74
     0
 42
0.00000001
 43
0.00000001
 40
0.0
 40
0.0
 40
0.0
 40
0.0
 40
0.5001693506115045
 40
1.0
 40
1.0
 40
1.0
 40
1.0
 10
137.5232305761335
 20
143.9417317852957
 30
0.0
 10
137.6357705613731
 20
143.86866856304
 30
0.0
 10
137.8607743228029
 20
143.7225915949763
 30
0.0
 10
138.0856564723002
 20
143.5763773036651
 30
0.0
 10
138.1980594631193
 20
143.5032949194891
 30
0.0
  0
SPLINE
  5
1AF
330
1F
100
AcDbEntity
  8
0
  6
Continuous
 62
     7
370
    15
100
AcDbSpline
210
0.0
220
0.0
230
1.0
 70
     8
 71
     3
 72
     9
 73
     5
 74
     0
 42
0.00000001
 43
0.00000001
 40
0.0
 40
0.0
 40
0.0
 40
0.0
 40
0.5001699806529862
 40
1.0
 40
1.0
 40
1.0
 40
1.0
 10
137.5232305761335
 20
148.9417326048595
 30
0.0
 10
137.6357704904887
 20
148.868668652548
 30
0.0
 10
137.8607738267711
 20
148.7225904088754
 30
0.0
 10
138.0856564014611
 20
148.5763761515004
 30
0.0
 10
138.1980594631193
 20
148.5032938764078
 30
0.0
  0
SPLINE
  5
1B0
330
1F
100
AcDbEntity
  8
0
  6
Continuous
 62
     7
370
    15
100
AcDbSpline
210
0.0
220
0.0
230
1.0
 70
     8
 71
     3
 72
     9
 73
     5
 74
     0
 42
0.00000001
 43
0.00000001
 40
0.0
 40
0.0
 40
0.0
 40
0.0
 40
0.500170611514288
 40
1.0
 40
1.0
 40
1.0
 40
1.0
 10
137.5232305761335
 20
147.6917319343073
 30
0.0
 10
137.6357704195117
 20
147.6186678727754
 30
0.0
 10
137.8607733300937
 20
147.4725895949841
 30
0.0
 10
138.0856563305302
 20
147.3263766135831
 30
0.0
 10
138.1980594631193
 20
147.2532950685007
 30
0.0
  0
SPLINE
  5
1B1
330
1F
100
AcDbEntity
  8
0
  6
Continuous
 62
     7
370
    15
100
AcDbSpline
210
0.0
220
0.0
230
1.0
 70
     8
 71
     3
 72
     9
 73
     5
 74
     0
 42
0.00000001
 43
0.00000001
 40
0.0
 40
0.0
 40
0.0
 40
0.0
 40
0.5001693506115045
 40
1.0
 40
1.0
 40
1.0
 40
1.0
 10
137.5232305761335
 20
146.441731263755
 30
0.0
 10
137.6357705613731
 20
146.3686680414993
 30
0.0
 10
137.8607743228029
 20
146.2225910734356
 30
0.0
 10
138.0856564723002
 20
146.0763767821244
 30
0.0
 10
138.1980594631193
 20
146.0032943979485
 30
0.0
  0
SPLINE
  5
1B2
330
1F
100
AcDbEntity
  8
0
  6
Continuous
 62
     7
370
    15
100
AcDbSpline
210
0.0
220
0.0
230
1.0
 70
     8
 71
     3
 72
     9
 73
     5
 74
     0
 42
0.00000001
 43
0.00000001
 40
0.0
 40
0.0
 40
0.0
 40
0.0
 40
0.5001693506115045
 40
1.0
 40
1.0
 40
1.0
 40
1.0
 10
137.5232305761335
 20
150.1917314127666
 30
0.0
 10
137.6357705613731
 20
150.1186681905109
 30
0.0
 10
137.8607743228029
 20
149.9725912224472
 30
0.0
 10
138.0856564723002
 20
149.8263769311361
 30
0.0
 10
138.1980594631193
 20
149.7532945469601
 30
0.0
  0
SPLINE
  5
1B3
330
1F
100
AcDbEntity
  8
0
  6
Continuous
 62
     7
370
    15
100
AcDbSpline
210
0.0
220
0.0
230
1.0
 70
     8
 71
     3
 72
     9
 73
     5
 74
     0
 42
0.00000001
 43
0.00000001
 40
0.0
 40
0.0
 40
0.0
 40
0.0
 40
0.5002870377744527
 40
1.0
 40
1.0
 40
1.0
 40
1.0
 10
145.4944931354282
 20
138.5146441281421
 30
0.0
 10
145.3842283753882
 20
138.5713414148311
 30
0.0
 10
145.1638253832769
 20
138.6846709285063
 30
0.0
 10
144.9435104069981
 20
138.7982097714192
 30
0.0
 10
144.8334161575792
 20
138.8549466029388
 30
0.0
  0
SPLINE
  5
1B4
330
1F
100
AcDbEntity
  8
0
  6
Continuous
 62
     7
370
    15
100
AcDbSpline
210
0.0
220
0.0
230
1.0
 70
     8
 71
     3
 72
     9
 73
     5
 74
     0
 42
0.00000001
 43
0.00000001
 40
0.0
 40
0.0
 40
0.0
 40
0.0
 40
0.5002873247290369
 40
1.0
 40
1.0
 40
1.0
 40
1.0
 10
145.4944931354282
 20
137.2646443889124
 30
0.0
 10
145.3842284070326
 20
137.3213417370315
 30
0.0
 10
145.1638256045925
 20
137.434671308493
 30
0.0
 10
144.9435104385867
 20
137.5482094726369
 30
0.0
 10
144.8334161575792
 20
137.6049459323866
 30
0.0
  0
SPLINE
  5
1B5
330
1F
100
AcDbEntity
  8
0
  6
Continuous
 62
     7
370
    15
100
AcDbSpline
210
0.0
220
0.0
230
1.0
 70
     8
 71
     3
 72
     9
 73
     5
 74
     0
 42
0.00000001
 43
0.00000001
 40
0.0
 40
0.0
 40
0.0
 40
0.0
 40
0.5002873247290369
 40
1.0
 40
1.0
 40
1.0
 40
1.0
 10
145.4944931354282
 20
136.0146446496827
 30
0.0
 10
145.3842284070326
 20
136.0713419978019
 30
0.0
 10
145.1638256045925
 20
136.1846715692633
 30
0.0
 10
144.9435104385867
 20
136.2982097334072
 30
0.0
 10
144.8334161575792
 20
136.3549461931569
 30
0.0
  0
SPLINE
  5
1B6
330
1F
100
AcDbEntity
  8
0
  6
Continuous
 62
     7
370
    15
100
AcDbSpline
210
0.0
220
0.0
230
1.0
 70
     8
 71
     3
 72
     9
 73
     5
 74
     0
 42
0.00000001
 43
0.00000001
 40
0.0
 40
0.0
 40
0.0
 40
0.0
 40
0.5002878979565202
 40
0.9999999999999999
 40
0.9999999999999999
 40
0.9999999999999999
 40
0.9999999999999999
 10
145.4944931354282
 20
147.264644165395
 30
0.0
 10
145.3842284702466
 20
147.3213419467652
 30
0.0
 10
145.163826046698
 20
147.4346722543777
 30
0.0
 10
144.9435105016886
 20
147.5482096821677
 30
0.0
 10
144.8334161575792
 20
147.6049457088692
 30
0.0
  0
SPLINE
  5
1B7
330
1F
100
AcDbEntity
  8
0
  6
Continuous
 62
     7
370
    15
100
AcDbSpline
210
0.0
220
0.0
230
1.0
 70
     8
 71
     3
 72
     9
 73
     5
 74
     0
 42
0.00000001
 43
0.00000001
 40
0.0
 40
0.0
 40
0.0
 40
0.0
 40
0.5002867515015524
 40
1.0
 40
1.0
 40
1.0
 40
1.0
 10
145.4944931354282
 20
148.5146448359472
 30
0.0
 10
145.384228343819
 20
148.5713417508159
 30
0.0
 10
145.163825162487
 20
148.6846705861257
 30
0.0
 10
144.9435103754845
 20
148.798209486623
 30
0.0
 10
144.8334161575792
 20
148.8549463794214
 30
0.0
  0
SPLINE
  5
1B8
330
1F
100
AcDbEntity
  8
0
  6
Continuous
 62
     7
370
    15
100
AcDbSpline
210
0.0
220
0.0
230
1.0
 70
     8
 71
     3
 72
     9
 73
     5
 74
     0
 42
0.00000001
 43
0.00000001
 40
0.0
 40
0.0
 40
0.0
 40
0.0
 40
0.5002867515015524
 40
1.0
 40
1.0
 40
1.0
 40
1.0
 10
145.4944931354282
 20
146.0146453574879
 30
0.0
 10
145.384228343819
 20
146.0713422723565
 30
0.0
 10
145.163825162487
 20
146.1846711076663
 30
0.0
 10
144.9435103754845
 20
146.2982100081636
 30
0.0
 10
144.8334161575792
 20
146.3549469009621
 30
0.0
  0
SPLINE
  5
1B9
330
1F
100
AcDbEntity
  8
0
  6
Continuous
 62
     7
370
    15
100
AcDbSpline
210
0.0
220
0.0
230
1.0
 70
     8
 71
     3
 72
     9
 73
     5
 74
     0
 42
0.00000001
 43
0.00000001
 40
0.0
 40
0.0
 40
0.0
 40
0.0
 40
0.5002867515015524
 40
1.0
 40
1.0
 40
1.0
 40
1.0
 10
145.4944931354282
 20
142.2646452084763
 30
0.0
 10
145.384228343819
 20
142.3213421233449
 30
0.0
 10
145.163825162487
 20
142.4346709586547
 30
0.0
 10
144.9435103754845
 20
142.548209859152
 30
0.0
 10
144.8334161575792
 20
142.6049467519505
 30
0.0
  0
SPLINE
  5
1BA
330
1F
100
AcDbEntity
  8
0
  6
Continuous
 62
     7
370
    15
100
AcDbSpline
210
0.0
220
0.0
230
1.0
 70
     8
 71
     3
 72
     9
 73
     5
 74
     0
 42
0.00000001
 43
0.00000001
 40
0.0
 40
0.0
 40
0.0
 40
0.0
 40
0.5002878979565202
 40
0.9999999999999999
 40
0.9999999999999999
 40
0.9999999999999999
 40
0.9999999999999999
 10
145.4944931354282
 20
144.7646446869356
 30
0.0
 10
145.3842284702466
 20
144.8213424683058
 30
0.0
 10
145.163826046698
 20
144.9346727759183
 30
0.0
 10
144.9435105016886
 20
145.0482102037083
 30
0.0
 10
144.8334161575792
 20
145.1049462304098
 30
0.0
  0
SPLINE
  5
1BB
330
1F
100
AcDbEntity
  8
0
  6
Continuous
 62
     7
370
    15
100
AcDbSpline
210
0.0
220
0.0
230
1.0
 70
     8
 71
     3
 72
     9
 73
     5
 74
     0
 42
0.00000001
 43
0.00000001
 40
0.0
 40
0.0
 40
0.0
 40
0.0
 40
0.5002873240482643
 40
1.0
 40
1.0
 40
1.0
 40
1.0
 10
145.4944931354282
 20
149.7646436438543
 30
0.0
 10
145.3842284069576
 20
149.8213413023637
 30
0.0
 10
145.1638256040675
 20
149.9346714944034
 30
0.0
 10
144.9435104385118
 20
150.0482102797325
 30
0.0
 10
144.8334161575792
 20
150.1049470499737
 30
0.0
  0
SPLINE
  5
1BC
330
1F
100
AcDbEntity
  8
0
  6
Continuous
 62
     7
370
    15
100
AcDbSpline
210
0.0
220
0.0
230
1.0
 70
     8
 71
     3
 72
     9
 73
     5
 74
     0
 42
0.00000001
 43
0.00000001
 40
0.0
 40
0.0
 40
0.0
 40
0.0
 40
0.5002878979565202
 40
0.9999999999999999
 40
0.9999999999999999
 40
0.9999999999999999
 40
0.9999999999999999
 10
145.4944931354282
 20
139.7646438673717
 30
0.0
 10
145.3842284702466
 20
139.821341648742
 30
0.0
 10
145.163826046698
 20
139.9346719563544
 30
0.0
 10
144.9435105016886
 20
140.0482093841444
 30
0.0
 10
144.8334161575792
 20
140.1049454108459
 30
0.0
  0
SPLINE
  5
1BD
330
1F
100
AcDbEntity
  8
0
  6
Continuous
 62
     7
370
    15
100
AcDbSpline
210
0.0
220
0.0
230
1.0
 70
     8
 71
     3
 72
     9
 73
     5
 74
     0
 42
0.00000001
 43
0.00000001
 40
0.0
 40
0.0
 40
0.0
 40
0.0
 40
0.5002878979565202
 40
0.9999999999999999
 40
0.9999999999999999
 40
0.9999999999999999
 40
0.9999999999999999
 10
145.4944931354282
 20
141.014644537924
 30
0.0
 10
145.3842284702466
 20
141.0713423192942
 30
0.0
 10
145.163826046698
 20
141.1846726269067
 30
0.0
 10
144.9435105016886
 20
141.2982100546967
 30
0.0
 10
144.8334161575792
 20
141.3549460813982
 30
0.0
  0
SPLINE
  5
1BE
330
1F
100
AcDbEntity
  8
0
  6
Continuous
 62
     7
370
    15
100
AcDbSpline
210
0.0
220
0.0
230
1.0
 70
     8
 71
     3
 72
     9
 73
     5
 74
     0
 42
0.00000001
 43
0.00000001
 40
0.0
 40
0.0
 40
0.0
 40
0.0
 40
0.5002878979565202
 40
0.9999999999999999
 40
0.9999999999999999
 40
0.9999999999999999
 40
0.9999999999999999
 10
145.4944931354282
 20
143.5146440163834
 30
0.0
 10
145.3842284702466
 20
143.5713417977536
 30
0.0
 10
145.163826046698
 20
143.684672105366
 30
0.0
 10
144.9435105016886
 20
143.798209533156
 30
0.0
 10
144.8334161575792
 20
143.8549455598576
 30
0.0
  0
LINE
  5
1BF
330
1F
100
AcDbEntity
  8
0
  6
Continuous
 62
     7
370
    15
100
AcDbLine
 10
138.2608231541
 20
137.1633993805
 30
0.0
 11
138.2583141711
 21
137.0909359649
 31
0.0
  0
LINE
  5
1C0
330
1F
100
AcDbEntity
  8
0
  6
Continuous
 62
     7
370
    15
100
AcDbLine
 10
144.8225550737
 20
136.3600135193
 30
0.0
 11
144.7715763386
 21
136.4268750296
 31
0.0
  0
LINE
  5
1C1
330
1F
100
AcDbEntity
  8
0
  6
Continuous
 62
     7
370
    15
100
AcDbLine
 10
144.7668023791
 20
136.4452220843
 30
0.0
 11
144.7691679384
 21
136.5234364167
 31
0.0
  0
LINE
  5
1C2
330
1F
100
AcDbEntity
  8
0
  6
Continuous
 62
     7
370
    15
100
AcDbLine
 10
138.2608231541
 20
139.6633997903
 30
0.0
 11
138.2583141711
 21
139.590937306
 31
0.0
  0
LINE
  5
1C3
330
1F
100
AcDbEntity
  8
0
  6
Continuous
 62
     7
370
    15
100
AcDbLine
 10
144.8225550737
 20
138.8600129977
 30
0.0
 11
144.7715763386
 21
138.926874508
 31
0.0
  0
LINE
  5
1C4
330
1F
100
AcDbEntity
  8
0
  6
Continuous
 62
     7
370
    15
100
AcDbLine
 10
144.7668023791
 20
138.9452215627
 30
0.0
 11
144.7691679384
 21
139.0234358952
 31
0.0
  0
LINE
  5
1C5
330
1F
100
AcDbEntity
  8
0
  6
Continuous
 62
     7
370
    15
100
AcDbLine
 10
138.2608231541
 20
138.4134000511
 30
0.0
 11
138.2583141711
 21
138.3409366355
 31
0.0
  0
LINE
  5
1C6
330
1F
100
AcDbEntity
  8
0
  6
Continuous
 62
     7
370
    15
100
AcDbLine
 10
144.8225550737
 20
137.6100132585
 30
0.0
 11
144.7715763386
 21
137.6768757001
 31
0.0
  0
LINE
  5
1C7
330
1F
100
AcDbEntity
  8
0
  6
Continuous
 62
     7
370
    15
100
AcDbLine
 10
144.7668023791
 20
137.6952218235
 30
0.0
 11
144.7691679384
 21
137.773436156
 31
0.0
  0
LINE
  5
1C8
330
1F
100
AcDbEntity
  8
0
  6
Continuous
 62
     7
370
    15
100
AcDbLine
 10
138.2608231541
 20
142.1633992687
 30
0.0
 11
138.2583141711
 21
142.0909367845
 31
0.0
  0
LINE
  5
1C9
330
1F
100
AcDbEntity
  8
0
  6
Continuous
 62
     7
370
    15
100
AcDbLine
 10
144.8225550737
 20
141.3600143388
 30
0.0
 11
144.7715763386
 21
141.4268758491
 31
0.0
  0
LINE
  5
1CA
330
1F
100
AcDbEntity
  8
0
  6
Continuous
 62
     7
370
    15
100
AcDbLine
 10
144.7668023791
 20
141.4452210412
 30
0.0
 11
144.7691679384
 21
141.5234372363
 31
0.0
  0
LINE
  5
1CB
330
1F
100
AcDbEntity
  8
0
  6
Continuous
 62
     7
370
    15
100
AcDbLine
 10
138.2608231541
 20
143.4133999393
 30
0.0
 11
138.2583141711
 21
143.3409355924
 31
0.0
  0
LINE
  5
1CC
330
1F
100
AcDbEntity
  8
0
  6
Continuous
 62
     7
370
    15
100
AcDbLine
 10
144.8225550737
 20
142.6100131468
 30
0.0
 11
144.7715763386
 21
142.676874657
 31
0.0
  0
LINE
  5
1CD
330
1F
100
AcDbEntity
  8
0
  6
Continuous
 62
     7
370
    15
100
AcDbLine
 10
144.7668023791
 20
142.6952217118
 30
0.0
 11
144.7691679384
 21
142.7734360442
 31
0.0
  0
LINE
  5
1CE
330
1F
100
AcDbEntity
  8
0
  6
Continuous
 62
     7
370
    15
100
AcDbLine
 10
138.2608231541
 20
145.9133994178
 30
0.0
 11
138.2583141711
 21
145.8409369335
 31
0.0
  0
LINE
  5
1CF
330
1F
100
AcDbEntity
  8
0
  6
Continuous
 62
     7
370
    15
100
AcDbLine
 10
144.8225550737
 20
145.1100144879
 30
0.0
 11
144.7715763386
 21
145.1768759981
 31
0.0
  0
LINE
  5
1D0
330
1F
100
AcDbEntity
  8
0
  6
Continuous
 62
     7
370
    15
100
AcDbLine
 10
144.7668023791
 20
145.1952211902
 30
0.0
 11
144.7691679384
 21
145.2734355227
 31
0.0
  0
LINE
  5
1D1
330
1F
100
AcDbEntity
  8
0
  6
Continuous
 62
     7
370
    15
100
AcDbLine
 10
138.2608231541
 20
147.1634000883
 30
0.0
 11
138.2583141711
 21
147.0909357414
 31
0.0
  0
LINE
  5
1D2
330
1F
100
AcDbEntity
  8
0
  6
Continuous
 62
     7
370
    15
100
AcDbLine
 10
144.8225550737
 20
146.3600132958
 30
0.0
 11
144.7715763386
 21
146.426874806
 31
0.0
  0
LINE
  5
1D3
330
1F
100
AcDbEntity
  8
0
  6
Continuous
 62
     7
370
    15
100
AcDbLine
 10
144.7668023791
 20
146.4452218608
 30
0.0
 11
144.7691679384
 21
146.5234361932
 31
0.0
  0
LINE
  5
1D4
330
1F
100
AcDbEntity
  8
0
  6
Continuous
 62
     7
370
    15
100
AcDbLine
 10
138.2608231541
 20
140.9134004608
 30
0.0
 11
138.2583141711
 21
140.840936114
 31
0.0
  0
LINE
  5
1D5
330
1F
100
AcDbEntity
  8
0
  6
Continuous
 62
     7
370
    15
100
AcDbLine
 10
144.8225550737
 20
140.1100136683
 30
0.0
 11
144.7715763386
 21
140.1768751786
 31
0.0
  0
LINE
  5
1D6
330
1F
100
AcDbEntity
  8
0
  6
Continuous
 62
     7
370
    15
100
AcDbLine
 10
144.7668023791
 20
140.1952222333
 30
0.0
 11
144.7691679384
 21
140.2734365658
 31
0.0
  0
LINE
  5
1D7
330
1F
100
AcDbEntity
  8
0
  6
Continuous
 62
     7
370
    15
100
AcDbLine
 10
138.2608231541
 20
144.6633987472
 30
0.0
 11
138.2583141711
 21
144.590936263
 31
0.0
  0
LINE
  5
1D8
330
1F
100
AcDbEntity
  8
0
  6
Continuous
 62
     7
370
    15
100
AcDbLine
 10
144.8225550737
 20
143.8600138173
 30
0.0
 11
144.7715763386
 21
143.9268753276
 31
0.0
  0
LINE
  5
1D9
330
1F
100
AcDbEntity
  8
0
  6
Continuous
 62
     7
370
    15
100
AcDbLine
 10
144.7668023791
 20
143.9452223823
 30
0.0
 11
144.7691679384
 21
144.0234367148
 31
0.0
  0
LINE
  5
1DA
330
1F
100
AcDbEntity
  8
0
  6
Continuous
 62
     7
370
    15
100
AcDbLine
 10
138.2608231541
 20
149.6633995668
 30
0.0
 11
138.2583141711
 21
149.5909370825
 31
0.0
  0
LINE
  5
1DB
330
1F
100
AcDbEntity
  8
0
  6
Continuous
 62
     7
370
    15
100
AcDbLine
 10
144.8225550737
 20
148.8600127742
 30
0.0
 11
144.7715763386
 21
148.9268761471
 31
0.0
  0
LINE
  5
1DC
330
1F
100
AcDbEntity
  8
0
  6
Continuous
 62
     7
370
    15
100
AcDbLine
 10
144.7668023791
 20
148.9452213392
 30
0.0
 11
144.7691679384
 21
149.0234356717
 31
0.0
  0
LINE
  5
1DD
330
1F
100
AcDbEntity
  8
0
  6
Continuous
 62
     7
370
    15
100
AcDbLine
 10
138.2608231541
 20
148.4133988962
 30
0.0
 11
138.2583141711
 21
148.340936412
 31
0.0
  0
LINE
  5
1DE
330
1F
100
AcDbEntity
  8
0
  6
Continuous
 62
     7
370
    15
100
AcDbLine
 10
144.8225550737
 20
147.6100139663
 30
0.0
 11
144.7715763386
 21
147.6768754766
 31
0.0
  0
LINE
  5
1DF
330
1F
100
AcDbEntity
  8
0
  6
Continuous
 62
     7
370
    15
100
AcDbLine
 10
144.7668023791
 20
147.6952225313
 30
0.0
 11
144.7691679384
 21
147.7734368638
 31
0.0
  0
LINE
  5
1E0
330
1F
100
AcDbEntity
  8
0
  6
Continuous
 62
     7
370
    15
100
AcDbLine
 10
144.8225886013
 20
150.1100004063
 30
0.0
 11
144.7715782013
 21
150.1768675045
 31
0.0
  0
LINE
  5
1E1
330
1F
100
AcDbEntity
  8
0
  6
Continuous
 62
     7
370
    15
100
AcDbLine
 10
144.766813555
 20
150.1951791689
 30
0.0
 11
144.7691604879
 21
150.2734084026
 31
0.0
  0
LINE
  5
1E2
330
1F
100
AcDbEntity
  8
0
  6
Continuous
 62
     7
370
    15
100
AcDbLine
 10
138.0130391952
 20
100.8344792173
 30
0.0
 11
138.0828809377
 21
98.8344788895
 31
0.0
  0
LINE
  5
1E3
330
1F
100
AcDbEntity
  8
0
  6
Continuous
 62
     7
370
    15
100
AcDbLine
 10
144.9431986
 20
98.8344788895
 30
0.0
 11
145.0130403425
 21
100.8344792173
 31
0.0
  0
ARC
  5
1E4
330
1F
100
AcDbEntity
  8
0
  6
Continuous
 62
     7
370
    15
100
AcDbCircle
 10
141.5130397439
 20
108.3394675396
 30
0.0
 40
10.10498922306923
100
AcDbArc
 50
281.0399157157
 51
289.8434884207
  0
ARC
  5
1E5
330
1F
100
AcDbEntity
  8
0
  6
Continuous
 62
     7
370
    15
100
AcDbCircle
 10
141.5130397439
 20
108.3394675396
 30
0.0
 40
10.10498922306923
100
AcDbArc
 50
277.9087897177
 51
281.0399157157
  0
ARC
  5
1E6
330
1F
100
AcDbEntity
  8
0
  6
Continuous
 62
     7
370
    15
100
AcDbCircle
 10
141.5130397439
 20
108.3394675396
 30
0.0
 40
10.10498922306922
100
AcDbArc
 50
259.2841651735
 51
262.0912102824
  0
ARC
  5
1E7
330
1F
100
AcDbEntity
  8
0
  6
Continuous
 62
     7
370
    15
100
AcDbCircle
 10
141.5130397439
 20
108.3394675396
 30
0.0
 40
10.10498922306921
100
AcDbArc
 50
250.1565115793
 51
259.2841651735
  0
LINE
  5
1E8
330
1F
100
AcDbEntity
  8
0
  6
Continuous
 62
     7
370
    15
100
AcDbLine
 10
141.5049717214
 20
101.0201923892
 30
0.0
 11
141.8171938892
 21
101.0131776676
 31
0.0
  0
LINE
  5
1E9
330
1F
100
AcDbEntity
  8
0
  6
Continuous
 62
     7
370
    15
100
AcDbLine
 10
149.0130391356
 20
139.9344779894
 30
0.0
 11
149.0130391356
 21
143.4344776318
 31
0.0
  0
LINE
  5
1EA
330
1F
100
AcDbEntity
  8
0
  6
Continuous
 62
     7
370
    15
100
AcDbLine
 10
134.0130385395
 20
143.4344776318
 30
0.0
 11
134.0130385395
 21
139.9344779894
 31
0.0
  0
LINE
  5
1EB
330
1F
100
AcDbEntity
  8
0
  6
Continuous
 62
     7
370
    15
100
AcDbLine
 10
146.0130405065
 20
139.9344779894
 30
0.0
 11
146.0130405065
 21
143.4344776318
 31
0.0
  0
LINE
  5
1EC
330
1F
100
AcDbEntity
  8
0
  6
Continuous
 62
     7
370
    15
100
AcDbLine
 10
137.0130390312
 20
143.4344776318
 30
0.0
 11
137.0130390312
 21
139.9344779894
 31
0.0
  0
LINE
  5
1ED
330
1F
100
AcDbEntity
  8
0
  6
Continuous
 62
     7
370
    15
100
AcDbLine
 10
146.0130405065
 20
139.9344779894
 30
0.0
 11
145.238591769
 21
139.9344779894
 31
0.0
  0
LINE
  5
1EE
330
1F
100
AcDbEntity
  8
0
  6
Continuous
 62
     7
370
    15
100
AcDbLine
 10
137.8571171697
 20
139.9344779894
 30
0.0
 11
137.0130390312
 21
139.9344779894
 31
0.0
  0
LINE
  5
1EF
330
1F
100
AcDbEntity
  8
0
  6
Continuous
 62
     7
370
    15
100
AcDbLine
 10
146.0130405065
 20
143.4344776318
 30
0.0
 11
145.5095544841
 21
143.4344776318
 31
0.0
  0
LINE
  5
1F0
330
1F
100
AcDbEntity
  8
0
  6
Continuous
 62
     7
370
    15
100
AcDbLine
 10
138.1836295511
 20
143.4344776318
 30
0.0
 11
137.0130390312
 21
143.4344776318
 31
0.0
  0
LINE
  5
1F1
330
1F
100
AcDbEntity
  8
0
  6
Continuous
 62
     7
370
    15
100
AcDbLine
 10
134.0130385395
 20
139.9344779894
 30
0.0
 11
137.0130390312
 21
139.9344779894
 31
0.0
  0
LINE
  5
1F2
330
1F
100
AcDbEntity
  8
0
  6
Continuous
 62
     7
370
    15
100
AcDbLine
 10
134.0130385395
 20
143.4344776318
 30
0.0
 11
137.0130390312
 21
143.4344776318
 31
0.0
  0
LINE
  5
1F3
330
1F
100
AcDbEntity
  8
0
  6
Continuous
 62
     7
370
    15
100
AcDbLine
 10
146.0130405065
 20
139.9344779894
 30
0.0
 11
149.0130391356
 21
139.9344779894
 31
0.0
  0
LINE
  5
1F4
330
1F
100
AcDbEntity
  8
0
  6
Continuous
 62
     7
370
    15
100
AcDbLine
 10
146.0130405065
 20
143.4344776318
 30
0.0
 11
149.0130391356
 21
143.4344776318
 31
0.0
  0
LINE
  5
1F5
330
1F
100
AcDbEntity
  8
0
  6
Continuous
 62
     7
370
    15
100
AcDbLine
 10
130.4130409297
 20
144.1344783053
 30
0.0
 11
130.4130409297
 21
143.4344776318
 31
0.0
  0
LINE
  5
1F6
330
1F
100
AcDbEntity
  8
0
  6
Continuous
 62
     7
370
    15
100
AcDbLine
 10
152.6130395394
 20
143.4344776318
 30
0.0
 11
152.6130395394
 21
144.1344783053
 31
0.0
  0
LINE
  5
1F7
330
1F
100
AcDbEntity
  8
0
  6
Continuous
 62
     7
370
    15
100
AcDbLine
 10
136.4130400505
 20
144.1344783053
 30
0.0
 11
136.4130400505
 21
143.4344776318
 31
0.0
  0
LINE
  5
1F8
330
1F
100
AcDbEntity
  8
0
  6
Continuous
 62
     7
370
    15
100
AcDbLine
 10
146.6130394872
 20
143.4344776318
 30
0.0
 11
146.6130394872
 21
144.1344783053
 31
0.0
  0
LINE
  5
1F9
330
1F
100
AcDbEntity
  8
0
  6
Continuous
 62
     7
370
    15
100
AcDbLine
 10
152.6130395394
 20
143.4344776318
 30
0.0
 11
146.6130394872
 21
143.4344776318
 31
0.0
  0
LINE
  5
1FA
330
1F
100
AcDbEntity
  8
0
  6
Continuous
 62
     7
370
    15
100
AcDbLine
 10
152.6130395394
 20
144.1344783053
 30
0.0
 11
146.6130394872
 21
144.1344783053
 31
0.0
  0
LINE
  5
1FB
330
1F
100
AcDbEntity
  8
0
  6
Continuous
 62
     7
370
    15
100
AcDbLine
 10
136.4130400505
 20
143.4344776318
 30
0.0
 11
130.4130409297
 21
143.4344776318
 31
0.0
  0
LINE
  5
1FC
330
1F
100
AcDbEntity
  8
0
  6
Continuous
 62
     7
370
    15
100
AcDbLine
 10
136.4130400505
 20
144.1344783053
 30
0.0
 11
130.4130409297
 21
144.1344783053
 31
0.0
  0
LINE
  5
1FD
330
1F
100
AcDbEntity
  8
0
  6
Continuous
 62
     7
370
    15
100
AcDbLine
 10
130.4130409297
 20
139.9344779894
 30
0.0
 11
130.4130409297
 21
139.2344791785
 31
0.0
  0
LINE
  5
1FE
330
1F
100
AcDbEntity
  8
0
  6
Continuous
 62
     7
370
    15
100
AcDbLine
 10
152.6130395394
 20
139.2344791785
 30
0.0
 11
152.6130395394
 21
139.9344779894
 31
0.0
  0
LINE
  5
1FF
330
1F
100
AcDbEntity
  8
0
  6
Continuous
 62
     7
370
    15
100
AcDbLine
 10
136.4130400505
 20
139.9344779894
 30
0.0
 11
136.4130400505
 21
139.2344791785
 31
0.0
  0
LINE
  5
200
330
1F
100
AcDbEntity
  8
0
  6
Continuous
 62
     7
370
    15
100
AcDbLine
 10
146.6130394872
 20
139.2344791785
 30
0.0
 11
146.6130394872
 21
139.9344779894
 31
0.0
  0
LINE
  5
201
330
1F
100
AcDbEntity
  8
0
  6
Continuous
 62
     7
370
    15
100
AcDbLine
 10
152.6130395394
 20
139.9344779894
 30
0.0
 11
146.6130394872
 21
139.9344779894
 31
0.0
  0
LINE
  5
202
330
1F
100
AcDbEntity
  8
0
  6
Continuous
 62
     7
370
    15
100
AcDbLine
 10
152.6130395394
 20
139.2344791785
 30
0.0
 11
146.6130394872
 21
139.2344791785
 31
0.0
  0
LINE
  5
203
330
1F
100
AcDbEntity
  8
0
  6
Continuous
 62
     7
370
    15
100
AcDbLine
 10
136.4130400505
 20
139.9344779894
 30
0.0
 11
130.4130409297
 21
139.9344779894
 31
0.0
  0
LINE
  5
204
330
1F
100
AcDbEntity
  8
0
  6
Continuous
 62
     7
370
    15
100
AcDbLine
 10
136.4130400505
 20
139.2344791785
 30
0.0
 11
130.4130409297
 21
139.2344791785
 31
0.0
  0
LINE
  5
205
330
1F
100
AcDbEntity
  8
0
  6
Continuous
 62
     7
370
    15
100
AcDbLine
 10
134.0130385395
 20
131.3344786287
 30
0.0
 11
134.0130385395
 21
127.8344785207
 31
0.0
  0
LINE
  5
206
330
1F
100
AcDbEntity
  8
0
  6
Continuous
 62
     7
370
    15
100
AcDbLine
 10
149.0130391356
 20
127.8344785207
 30
0.0
 11
149.0130391356
 21
131.3344786287
 31
0.0
  0
LINE
  5
207
330
1F
100
AcDbEntity
  8
0
  6
Continuous
 62
     7
370
    15
100
AcDbLine
 10
137.0130390312
 20
131.3344786287
 30
0.0
 11
137.0130390312
 21
127.8344785207
 31
0.0
  0
LINE
  5
208
330
1F
100
AcDbEntity
  8
0
  6
Continuous
 62
     7
370
    15
100
AcDbLine
 10
146.0130405065
 20
127.8344785207
 30
0.0
 11
146.0130405065
 21
131.3344786287
 31
0.0
  0
LINE
  5
209
330
1F
100
AcDbEntity
  8
0
  6
Continuous
 62
     7
370
    15
100
AcDbLine
 10
149.0130391356
 20
131.3344786287
 30
0.0
 11
146.0130405065
 21
131.3344786287
 31
0.0
  0
LINE
  5
20A
330
1F
100
AcDbEntity
  8
0
  6
Continuous
 62
     7
370
    15
100
AcDbLine
 10
149.0130391356
 20
127.8344785207
 30
0.0
 11
146.0130405065
 21
127.8344785207
 31
0.0
  0
LINE
  5
20B
330
1F
100
AcDbEntity
  8
0
  6
Continuous
 62
     7
370
    15
100
AcDbLine
 10
137.0130390312
 20
131.3344786287
 30
0.0
 11
134.0130385395
 21
131.3344786287
 31
0.0
  0
LINE
  5
20C
330
1F
100
AcDbEntity
  8
0
  6
Continuous
 62
     7
370
    15
100
AcDbLine
 10
137.0130390312
 20
127.8344785207
 30
0.0
 11
134.0130385395
 21
127.8344785207
 31
0.0
  0
LINE
  5
20D
330
1F
100
AcDbEntity
  8
0
  6
Continuous
 62
     7
370
    15
100
AcDbLine
 10
145.5130394932
 20
135.7344786049
 30
0.0
 11
149.5130401488
 21
131.7344779492
 31
0.0
  0
LINE
  5
20E
330
1F
100
AcDbEntity
  8
0
  6
Continuous
 62
     7
370
    15
100
AcDbLine
 10
133.5130412515
 20
131.7344779492
 30
0.0
 11
137.5130400445
 21
135.7344786049
 31
0.0
  0
LINE
  5
20F
330
1F
100
AcDbEntity
  8
0
  6
Continuous
 62
     7
370
    15
100
AcDbLine
 10
149.5130401488
 20
131.7344779492
 30
0.0
 11
149.5130401488
 21
131.3344786287
 31
0.0
  0
LINE
  5
210
330
1F
100
AcDbEntity
  8
0
  6
Continuous
 62
     7
370
    15
100
AcDbLine
 10
133.5130412515
 20
131.3344786287
 30
0.0
 11
133.5130412515
 21
131.7344779492
 31
0.0
  0
LWPOLYLINE
  5
211
330
1F
100
AcDbEntity
  8
0
  6
Continuous
 62
     7
370
    15
100
AcDbPolyline
 90
        4
 70
   128
 43
0.0
 10
145.5130394932
 20
148.4959327028
 10
145.3061405953
 20
148.6018054531
 10
145.0809784617
 20
148.7170528964
 10
144.8558312293
 20
148.8323282794
  0
LINE
  5
212
330
1F
100
AcDbEntity
  8
0
  6
Continuous
 62
     7
370
    15
100
AcDbLine
 10
145.5130394932
 20
148.4959327028
 30
0.0
 11
145.5130394932
 21
148.3301908121
 31
0.0
  0
SPLINE
  5
213
330
1F
100
AcDbEntity
  8
0
  6
Continuous
 62
     7
370
    15
100
AcDbSpline
210
0.0
220
0.0
230
1.0
 70
     8
 71
     3
 72
    10
 73
     6
 74
     0
 42
0.00000001
 43
0.00000001
 40
0.0
 40
0.0
 40
0.0
 40
0.0
 40
0.2864503398320352
 40
0.5728992786545843
 40
1.0
 40
1.0
 40
1.0
 40
1.0
 10
144.8399857070205
 20
147.8941958740932
 30
0.0
 10
144.9042432380509
 20
147.9358384666222
 30
0.0
 10
145.0327579858324
 20
148.0191234480091
 30
0.0
 10
145.2571074824925
 20
148.1644578255298
 30
0.0
 10
145.4172093000268
 20
148.2681343930118
 30
0.0
 10
145.5130394931791
 20
148.3301908121092
 30
0.0
  0
SPLINE
  5
214
330
1F
100
AcDbEntity
  8
0
  6
Continuous
 62
     7
370
    15
100
AcDbSpline
210
0.0
220
0.0
230
1.0
 70
     8
 71
     3
 72
    14
 73
    10
 74
     0
 42
0.00000001
 43
0.00000001
 40
0.0
 40
0.0
 40
0.0
 40
0.0
 40
0.1609334220456894
 40
0.3218620642300701
 40
0.4829754838479057
 40
0.6443045306712252
 40
0.805683616365677
 40
0.966936396662196
 40
1.0
 40
1.0
 40
1.0
 40
1.0
 10
144.855831229305
 20
147.5823276088221
 30
0.0
 10
144.8387174286183
 20
147.5933316990647
 30
0.0
 10
144.8044903355394
 20
147.615339552719
 30
0.0
 10
144.7706568714828
 20
147.6675557877994
 30
0.0
 10
144.7549854176906
 20
147.7269711194284
 30
0.0
 10
144.7601035238273
 20
147.7886173116231
 30
0.0
 10
144.7852936930032
 20
147.8448881581884
 30
0.0
 10
144.8164312601807
 20
147.8781935955495
 30
0.0
 10
144.836560625959
 20
147.8918689631047
 30
0.0
 10
144.8399857070205
 20
147.8941958740932
 30
0.0
  0
LWPOLYLINE
  5
215
330
1F
100
AcDbEntity
  8
0
  6
Continuous
 62
     7
370
    15
100
AcDbPolyline
 90
        4
 70
   128
 43
0.0
 10
145.5130394932
 20
147.2459320322
 10
145.3061405953
 20
147.3518047825
 10
145.0809784617
 20
147.4670522258
 10
144.8558312293
 20
147.5823276088
  0
LINE
  5
216
330
1F
100
AcDbEntity
  8
0
  6
Continuous
 62
     7
370
    15
100
AcDbLine
 10
145.5130394932
 20
147.2459320322
 30
0.0
 11
145.5130394932
 21
147.0801901416
 31
0.0
  0
SPLINE
  5
217
330
1F
100
AcDbEntity
  8
0
  6
Continuous
 62
     7
370
    15
100
AcDbSpline
210
0.0
220
0.0
230
1.0
 70
     8
 71
     3
 72
    10
 73
     6
 74
     0
 42
0.00000001
 43
0.00000001
 40
0.0
 40
0.0
 40
0.0
 40
0.0
 40
0.2864503397500351
 40
0.5729005413449588
 40
1.0
 40
1.0
 40
1.0
 40
1.0
 10
144.8399857070205
 20
146.644195203541
 30
0.0
 10
144.9042433376324
 20
146.6858376423469
 30
0.0
 10
145.0327585678647
 20
146.7691224998746
 30
0.0
 10
145.2571063264486
 20
146.914459560589
 30
0.0
 10
145.4172090444015
 20
147.0181347379794
 30
0.0
 10
145.5130394931791
 20
147.0801901415569
 30
0.0
  0
SPLINE
  5
218
330
1F
100
AcDbEntity
  8
0
  6
Continuous
 62
     7
370
    15
100
AcDbSpline
210
0.0
220
0.0
230
1.0
 70
     8
 71
     3
 72
    14
 73
    10
 74
     0
 42
0.00000001
 43
0.00000001
 40
0.0
 40
0.0
 40
0.0
 40
0.0
 40
0.1609309538117201
 40
0.3218600967964909
 40
0.4829788158303591
 40
0.6443034237680201
 40
0.8056830116646155
 40
0.9669362937702233
 40
0.9999999999999999
 40
0.9999999999999999
 40
0.9999999999999999
 40
0.9999999999999999
 10
144.855831229305
 20
146.332328800915
 30
0.0
 10
144.8387173812728
 20
146.3433321944188
 30
0.0
 10
144.8044898777766
 20
146.3653388576141
 30
0.0
 10
144.770656533521
 20
146.4175557057489
 30
0.0
 10
144.754985615197
 20
146.476971123696
 30
0.0
 10
144.7601037148219
 20
146.5386172156723
 30
0.0
 10
144.7852937114501
 20
146.5948874876044
 30
0.0
 10
144.8164312594434
 20
146.6281929249985
 30
0.0
 10
144.8365606258518
 20
146.6418682925526
 30
0.0
 10
144.8399857070205
 20
146.644195203541
 30
0.0
  0
LWPOLYLINE
  5
219
330
1F
100
AcDbEntity
  8
0
  6
Continuous
 62
     7
370
    15
100
AcDbPolyline
 90
        4
 70
   128
 43
0.0
 10
145.5130394932
 20
145.9959332243
 10
145.3061405953
 20
146.1018059746
 10
145.0809784617
 20
146.2170534179
 10
144.8558312293
 20
146.3323288009
  0
LINE
  5
21A
330
1F
100
AcDbEntity
  8
0
  6
Continuous
 62
     7
370
    15
100
AcDbLine
 10
145.5130394932
 20
145.9959332243
 30
0.0
 11
145.5130394932
 21
145.830189471
 31
0.0
  0
SPLINE
  5
21B
330
1F
100
AcDbEntity
  8
0
  6
Continuous
 62
     7
370
    15
100
AcDbSpline
210
0.0
220
0.0
230
1.0
 70
     8
 71
     3
 72
    10
 73
     6
 74
     0
 42
0.00000001
 43
0.00000001
 40
0.0
 40
0.0
 40
0.0
 40
0.0
 40
0.2864507014955565
 40
0.5729000019798581
 40
1.0
 40
1.0
 40
1.0
 40
1.0
 10
144.8399857070205
 20
145.3941963956339
 30
0.0
 10
144.904243248089
 20
145.4358389726627
 30
0.0
 10
145.0327580159466
 20
145.5191239230493
 30
0.0
 10
145.257107054136
 20
145.6644583876302
 30
0.0
 10
145.4172092107762
 20
145.7681338106043
 30
0.0
 10
145.5130394931791
 20
145.8301894710047
 30
0.0
  0
SPLINE
  5
21C
330
1F
100
AcDbEntity
  8
0
  6
Continuous
 62
     7
370
    15
100
AcDbSpline
210
0.0
220
0.0
230
1.0
 70
     8
 71
     3
 72
    14
 73
    10
 74
     0
 42
0.00000001
 43
0.00000001
 40
0.0
 40
0.0
 40
0.0
 40
0.0
 40
0.1609336937850738
 40
0.3218626077007679
 40
0.4829762993619175
 40
0.6443056185926418
 40
0.8056804496996336
 40
0.9669335022747799
 40
1.0
 40
1.0
 40
1.0
 40
1.0
 10
144.855831229305
 20
145.0823281303627
 30
0.0
 10
144.8387174296159
 20
145.0933322210485
 30
0.0
 10
144.8044903385323
 20
145.115340075589
 30
0.0
 10
144.7706568595058
 20
145.1675563040201
 30
0.0
 10
144.7549854626874
 20
145.2269716609557
 30
0.0
 10
144.7601033076857
 20
145.2886171816122
 30
0.0
 10
144.7852937558316
 20
145.3448879311016
 30
0.0
 10
144.8164328454689
 20
145.3781905970722
 30
0.0
 10
144.8365606479649
 20
145.3918688310963
 30
0.0
 10
144.8399857070205
 20
145.3941963956339
 30
0.0
  0
LWPOLYLINE
  5
21D
330
1F
100
AcDbEntity
  8
0
  6
Continuous
 62
     7
370
    15
100
AcDbPolyline
 90
        4
 70
   128
 43
0.0
 10
145.5130394932
 20
144.7459325538
 10
145.3061405953
 20
144.851805304
 10
145.0809784617
 20
144.9670527474
 10
144.8558312293
 20
145.0823281304
  0
LINE
  5
21E
330
1F
100
AcDbEntity
  8
0
  6
Continuous
 62
     7
370
    15
100
AcDbLine
 10
145.5130394932
 20
144.7459325538
 30
0.0
 11
145.5130394932
 21
144.5801906631
 31
0.0
  0
SPLINE
  5
21F
330
1F
100
AcDbEntity
  8
0
  6
Continuous
 62
     7
370
    15
100
AcDbSpline
210
0.0
220
0.0
230
1.0
 70
     8
 71
     3
 72
    10
 73
     6
 74
     0
 42
0.00000001
 43
0.00000001
 40
0.0
 40
0.0
 40
0.0
 40
0.0
 40
0.2864503398320352
 40
0.5728992786545843
 40
1.0
 40
1.0
 40
1.0
 40
1.0
 10
144.8399857070205
 20
144.1441957250816
 30
0.0
 10
144.9042432380509
 20
144.1858383176106
 30
0.0
 10
145.0327579858324
 20
144.2691232989975
 30
0.0
 10
145.2571074824925
 20
144.4144576765182
 30
0.0
 10
145.4172093000268
 20
144.5181342440002
 30
0.0
 10
145.5130394931791
 20
144.5801906630976
 30
0.0
  0
SPLINE
  5
220
330
1F
100
AcDbEntity
  8
0
  6
Continuous
 62
     7
370
    15
100
AcDbSpline
210
0.0
220
0.0
230
1.0
 70
     8
 71
     3
 72
    14
 73
    10
 74
     0
 42
0.00000001
 43
0.00000001
 40
0.0
 40
0.0
 40
0.0
 40
0.0
 40
0.1609334450416325
 40
0.3218621102212731
 40
0.4829803508871523
 40
0.6443044798455319
 40
0.8056835885996081
 40
0.9669363919377035
 40
1.0
 40
1.0
 40
1.0
 40
1.0
 10
144.855831229305
 20
143.8323274598104
 30
0.0
 10
144.8387174347664
 20
143.843331552101
 30
0.0
 10
144.8044903539837
 20
143.865339409851
 30
0.0
 10
144.7706564615601
 20
143.917556132934
 30
0.0
 10
144.7549856345198
 20
143.9769716705728
 30
0.0
 10
144.7601037096242
 20
144.0386177303977
 30
0.0
 10
144.7852937128989
 20
144.0948880110447
 30
0.0
 10
144.8164312593854
 20
144.1281934464632
 30
0.0
 10
144.8365606258433
 20
144.1418688140822
 30
0.0
 10
144.8399857070205
 20
144.1441957250816
 30
0.0
  0
LWPOLYLINE
  5
221
330
1F
100
AcDbEntity
  8
0
  6
Continuous
 62
     7
370
    15
100
AcDbPolyline
 90
        4
 70
   128
 43
0.0
 10
145.5130394932
 20
143.4959318832
 10
145.3061405953
 20
143.6018064961
 10
145.0809784617
 20
143.7170520768
 10
144.8558312293
 20
143.8323274598
  0
LINE
  5
222
330
1F
100
AcDbEntity
  8
0
  6
Continuous
 62
     7
370
    15
100
AcDbLine
 10
145.5130394932
 20
143.4959318832
 30
0.0
 11
145.5130394932
 21
143.3301899925
 31
0.0
  0
SPLINE
  5
223
330
1F
100
AcDbEntity
  8
0
  6
Continuous
 62
     7
370
    15
100
AcDbSpline
210
0.0
220
0.0
230
1.0
 70
     8
 71
     3
 72
    10
 73
     6
 74
     0
 42
0.00000001
 43
0.00000001
 40
0.0
 40
0.0
 40
0.0
 40
0.0
 40
0.2864503397500351
 40
0.5729005413449588
 40
1.0
 40
1.0
 40
1.0
 40
1.0
 10
144.8399857070205
 20
142.8941950545294
 30
0.0
 10
144.9042433376324
 20
142.9358374933353
 30
0.0
 10
145.0327585678647
 20
143.019122350863
 30
0.0
 10
145.2571063264486
 20
143.1644594115773
 30
0.0
 10
145.4172090444015
 20
143.2681345889678
 30
0.0
 10
145.5130394931791
 20
143.3301899925453
 30
0.0
  0
SPLINE
  5
224
330
1F
100
AcDbEntity
  8
0
  6
Continuous
 62
     7
370
    15
100
AcDbSpline
210
0.0
220
0.0
230
1.0
 70
     8
 71
     3
 72
    14
 73
    10
 74
     0
 42
0.00000001
 43
0.00000001
 40
0.0
 40
0.0
 40
0.0
 40
0.0
 40
0.1609309538117201
 40
0.3218600967964909
 40
0.4829788158303591
 40
0.6443034237680201
 40
0.8056830116646155
 40
0.9669362937702233
 40
0.9999999999999999
 40
0.9999999999999999
 40
0.9999999999999999
 40
0.9999999999999999
 10
144.855831229305
 20
142.5823286519033
 30
0.0
 10
144.8387173812728
 20
142.5933320454072
 30
0.0
 10
144.8044898777766
 20
142.6153387086025
 30
0.0
 10
144.770656533521
 20
142.6675555567373
 30
0.0
 10
144.754985615197
 20
142.7269709746844
 30
0.0
 10
144.7601037148219
 20
142.7886170666607
 30
0.0
 10
144.7852937114501
 20
142.8448873385928
 30
0.0
 10
144.8164312594434
 20
142.8781927759869
 30
0.0
 10
144.8365606258518
 20
142.891868143541
 30
0.0
 10
144.8399857070205
 20
142.8941950545294
 30
0.0
  0
LWPOLYLINE
  5
225
330
1F
100
AcDbEntity
  8
0
  6
Continuous
 62
     7
370
    15
100
AcDbPolyline
 90
        4
 70
   128
 43
0.0
 10
145.5130394932
 20
142.2459330753
 10
145.3061405953
 20
142.3518058256
 10
145.0809784617
 20
142.4670532689
 10
144.8558312293
 20
142.5823286519
  0
LINE
  5
226
330
1F
100
AcDbEntity
  8
0
  6
Continuous
 62
     7
370
    15
100
AcDbLine
 10
145.5130394932
 20
142.2459330753
 30
0.0
 11
145.5130394932
 21
142.080189322
 31
0.0
  0
SPLINE
  5
227
330
1F
100
AcDbEntity
  8
0
  6
Continuous
 62
     7
370
    15
100
AcDbSpline
210
0.0
220
0.0
230
1.0
 70
     8
 71
     3
 72
    10
 73
     6
 74
     0
 42
0.00000001
 43
0.00000001
 40
0.0
 40
0.0
 40
0.0
 40
0.0
 40
0.2864507014955565
 40
0.5729000019798581
 40
1.0
 40
1.0
 40
1.0
 40
1.0
 10
144.8399857070205
 20
141.6441962466223
 30
0.0
 10
144.904243248089
 20
141.6858388236511
 30
0.0
 10
145.0327580159466
 20
141.7691237740377
 30
0.0
 10
145.257107054136
 20
141.9144582386186
 30
0.0
 10
145.4172092107762
 20
142.0181336615927
 30
0.0
 10
145.5130394931791
 20
142.0801893219931
 30
0.0
  0
SPLINE
  5
228
330
1F
100
AcDbEntity
  8
0
  6
Continuous
 62
     7
370
    15
100
AcDbSpline
210
0.0
220
0.0
230
1.0
 70
     8
 71
     3
 72
    14
 73
    10
 74
     0
 42
0.00000001
 43
0.00000001
 40
0.0
 40
0.0
 40
0.0
 40
0.0
 40
0.160933544811679
 40
0.321862309758403
 40
0.482975852279537
 40
0.6443050221706432
 40
0.8056842309710535
 40
0.9669335328838357
 40
1.0
 40
1.0
 40
1.0
 40
1.0
 10
144.855831229305
 20
141.3323279813511
 30
0.0
 10
144.8387174270719
 20
141.3433320734634
 30
0.0
 10
144.8044903309004
 20
141.3653399308569
 30
0.0
 10
144.7706568900471
 20
141.4175561378828
 30
0.0
 10
144.7549853479459
 20
141.476971576284
 30
0.0
 10
144.7601037846197
 20
141.5386173688345
 30
0.0
 10
144.7852925322773
 20
141.5948892887393
 30
0.0
 10
144.8164332748676
 20
141.6281906541251
 30
0.0
 10
144.8365606561613
 20
141.6418686751859
 30
0.0
 10
144.8399857070205
 20
141.6441962466223
 30
0.0
  0
LWPOLYLINE
  5
229
330
1F
100
AcDbEntity
  8
0
  6
Continuous
 62
     7
370
    15
100
AcDbPolyline
 90
        4
 70
   128
 43
0.0
 10
145.5130394932
 20
140.9959324048
 10
145.3061405953
 20
141.101805155
 10
145.0809784617
 20
141.2170525984
 10
144.8558312293
 20
141.3323279814
  0
LINE
  5
22A
330
1F
100
AcDbEntity
  8
0
  6
Continuous
 62
     7
370
    15
100
AcDbLine
 10
145.5130394932
 20
140.9959324048
 30
0.0
 11
145.5130394932
 21
140.8301905141
 31
0.0
  0
SPLINE
  5
22B
330
1F
100
AcDbEntity
  8
0
  6
Continuous
 62
     7
370
    15
100
AcDbSpline
210
0.0
220
0.0
230
1.0
 70
     8
 71
     3
 72
    10
 73
     6
 74
     0
 42
0.00000001
 43
0.00000001
 40
0.0
 40
0.0
 40
0.0
 40
0.0
 40
0.2864503398320352
 40
0.5728992786545843
 40
1.0
 40
1.0
 40
1.0
 40
1.0
 10
144.8399857070205
 20
140.39419557607
 30
0.0
 10
144.9042432380509
 20
140.435838168599
 30
0.0
 10
145.0327579858324
 20
140.5191231499859
 30
0.0
 10
145.2571074824925
 20
140.6644575275066
 30
0.0
 10
145.4172093000268
 20
140.7681340949886
 30
0.0
 10
145.5130394931791
 20
140.830190514086
 30
0.0
  0
SPLINE
  5
22C
330
1F
100
AcDbEntity
  8
0
  6
Continuous
 62
     7
370
    15
100
AcDbSpline
210
0.0
220
0.0
230
1.0
 70
     8
 71
     3
 72
    14
 73
    10
 74
     0
 42
0.00000001
 43
0.00000001
 40
0.0
 40
0.0
 40
0.0
 40
0.0
 40
0.1609309538117201
 40
0.3218600967964909
 40
0.4829788158303591
 40
0.6443034237680201
 40
0.8056830116646155
 40
0.9669362937702233
 40
0.9999999999999999
 40
0.9999999999999999
 40
0.9999999999999999
 40
0.9999999999999999
 10
144.855831229305
 20
140.082329173444
 30
0.0
 10
144.8387173812728
 20
140.0933325669478
 30
0.0
 10
144.8044898777766
 20
140.1153392301431
 30
0.0
 10
144.770656533521
 20
140.1675560782779
 30
0.0
 10
144.754985615197
 20
140.226971496225
 30
0.0
 10
144.7601037148219
 20
140.2886175882014
 30
0.0
 10
144.7852937114501
 20
140.3448878601335
 30
0.0
 10
144.8164312594434
 20
140.3781932975275
 30
0.0
 10
144.8365606258518
 20
140.3918686650816
 30
0.0
 10
144.8399857070205
 20
140.39419557607
 30
0.0
  0
LWPOLYLINE
  5
22D
330
1F
100
AcDbEntity
  8
0
  6
Continuous
 62
     7
370
    15
100
AcDbPolyline
 90
        4
 70
   128
 43
0.0
 10
145.5130394932
 20
139.7459317342
 10
145.3061405953
 20
139.8518063471
 10
145.0809784617
 20
139.9670519278
 10
144.8558312293
 20
140.0823291734
  0
LINE
  5
22E
330
1F
100
AcDbEntity
  8
0
  6
Continuous
 62
     7
370
    15
100
AcDbLine
 10
145.5130394932
 20
139.7459317342
 30
0.0
 11
145.5130394932
 21
139.5801898435
 31
0.0
  0
SPLINE
  5
22F
330
1F
100
AcDbEntity
  8
0
  6
Continuous
 62
     7
370
    15
100
AcDbSpline
210
0.0
220
0.0
230
1.0
 70
     8
 71
     3
 72
    10
 73
     6
 74
     0
 42
0.00000001
 43
0.00000001
 40
0.0
 40
0.0
 40
0.0
 40
0.0
 40
0.2864494384518773
 40
0.572900001867503
 40
1.0
 40
1.0
 40
1.0
 40
1.0
 10
144.8399857070205
 20
139.1441967681629
 30
0.0
 10
144.9042434122203
 20
139.1858384709843
 30
0.0
 10
145.032759074977
 20
139.2691220401651
 30
0.0
 10
145.2571062375714
 20
139.4144593997198
 30
0.0
 10
145.4172090111227
 20
139.5181344913115
 30
0.0
 10
145.5130394931791
 20
139.5801898435337
 30
0.0
  0
SPLINE
  5
230
330
1F
100
AcDbEntity
  8
0
  6
Continuous
 62
     7
370
    15
100
AcDbSpline
210
0.0
220
0.0
230
1.0
 70
     8
 71
     3
 72
    14
 73
    10
 74
     0
 42
0.00000001
 43
0.00000001
 40
0.0
 40
0.0
 40
0.0
 40
0.0
 40
0.1609306068428332
 40
0.3218635183470159
 40
0.4829770919768919
 40
0.6443013520969434
 40
0.8056805920573921
 40
0.9669335264991695
 40
1.0
 40
1.0
 40
1.0
 40
1.0
 10
144.855831229305
 20
138.8323285028917
 30
0.0
 10
144.8387172886829
 20
138.843331843983
 30
0.0
 10
144.8044891623525
 20
138.8653386837427
 30
0.0
 10
144.7706574794265
 20
138.9175564900058
 30
0.0
 10
144.7549853004502
 20
138.976971376174
 30
0.0
 10
144.7601039482363
 20
139.0386167405216
 30
0.0
 10
144.7852931436847
 20
139.0948879589627
 30
0.0
 10
144.8164328540971
 20
139.1281909664354
 30
0.0
 10
144.8365606492196
 20
139.1418692031649
 30
0.0
 10
144.8399857070205
 20
139.1441967681629
 30
0.0
  0
LWPOLYLINE
  5
231
330
1F
100
AcDbEntity
  8
0
  6
Continuous
 62
     7
370
    15
100
AcDbPolyline
 90
        4
 70
   128
 43
0.0
 10
145.5130394932
 20
138.495931995
 10
145.3061405953
 20
138.6018056766
 10
145.0809784617
 20
138.7170531199
 10
144.8558312293
 20
138.8323285029
  0
LINE
  5
232
330
1F
100
AcDbEntity
  8
0
  6
Continuous
 62
     7
370
    15
100
AcDbLine
 10
145.5130394932
 20
138.495931995
 30
0.0
 11
145.5130394932
 21
138.3301901043
 31
0.0
  0
SPLINE
  5
233
330
1F
100
AcDbEntity
  8
0
  6
Continuous
 62
     7
370
    15
100
AcDbSpline
210
0.0
220
0.0
230
1.0
 70
     8
 71
     3
 72
    10
 73
     6
 74
     0
 42
0.00000001
 43
0.00000001
 40
0.0
 40
0.0
 40
0.0
 40
0.0
 40
0.2864505206640004
 40
0.5728996403176303
 40
1.0
 40
1.0
 40
1.0
 40
1.0
 10
144.8399857070205
 20
137.8941960976107
 30
0.0
 10
144.9042432430699
 20
137.9358386823896
 30
0.0
 10
145.0327580008895
 20
138.0191236482764
 30
0.0
 10
145.257107268314
 20
138.1644580693267
 30
0.0
 10
145.4172092554014
 20
138.2681340645551
 30
0.0
 10
145.5130394931791
 20
138.330190104304
 30
0.0
  0
SPLINE
  5
234
330
1F
100
AcDbEntity
  8
0
  6
Continuous
 62
     7
370
    15
100
AcDbSpline
210
0.0
220
0.0
230
1.0
 70
     8
 71
     3
 72
    14
 73
    10
 74
     0
 42
0.00000001
 43
0.00000001
 40
0.0
 40
0.0
 40
0.0
 40
0.0
 40
0.1609323570999498
 40
0.3218614188622408
 40
0.4829776575576373
 40
0.6443021840732238
 40
0.8056816905199957
 40
0.9669348912395277
 40
1.0
 40
1.0
 40
1.0
 40
1.0
 10
144.855831229305
 20
137.582328763662
 30
0.0
 10
144.8387174031542
 20
137.5933325061841
 30
0.0
 10
144.8044901012846
 20
137.6153397659096
 30
0.0
 10
144.7706567240023
 20
137.6675562977784
 30
0.0
 10
144.754985515759
 20
137.7269714059466
 30
0.0
 10
144.7601038159447
 20
137.7886170779451
 30
0.0
 10
144.7852934319097
 20
137.8448878383877
 30
0.0
 10
144.8164320565916
 20
137.8781920572745
 30
0.0
 10
144.8365606375095
 20
137.8918688595982
 30
0.0
 10
144.8399857070205
 20
137.8941960976107
 30
0.0
  0
LWPOLYLINE
  5
235
330
1F
100
AcDbEntity
  8
0
  6
Continuous
 62
     7
370
    15
100
AcDbPolyline
 90
        4
 70
   128
 43
0.0
 10
145.5130394932
 20
137.2459322557
 10
145.3061405953
 20
137.3518059373
 10
145.0809784617
 20
137.4670524493
 10
144.8558312293
 20
137.5823287637
  0
LINE
  5
236
330
1F
100
AcDbEntity
  8
0
  6
Continuous
 62
     7
370
    15
100
AcDbLine
 10
145.5130394932
 20
137.2459322557
 30
0.0
 11
145.5130394932
 21
137.0801903651
 31
0.0
  0
SPLINE
  5
237
330
1F
100
AcDbEntity
  8
0
  6
Continuous
 62
     7
370
    15
100
AcDbSpline
210
0.0
220
0.0
230
1.0
 70
     8
 71
     3
 72
    10
 73
     6
 74
     0
 42
0.00000001
 43
0.00000001
 40
0.0
 40
0.0
 40
0.0
 40
0.0
 40
0.2864503397918289
 40
0.5728999099997008
 40
1.0
 40
1.0
 40
1.0
 40
1.0
 10
144.8399857070205
 20
136.6441954270584
 30
0.0
 10
144.9042432878417
 20
136.6858379427256
 30
0.0
 10
145.0327582768481
 20
136.7691228621823
 30
0.0
 10
145.2571069044706
 20
136.9144585813019
 30
0.0
 10
145.4172091722139
 20
137.0181344537377
 30
0.0
 10
145.5130394931791
 20
137.0801903650743
 30
0.0
  0
SPLINE
  5
238
330
1F
100
AcDbEntity
  8
0
  6
Continuous
 62
     7
370
    15
100
AcDbSpline
210
0.0
220
0.0
230
1.0
 70
     8
 71
     3
 72
    14
 73
    10
 74
     0
 42
0.00000001
 43
0.00000001
 40
0.0
 40
0.0
 40
0.0
 40
0.0
 40
0.1609322428431803
 40
0.3218632480892398
 40
0.4829769733811269
 40
0.6443038558244282
 40
0.805683247696969
 40
0.9669363339319429
 40
1.0
 40
1.0
 40
1.0
 40
1.0
 10
144.855831229305
 20
136.3323280931098
 30
0.0
 10
144.8387173590803
 20
136.3433318081574
 30
0.0
 10
144.8044897502396
 20
136.365339153632
 30
0.0
 10
144.7706571702734
 20
136.417556183578
 30
0.0
 10
144.7549853785345
 20
136.4769712571733
 30
0.0
 10
144.7601036632481
 20
136.5386171675716
 30
0.0
 10
144.7852936899835
 20
136.5948877067664
 30
0.0
 10
144.8164312603014
 20
136.62819314869
 30
0.0
 10
144.8365606259765
 20
136.6418685160953
 30
0.0
 10
144.8399857070205
 20
136.6441954270584
 30
0.0
  0
LWPOLYLINE
  5
239
330
1F
100
AcDbEntity
  8
0
  6
Continuous
 62
     7
370
    15
100
AcDbPolyline
 90
        4
 70
   128
 43
0.0
 10
145.5130394932
 20
135.9959325165
 10
145.3061405953
 20
136.1018052668
 10
145.0809784617
 20
136.2170527101
 10
144.8558312293
 20
136.3323280931
  0
LINE
  5
23A
330
1F
100
AcDbEntity
  8
0
  6
Continuous
 62
     7
370
    15
100
AcDbLine
 10
145.5130394932
 20
135.9959325165
 30
0.0
 11
145.5130394932
 21
135.7344786049
 31
0.0
  0
LINE
  5
23B
330
1F
100
AcDbEntity
  8
0
  6
Continuous
 62
     7
370
    15
100
AcDbLine
 10
144.0409873065
 20
134.8344782711
 30
0.0
 11
144.0409873065
 21
131.3344786287
 31
0.0
  0
LINE
  5
23C
330
1F
100
AcDbEntity
  8
0
  6
Continuous
 62
     7
370
    15
100
AcDbLine
 10
144.0409873065
 20
134.8344782711
 30
0.0
 11
138.9850922312
 21
134.8344782711
 31
0.0
  0
LINE
  5
23D
330
1F
100
AcDbEntity
  8
0
  6
Continuous
 62
     7
370
    15
100
AcDbLine
 10
138.9850922312
 20
131.3344786287
 30
0.0
 11
138.9850922312
 21
134.8344782711
 31
0.0
  0
LINE
  5
23E
330
1F
100
AcDbEntity
  8
0
  6
Continuous
 62
     7
370
    15
100
AcDbLine
 10
137.5130400445
 20
135.7344786049
 30
0.0
 11
137.5130400445
 21
136.6209328518
 31
0.0
  0
SPLINE
  5
23F
330
1F
100
AcDbEntity
  8
0
  6
Continuous
 62
     7
370
    15
100
AcDbSpline
210
0.0
220
0.0
230
1.0
 70
     8
 71
     3
 72
    10
 73
     6
 74
     0
 42
0.00000001
 43
0.00000001
 40
0.0
 40
0.0
 40
0.0
 40
0.0
 40
0.3147972646538403
 40
0.6573982429153843
 40
1.0
 40
1.0
 40
1.0
 40
1.0
 10
138.1702483083961
 20
136.9573284283859
 30
0.0
 10
138.1012909234517
 20
136.9220197223457
 30
0.0
 10
137.9572856578774
 20
136.8482837534642
 30
0.0
 10
137.7382155662404
 20
136.7361531994747
 30
0.0
 10
137.5880986086374
 20
136.6593396634542
 30
0.0
 10
137.5130400445221
 20
136.6209328517897
 30
0.0
  0
SPLINE
  5
240
330
1F
100
AcDbEntity
  8
0
  6
Continuous
 62
     7
370
    15
100
AcDbSpline
210
0.0
220
0.0
230
1.0
 70
     8
 71
     3
 72
    14
 73
    10
 74
     0
 42
0.00000001
 43
0.00000001
 40
0.0
 40
0.0
 40
0.0
 40
0.0
 40
0.1610113180410095
 40
0.3220184700649525
 40
0.4832113804600457
 40
0.6445751435028
 40
0.8059327908989011
 40
0.9671183041559748
 40
1.0
 40
1.0
 40
1.0
 40
1.0
 10
138.1860938306806
 20
137.2691957623345
 30
0.0
 10
138.2020090790403
 20
137.2565039961128
 30
0.0
 10
138.2338391639674
 20
137.2311207920569
 30
0.0
 10
138.2622020664613
 20
137.1757085862069
 30
0.0
 10
138.2717620997425
 20
137.1149844003303
 30
0.0
 10
138.2603935382601
 20
137.0541666975504
 30
0.0
 10
138.2296061842933
 20
137.0007594999354
 30
0.0
 10
138.1952599837239
 20
136.9708272260726
 30
0.0
 10
138.173872147431
 20
136.9592842138078
 30
0.0
 10
138.1702483083961
 20
136.9573284283859
 30
0.0
  0
SPLINE
  5
241
330
1F
100
AcDbEntity
  8
0
  6
Continuous
 62
     7
370
    15
100
AcDbSpline
210
0.0
220
0.0
230
1.0
 70
     8
 71
     3
 72
    10
 73
     6
 74
     0
 42
0.00000001
 43
0.00000001
 40
0.0
 40
0.0
 40
0.0
 40
0.0
 40
0.2864504168747851
 40
0.5728997575639979
 40
1.0
 40
1.0
 40
1.0
 40
1.0
 10
137.5130400445221
 20
137.7051897690279
 30
0.0
 10
137.577312738772
 20
137.6635706350265
 30
0.0
 10
137.7058578858012
 20
137.5803325233856
 30
0.0
 10
137.9302157529932
 20
137.4350113786509
 30
0.0
 10
138.0902838927265
 20
137.3312830816339
 30
0.0
 10
138.1860938306806
 20
137.2691957623345
 30
0.0
  0
LINE
  5
242
330
1F
100
AcDbEntity
  8
0
  6
Continuous
 62
     7
370
    15
100
AcDbLine
 10
137.5130400445
 20
137.705189769
 30
0.0
 11
137.5130400445
 21
137.870932591
 31
0.0
  0
SPLINE
  5
243
330
1F
100
AcDbEntity
  8
0
  6
Continuous
 62
     7
370
    15
100
AcDbSpline
210
0.0
220
0.0
230
1.0
 70
     8
 71
     3
 72
    10
 73
     6
 74
     0
 42
0.00000001
 43
0.00000001
 40
0.0
 40
0.0
 40
0.0
 40
0.0
 40
0.3147972646538403
 40
0.6573982429153843
 40
1.0
 40
1.0
 40
1.0
 40
1.0
 10
138.1702483083961
 20
138.2073281676156
 30
0.0
 10
138.1012909234517
 20
138.1720194615753
 30
0.0
 10
137.9572856578774
 20
138.0982834926939
 30
0.0
 10
137.7382155662404
 20
137.9861529387044
 30
0.0
 10
137.5880986086374
 20
137.9093394026839
 30
0.0
 10
137.5130400445221
 20
137.8709325910193
 30
0.0
  0
SPLINE
  5
244
330
1F
100
AcDbEntity
  8
0
  6
Continuous
 62
     7
370
    15
100
AcDbSpline
210
0.0
220
0.0
230
1.0
 70
     8
 71
     3
 72
    14
 73
    10
 74
     0
 42
0.00000001
 43
0.00000001
 40
0.0
 40
0.0
 40
0.0
 40
0.0
 40
0.1610113844686072
 40
0.3220186029184292
 40
0.4832115798160387
 40
0.644575409431797
 40
0.8059331233983791
 40
0.9671170855181918
 40
1.0
 40
1.0
 40
1.0
 40
1.0
 10
138.1860938306806
 20
138.5191955015642
 30
0.0
 10
138.202009079767
 20
138.5065037342555
 30
0.0
 10
138.2338391661477
 20
138.4811205280255
 30
0.0
 10
138.2622020577365
 20
138.4257083384866
 30
0.0
 10
138.2717621325171
 20
138.3649840905373
 30
0.0
 10
138.2603934157638
 20
138.3041666200044
 30
0.0
 10
138.2296067441402
 20
138.2507587342451
 30
0.0
 10
138.1952590550686
 20
138.2208288225935
 30
0.0
 10
138.1738721330316
 20
138.2092842869888
 30
0.0
 10
138.1702483083961
 20
138.2073281676156
 30
0.0
  0
SPLINE
  5
245
330
1F
100
AcDbEntity
  8
0
  6
Continuous
 62
     7
370
    15
100
AcDbSpline
210
0.0
220
0.0
230
1.0
 70
     8
 71
     3
 72
    10
 73
     6
 74
     0
 42
0.00000001
 43
0.00000001
 40
0.0
 40
0.0
 40
0.0
 40
0.0
 40
0.2864508673085783
 40
0.5729000271743891
 40
0.9999999999999999
 40
0.9999999999999999
 40
0.9999999999999999
 40
0.9999999999999999
 10
137.5130400445221
 20
138.9551904395802
 30
0.0
 10
137.5773127014946
 20
138.9135709375732
 30
0.0
 10
137.7058576323308
 20
138.8303321816398
 30
0.0
 10
137.9302157974221
 20
138.685011186489
 30
0.0
 10
138.0902839093623
 20
138.581282846553
 30
0.0
 10
138.1860938306806
 20
138.5191955015642
 30
0.0
  0
LINE
  5
246
330
1F
100
AcDbEntity
  8
0
  6
Continuous
 62
     7
370
    15
100
AcDbLine
 10
137.5130400445
 20
138.9551904396
 30
0.0
 11
137.5130400445
 21
139.1209323302
 31
0.0
  0
SPLINE
  5
247
330
1F
100
AcDbEntity
  8
0
  6
Continuous
 62
     7
370
    15
100
AcDbSpline
210
0.0
220
0.0
230
1.0
 70
     8
 71
     3
 72
    10
 73
     6
 74
     0
 42
0.00000001
 43
0.00000001
 40
0.0
 40
0.0
 40
0.0
 40
0.0
 40
0.3147972646538403
 40
0.6573982429153843
 40
1.0
 40
1.0
 40
1.0
 40
1.0
 10
138.1702483083961
 20
139.4573279068453
 30
0.0
 10
138.1012909234517
 20
139.422019200805
 30
0.0
 10
137.9572856578774
 20
139.3482832319236
 30
0.0
 10
137.7382155662404
 20
139.2361526779341
 30
0.0
 10
137.5880986086374
 20
139.1593391419136
 30
0.0
 10
137.5130400445221
 20
139.120932330249
 30
0.0
  0
SPLINE
  5
248
330
1F
100
AcDbEntity
  8
0
  6
Continuous
 62
     7
370
    15
100
AcDbSpline
210
0.0
220
0.0
230
1.0
 70
     8
 71
     3
 72
    14
 73
    10
 74
     0
 42
0.00000001
 43
0.00000001
 40
0.0
 40
0.0
 40
0.0
 40
0.0
 40
0.161011102763826
 40
0.3220180395161558
 40
0.4832131844210599
 40
0.6445742948673452
 40
0.8059338753363543
 40
0.9671159378374387
 40
1.0
 40
1.0
 40
1.0
 40
1.0
 10
138.1860938306806
 20
139.7691961721165
 30
0.0
 10
138.2020090819427
 20
139.7565044027353
 30
0.0
 10
138.2338391726747
 20
139.7311211923607
 30
0.0
 10
138.2622021754251
 20
139.6757087529612
 30
0.0
 10
138.2717622315723
 20
139.6149843449307
 30
0.0
 10
138.2603929052113
 20
139.5541670371002
 30
0.0
 10
138.2296076428761
 20
139.5007580767742
 30
0.0
 10
138.1952581211723
 20
139.4708304218537
 30
0.0
 10
138.1738721178739
 20
139.45928436059
 30
0.0
 10
138.1702483083961
 20
139.4573279068453
 30
0.0
  0
SPLINE
  5
249
330
1F
100
AcDbEntity
  8
0
  6
Continuous
 62
     7
370
    15
100
AcDbSpline
210
0.0
220
0.0
230
1.0
 70
     8
 71
     3
 72
    10
 73
     6
 74
     0
 42
0.00000001
 43
0.00000001
 40
0.0
 40
0.0
 40
0.0
 40
0.0
 40
0.2864499664427902
 40
0.572899487954683
 40
0.9999999999999999
 40
0.9999999999999999
 40
0.9999999999999999
 40
0.9999999999999999
 10
137.5130400445221
 20
140.2051892474873
 30
0.0
 10
137.577312776049
 20
140.1635704814915
 30
0.0
 10
137.7058581392708
 20
140.0803330141446
 30
0.0
 10
137.9302157085643
 20
139.9350117198239
 30
0.0
 10
138.0902838760908
 20
139.8312834657262
 30
0.0
 10
138.1860938306806
 20
139.7691961721165
 30
0.0
  0
LINE
  5
24A
330
1F
100
AcDbEntity
  8
0
  6
Continuous
 62
     7
370
    15
100
AcDbLine
 10
137.5130400445
 20
140.2051892475
 30
0.0
 11
137.5130400445
 21
140.3709330008
 31
0.0
  0
SPLINE
  5
24B
330
1F
100
AcDbEntity
  8
0
  6
Continuous
 62
     7
370
    15
100
AcDbSpline
210
0.0
220
0.0
230
1.0
 70
     8
 71
     3
 72
    10
 73
     6
 74
     0
 42
0.00000001
 43
0.00000001
 40
0.0
 40
0.0
 40
0.0
 40
0.0
 40
0.3147972646538403
 40
0.6573982429153843
 40
1.0
 40
1.0
 40
1.0
 40
1.0
 10
138.1702483083961
 20
140.7073285773975
 30
0.0
 10
138.1012909234517
 20
140.6720198713573
 30
0.0
 10
137.9572856578774
 20
140.5982839024758
 30
0.0
 10
137.7382155662404
 20
140.4861533484863
 30
0.0
 10
137.5880986086374
 20
140.4093398124659
 30
0.0
 10
137.5130400445221
 20
140.3709330008013
 30
0.0
  0
SPLINE
  5
24C
330
1F
100
AcDbEntity
  8
0
  6
Continuous
 62
     7
370
    15
100
AcDbSpline
210
0.0
220
0.0
230
1.0
 70
     8
 71
     3
 72
    14
 73
    10
 74
     0
 42
0.00000001
 43
0.00000001
 40
0.0
 40
0.0
 40
0.0
 40
0.0
 40
0.1610115816243176
 40
0.3220146220928353
 40
0.4832102464055877
 40
0.6445767104652033
 40
0.8059324732015019
 40
0.9671182503270496
 40
1.0
 40
1.0
 40
1.0
 40
1.0
 10
138.1860938306806
 20
141.0191949800236
 30
0.0
 10
138.2020090037998
 20
141.0065031810477
 30
0.0
 10
138.2338385057883
 20
140.9811202563558
 30
0.0
 10
138.2622026878514
 20
140.9257089980985
 30
0.0
 10
138.2717618906283
 20
140.864984535469
 30
0.0
 10
138.2603939956731
 20
140.8041663695139
 30
0.0
 10
138.2296058260956
 20
140.7507595358511
 30
0.0
 10
138.1952599897068
 20
140.7208273723871
 30
0.0
 10
138.1738721482979
 20
140.7092843624286
 30
0.0
 10
138.1702483083961
 20
140.7073285773975
 30
0.0
  0
SPLINE
  5
24D
330
1F
100
AcDbEntity
  8
0
  6
Continuous
 62
     7
370
    15
100
AcDbSpline
210
0.0
220
0.0
230
1.0
 70
     8
 71
     3
 72
    10
 73
     6
 74
     0
 42
0.00000001
 43
0.00000001
 40
0.0
 40
0.0
 40
0.0
 40
0.0
 40
0.2864496047308456
 40
0.5729000272717535
 40
1.0
 40
1.0
 40
1.0
 40
1.0
 10
137.5130400445221
 20
141.4551899180395
 30
0.0
 10
137.5773128655813
 20
141.4135712902672
 30
0.0
 10
137.705858691198
 20
141.3303339159019
 30
0.0
 10
137.930214980959
 20
141.1850100253073
 30
0.0
 10
138.0902837097145
 20
141.0812820167752
 30
0.0
 10
138.1860938306806
 20
141.0191949800236
 30
0.0
  0
LINE
  5
24E
330
1F
100
AcDbEntity
  8
0
  6
Continuous
 62
     7
370
    15
100
AcDbLine
 10
137.5130400445
 20
141.455189918
 30
0.0
 11
137.5130400445
 21
141.6209318087
 31
0.0
  0
SPLINE
  5
24F
330
1F
100
AcDbEntity
  8
0
  6
Continuous
 62
     7
370
    15
100
AcDbSpline
210
0.0
220
0.0
230
1.0
 70
     8
 71
     3
 72
    10
 73
     6
 74
     0
 42
0.00000001
 43
0.00000001
 40
0.0
 40
0.0
 40
0.0
 40
0.0
 40
0.3147969028635977
 40
0.6573974873806435
 40
1.0
 40
1.0
 40
1.0
 40
1.0
 10
138.1702483083961
 20
141.9573292479498
 30
0.0
 10
138.1012909382648
 20
141.9220205129618
 30
0.0
 10
137.9572857036252
 20
141.8482844836283
 30
0.0
 10
137.7382151124654
 20
141.7361542849184
 30
0.0
 10
137.5880985413082
 20
141.6593393728286
 30
0.0
 10
137.5130400445221
 20
141.6209318087084
 30
0.0
  0
SPLINE
  5
250
330
1F
100
AcDbEntity
  8
0
  6
Continuous
 62
     7
370
    15
100
AcDbSpline
210
0.0
220
0.0
230
1.0
 70
     8
 71
     3
 72
    14
 73
    10
 74
     0
 42
0.00000001
 43
0.00000001
 40
0.0
 40
0.0
 40
0.0
 40
0.0
 40
0.1610116661459998
 40
0.3220191662659264
 40
0.4832099751211317
 40
0.6445765238887221
 40
0.8059323713273779
 40
0.9671182330660504
 40
1.0
 40
1.0
 40
1.0
 40
1.0
 10
138.1860938306806
 20
142.2691956505758
 30
0.0
 10
138.2020090775915
 20
142.2565038853395
 30
0.0
 10
138.2338391596211
 20
142.2311206832545
 30
0.0
 10
138.2622019400458
 20
142.1757087435749
 30
0.0
 10
138.271762033471
 20
142.11498465571
 30
0.0
 10
138.2603939263212
 20
142.0541670224497
 30
0.0
 10
138.2296058454195
 20
142.0007602113119
 30
0.0
 10
138.1952599889389
 20
141.9708280427443
 30
0.0
 10
138.1738721481866
 20
141.9592850329526
 30
0.0
 10
138.1702483083961
 20
141.9573292479498
 30
0.0
  0
SPLINE
  5
251
330
1F
100
AcDbEntity
  8
0
  6
Continuous
 62
     7
370
    15
100
AcDbSpline
210
0.0
220
0.0
230
1.0
 70
     8
 71
     3
 72
    10
 73
     6
 74
     0
 42
0.00000001
 43
0.00000001
 40
0.0
 40
0.0
 40
0.0
 40
0.0
 40
0.2864508673085783
 40
0.5729000271743891
 40
0.9999999999999999
 40
0.9999999999999999
 40
0.9999999999999999
 40
0.9999999999999999
 10
137.5130400445221
 20
142.7051905885918
 30
0.0
 10
137.5773127014946
 20
142.6635710865848
 30
0.0
 10
137.7058576323308
 20
142.5803323306514
 30
0.0
 10
137.9302157974221
 20
142.4350113355006
 30
0.0
 10
138.0902839093623
 20
142.3312829955646
 30
0.0
 10
138.1860938306806
 20
142.2691956505758
 30
0.0
  0
LINE
  5
252
330
1F
100
AcDbEntity
  8
0
  6
Continuous
 62
     7
370
    15
100
AcDbLine
 10
137.5130400445
 20
142.7051905886
 30
0.0
 11
137.5130400445
 21
142.8709324793
 31
0.0
  0
SPLINE
  5
253
330
1F
100
AcDbEntity
  8
0
  6
Continuous
 62
     7
370
    15
100
AcDbSpline
210
0.0
220
0.0
230
1.0
 70
     8
 71
     3
 72
    10
 73
     6
 74
     0
 42
0.00000001
 43
0.00000001
 40
0.0
 40
0.0
 40
0.0
 40
0.0
 40
0.3147972646538403
 40
0.6573982429153843
 40
1.0
 40
1.0
 40
1.0
 40
1.0
 10
138.1702483083961
 20
143.2073280558569
 30
0.0
 10
138.1012909234517
 20
143.1720193498166
 30
0.0
 10
137.9572856578774
 20
143.0982833809352
 30
0.0
 10
137.7382155662404
 20
142.9861528269457
 30
0.0
 10
137.5880986086374
 20
142.9093392909252
 30
0.0
 10
137.5130400445221
 20
142.8709324792606
 30
0.0
  0
SPLINE
  5
254
330
1F
100
AcDbEntity
  8
0
  6
Continuous
 62
     7
370
    15
100
AcDbSpline
210
0.0
220
0.0
230
1.0
 70
     8
 71
     3
 72
    14
 73
    10
 74
     0
 42
0.00000001
 43
0.00000001
 40
0.0
 40
0.0
 40
0.0
 40
0.0
 40
0.1610144909830067
 40
0.3220170836922402
 40
0.4832122597101211
 40
0.6445734013014167
 40
0.805933012915141
 40
0.9671183417732028
 40
1.0
 40
1.0
 40
1.0
 40
1.0
 10
138.1860938306806
 20
143.5191963211281
 30
0.0
 10
138.2020089600508
 20
143.5065038387822
 30
0.0
 10
138.233838042732
 20
143.48111981201
 30
0.0
 10
138.2622026891192
 20
143.4257085789947
 30
0.0
 10
138.2717620560246
 20
143.364984524193
 30
0.0
 10
138.2603931797787
 20
143.3041668379063
 30
0.0
 10
138.229606514926
 20
143.2507592305186
 30
0.0
 10
138.1952599788365
 20
143.2208268566374
 30
0.0
 10
138.1738721467229
 20
143.209283841727
 30
0.0
 10
138.1702483083961
 20
143.2073280558569
 30
0.0
  0
SPLINE
  5
255
330
1F
100
AcDbEntity
  8
0
  6
Continuous
 62
     7
370
    15
100
AcDbSpline
210
0.0
220
0.0
230
1.0
 70
     8
 71
     3
 72
    10
 73
     6
 74
     0
 42
0.00000001
 43
0.00000001
 40
0.0
 40
0.0
 40
0.0
 40
0.0
 40
0.2864499664427902
 40
0.572899487954683
 40
0.9999999999999999
 40
0.9999999999999999
 40
0.9999999999999999
 40
0.9999999999999999
 10
137.5130400445221
 20
143.9551893964989
 30
0.0
 10
137.577312776049
 20
143.9135706305031
 30
0.0
 10
137.7058581392708
 20
143.8303331631562
 30
0.0
 10
137.9302157085643
 20
143.6850118688355
 30
0.0
 10
138.0902838760908
 20
143.5812836147378
 30
0.0
 10
138.1860938306806
 20
143.5191963211281
 30
0.0
  0
LINE
  5
256
330
1F
100
AcDbEntity
  8
0
  6
Continuous
 62
     7
370
    15
100
AcDbLine
 10
137.5130400445
 20
143.9551893965
 30
0.0
 11
137.5130400445
 21
144.1209331498
 31
0.0
  0
SPLINE
  5
257
330
1F
100
AcDbEntity
  8
0
  6
Continuous
 62
     7
370
    15
100
AcDbSpline
210
0.0
220
0.0
230
1.0
 70
     8
 71
     3
 72
    10
 73
     6
 74
     0
 42
0.00000001
 43
0.00000001
 40
0.0
 40
0.0
 40
0.0
 40
0.0
 40
0.3147972646538403
 40
0.6573982429153843
 40
1.0
 40
1.0
 40
1.0
 40
1.0
 10
138.1702483083961
 20
144.4573287264091
 30
0.0
 10
138.1012909234517
 20
144.4220200203689
 30
0.0
 10
137.9572856578774
 20
144.3482840514874
 30
0.0
 10
137.7382155662404
 20
144.2361534974979
 30
0.0
 10
137.5880986086374
 20
144.1593399614775
 30
0.0
 10
137.5130400445221
 20
144.1209331498129
 30
0.0
  0
SPLINE
  5
258
330
1F
100
AcDbEntity
  8
0
  6
Continuous
 62
     7
370
    15
100
AcDbSpline
210
0.0
220
0.0
230
1.0
 70
     8
 71
     3
 72
    14
 73
    10
 74
     0
 42
0.00000001
 43
0.00000001
 40
0.0
 40
0.0
 40
0.0
 40
0.0
 40
0.1610116661459998
 40
0.3220191662659264
 40
0.4832099751211317
 40
0.6445765238887221
 40
0.8059323713273779
 40
0.9671182330660504
 40
1.0
 40
1.0
 40
1.0
 40
1.0
 10
138.1860938306806
 20
144.7691951290352
 30
0.0
 10
138.2020090775915
 20
144.7565033637989
 30
0.0
 10
138.2338391596211
 20
144.7311201617138
 30
0.0
 10
138.2622019400458
 20
144.6757082220343
 30
0.0
 10
138.271762033471
 20
144.6149841341694
 30
0.0
 10
138.2603939263212
 20
144.5541665009091
 30
0.0
 10
138.2296058454195
 20
144.5007596897713
 30
0.0
 10
138.1952599889389
 20
144.4708275212036
 30
0.0
 10
138.1738721481866
 20
144.4592845114119
 30
0.0
 10
138.1702483083961
 20
144.4573287264091
 30
0.0
  0
SPLINE
  5
259
330
1F
100
AcDbEntity
  8
0
  6
Continuous
 62
     7
370
    15
100
AcDbSpline
210
0.0
220
0.0
230
1.0
 70
     8
 71
     3
 72
    10
 73
     6
 74
     0
 42
0.00000001
 43
0.00000001
 40
0.0
 40
0.0
 40
0.0
 40
0.0
 40
0.2864508673085783
 40
0.5729000271743891
 40
0.9999999999999999
 40
0.9999999999999999
 40
0.9999999999999999
 40
0.9999999999999999
 10
137.5130400445221
 20
145.2051900670511
 30
0.0
 10
137.5773127014946
 20
145.1635705650442
 30
0.0
 10
137.7058576323308
 20
145.0803318091108
 30
0.0
 10
137.9302157974221
 20
144.9350108139599
 30
0.0
 10
138.0902839093623
 20
144.831282474024
 30
0.0
 10
138.1860938306806
 20
144.7691951290352
 30
0.0
  0
LINE
  5
25A
330
1F
100
AcDbEntity
  8
0
  6
Continuous
 62
     7
370
    15
100
AcDbLine
 10
137.5130400445
 20
145.2051900671
 30
0.0
 11
137.5130400445
 21
145.3709319577
 31
0.0
  0
LWPOLYLINE
  5
25B
330
1F
100
AcDbEntity
  8
0
  6
Continuous
 62
     7
370
    15
100
AcDbPolyline
 90
        4
 70
   128
 43
0.0
 10
138.1702483084
 20
145.7073275343
 10
137.9633736249
 20
145.6014082179
 10
137.738213354
 20
145.4861570493
 10
137.5130400445
 20
145.3709319577
  0
SPLINE
  5
25C
330
1F
100
AcDbEntity
  8
0
  6
Continuous
 62
     7
370
    15
100
AcDbSpline
210
0.0
220
0.0
230
1.0
 70
     8
 71
     3
 72
    14
 73
    10
 74
     0
 42
0.00000001
 43
0.00000001
 40
0.0
 40
0.0
 40
0.0
 40
0.0
 40
0.161011102763826
 40
0.3220180395161558
 40
0.4832131844210599
 40
0.6445742948673452
 40
0.8059338753363543
 40
0.9671159378374387
 40
1.0
 40
1.0
 40
1.0
 40
1.0
 10
138.1860938306806
 20
146.0191957995874
 30
0.0
 10
138.2020090819427
 20
146.0065040302063
 30
0.0
 10
138.2338391726747
 20
145.9811208198317
 30
0.0
 10
138.2622021754251
 20
145.9257083804321
 30
0.0
 10
138.2717622315723
 20
145.8649839724017
 30
0.0
 10
138.2603929052113
 20
145.8041666645711
 30
0.0
 10
138.2296076428761
 20
145.7507577042451
 30
0.0
 10
138.1952581211723
 20
145.7208300493247
 30
0.0
 10
138.1738721178739
 20
145.709283988061
 30
0.0
 10
138.1702483083961
 20
145.7073275343162
 30
0.0
  0
SPLINE
  5
25D
330
1F
100
AcDbEntity
  8
0
  6
Continuous
 62
     7
370
    15
100
AcDbSpline
210
0.0
220
0.0
230
1.0
 70
     8
 71
     3
 72
    10
 73
     6
 74
     0
 42
0.00000001
 43
0.00000001
 40
0.0
 40
0.0
 40
0.0
 40
0.0
 40
0.2864508673085783
 40
0.5729000271743891
 40
0.9999999999999999
 40
0.9999999999999999
 40
0.9999999999999999
 40
0.9999999999999999
 10
137.5130400445221
 20
146.4551907376034
 30
0.0
 10
137.5773127014946
 20
146.4135712355964
 30
0.0
 10
137.7058576323308
 20
146.330332479663
 30
0.0
 10
137.9302157974221
 20
146.1850114845122
 30
0.0
 10
138.0902839093623
 20
146.0812831445762
 30
0.0
 10
138.1860938306806
 20
146.0191957995874
 30
0.0
  0
LINE
  5
25E
330
1F
100
AcDbEntity
  8
0
  6
Continuous
 62
     7
370
    15
100
AcDbLine
 10
137.5130400445
 20
146.4551907376
 30
0.0
 11
137.5130400445
 21
146.6209326283
 31
0.0
  0
SPLINE
  5
25F
330
1F
100
AcDbEntity
  8
0
  6
Continuous
 62
     7
370
    15
100
AcDbSpline
210
0.0
220
0.0
230
1.0
 70
     8
 71
     3
 72
    10
 73
     6
 74
     0
 42
0.00000001
 43
0.00000001
 40
0.0
 40
0.0
 40
0.0
 40
0.0
 40
0.3147972646538403
 40
0.6573982429153843
 40
1.0
 40
1.0
 40
1.0
 40
1.0
 10
138.1702483083961
 20
146.9573282048685
 30
0.0
 10
138.1012909234517
 20
146.9220194988282
 30
0.0
 10
137.9572856578774
 20
146.8482835299468
 30
0.0
 10
137.7382155662404
 20
146.7361529759573
 30
0.0
 10
137.5880986086374
 20
146.6593394399368
 30
0.0
 10
137.5130400445221
 20
146.6209326282722
 30
0.0
  0
SPLINE
  5
260
330
1F
100
AcDbEntity
  8
0
  6
Continuous
 62
     7
370
    15
100
AcDbSpline
210
0.0
220
0.0
230
1.0
 70
     8
 71
     3
 72
    14
 73
    10
 74
     0
 42
0.00000001
 43
0.00000001
 40
0.0
 40
0.0
 40
0.0
 40
0.0
 40
0.1610144909830067
 40
0.3220170836922402
 40
0.4832122597101211
 40
0.6445734013014167
 40
0.805933012915141
 40
0.9671183417732028
 40
1.0
 40
1.0
 40
1.0
 40
1.0
 10
138.1860938306806
 20
147.2691964701397
 30
0.0
 10
138.2020089600508
 20
147.2565039877938
 30
0.0
 10
138.233838042732
 20
147.2311199610216
 30
0.0
 10
138.2622026891192
 20
147.1757087280064
 30
0.0
 10
138.2717620560246
 20
147.1149846732046
 30
0.0
 10
138.2603931797787
 20
147.0541669869179
 30
0.0
 10
138.229606514926
 20
147.0007593795303
 30
0.0
 10
138.1952599788365
 20
146.970827005649
 30
0.0
 10
138.1738721467229
 20
146.9592839907386
 30
0.0
 10
138.1702483083961
 20
146.9573282048685
 30
0.0
  0
SPLINE
  5
261
330
1F
100
AcDbEntity
  8
0
  6
Continuous
 62
     7
370
    15
100
AcDbSpline
210
0.0
220
0.0
230
1.0
 70
     8
 71
     3
 72
    10
 73
     6
 74
     0
 42
0.00000001
 43
0.00000001
 40
0.0
 40
0.0
 40
0.0
 40
0.0
 40
0.2864499664427902
 40
0.572899487954683
 40
0.9999999999999999
 40
0.9999999999999999
 40
0.9999999999999999
 40
0.9999999999999999
 10
137.5130400445221
 20
147.7051895455105
 30
0.0
 10
137.577312776049
 20
147.6635707795147
 30
0.0
 10
137.7058581392708
 20
147.5803333121679
 30
0.0
 10
137.9302157085643
 20
147.4350120178472
 30
0.0
 10
138.0902838760908
 20
147.3312837637494
 30
0.0
 10
138.1860938306806
 20
147.2691964701397
 30
0.0
  0
LINE
  5
262
330
1F
100
AcDbEntity
  8
0
  6
Continuous
 62
     7
370
    15
100
AcDbLine
 10
137.5130400445
 20
147.7051895455
 30
0.0
 11
137.5130400445
 21
147.8709332988
 31
0.0
  0
SPLINE
  5
263
330
1F
100
AcDbEntity
  8
0
  6
Continuous
 62
     7
370
    15
100
AcDbSpline
210
0.0
220
0.0
230
1.0
 70
     8
 71
     3
 72
    10
 73
     6
 74
     0
 42
0.00000001
 43
0.00000001
 40
0.0
 40
0.0
 40
0.0
 40
0.0
 40
0.3147972646538403
 40
0.6573982429153843
 40
1.0
 40
1.0
 40
1.0
 40
1.0
 10
138.1702483083961
 20
148.2073288754208
 30
0.0
 10
138.1012909234517
 20
148.1720201693805
 30
0.0
 10
137.9572856578774
 20
148.0982842004991
 30
0.0
 10
137.7382155662404
 20
147.9861536465095
 30
0.0
 10
137.5880986086374
 20
147.9093401104891
 30
0.0
 10
137.5130400445221
 20
147.8709332988245
 30
0.0
  0
SPLINE
  5
264
330
1F
100
AcDbEntity
  8
0
  6
Continuous
 62
     7
370
    15
100
AcDbSpline
210
0.0
220
0.0
230
1.0
 70
     8
 71
     3
 72
    14
 73
    10
 74
     0
 42
0.00000001
 43
0.00000001
 40
0.0
 40
0.0
 40
0.0
 40
0.0
 40
0.1610116661459998
 40
0.3220191662659264
 40
0.4832099751211317
 40
0.6445765238887221
 40
0.8059323713273779
 40
0.9671182330660504
 40
1.0
 40
1.0
 40
1.0
 40
1.0
 10
138.1860938306806
 20
148.5191952780468
 30
0.0
 10
138.2020090775915
 20
148.5065035128105
 30
0.0
 10
138.2338391596211
 20
148.4811203107254
 30
0.0
 10
138.2622019400458
 20
148.4257083710459
 30
0.0
 10
138.271762033471
 20
148.364984283181
 30
0.0
 10
138.2603939263212
 20
148.3041666499207
 30
0.0
 10
138.2296058454195
 20
148.2507598387829
 30
0.0
 10
138.1952599889389
 20
148.2208276702153
 30
0.0
 10
138.1738721481866
 20
148.2092846604235
 30
0.0
 10
138.1702483083961
 20
148.2073288754208
 30
0.0
  0
SPLINE
  5
265
330
1F
100
AcDbEntity
  8
0
  6
Continuous
 62
     7
370
    15
100
AcDbSpline
210
0.0
220
0.0
230
1.0
 70
     8
 71
     3
 72
    10
 73
     6
 74
     0
 42
0.00000001
 43
0.00000001
 40
0.0
 40
0.0
 40
0.0
 40
0.0
 40
0.2864508673085783
 40
0.5729000271743891
 40
0.9999999999999999
 40
0.9999999999999999
 40
0.9999999999999999
 40
0.9999999999999999
 10
137.5130400445221
 20
148.9551902160627
 30
0.0
 10
137.5773127014946
 20
148.9135707140558
 30
0.0
 10
137.7058576323308
 20
148.8303319581224
 30
0.0
 10
137.9302157974221
 20
148.6850109629715
 30
0.0
 10
138.0902839093623
 20
148.5812826230356
 30
0.0
 10
138.1860938306806
 20
148.5191952780468
 30
0.0
  0
LINE
  5
266
330
1F
100
AcDbEntity
  8
0
  6
Continuous
 62
     7
370
    15
100
AcDbLine
 10
137.5130400445
 20
148.9551902161
 30
0.0
 11
137.5130400445
 21
149.1209321067
 31
0.0
  0
SPLINE
  5
267
330
1F
100
AcDbEntity
  8
0
  6
Continuous
 62
     7
370
    15
100
AcDbSpline
210
0.0
220
0.0
230
1.0
 70
     8
 71
     3
 72
    10
 73
     6
 74
     0
 42
0.00000001
 43
0.00000001
 40
0.0
 40
0.0
 40
0.0
 40
0.0
 40
0.3147972646538403
 40
0.6573982429153843
 40
1.0
 40
1.0
 40
1.0
 40
1.0
 10
138.1702483083961
 20
149.4573276833279
 30
0.0
 10
138.1012909234517
 20
149.4220189772876
 30
0.0
 10
137.9572856578774
 20
149.3482830084062
 30
0.0
 10
137.7382155662404
 20
149.2361524544166
 30
0.0
 10
137.5880986086374
 20
149.1593389183962
 30
0.0
 10
137.5130400445221
 20
149.1209321067316
 30
0.0
  0
SPLINE
  5
268
330
1F
100
AcDbEntity
  8
0
  6
Continuous
 62
     7
370
    15
100
AcDbSpline
210
0.0
220
0.0
230
1.0
 70
     8
 71
     3
 72
    14
 73
    10
 74
     0
 42
0.00000001
 43
0.00000001
 40
0.0
 40
0.0
 40
0.0
 40
0.0
 40
0.161011102763826
 40
0.3220180395161558
 40
0.4832131844210599
 40
0.6445742948673452
 40
0.8059338753363543
 40
0.9671159378374387
 40
1.0
 40
1.0
 40
1.0
 40
1.0
 10
138.1860938306806
 20
149.769195948599
 30
0.0
 10
138.2020090819427
 20
149.7565041792179
 30
0.0
 10
138.2338391726747
 20
149.7311209688433
 30
0.0
 10
138.2622021754251
 20
149.6757085294437
 30
0.0
 10
138.2717622315723
 20
149.6149841214133
 30
0.0
 10
138.2603929052113
 20
149.5541668135828
 30
0.0
 10
138.2296076428761
 20
149.5007578532567
 30
0.0
 10
138.1952581211723
 20
149.4708301983363
 30
0.0
 10
138.1738721178739
 20
149.4592841370726
 30
0.0
 10
138.1702483083961
 20
149.4573276833279
 30
0.0
  0
SPLINE
  5
269
330
1F
100
AcDbEntity
  8
0
  6
Continuous
 62
     7
370
    15
100
AcDbSpline
210
0.0
220
0.0
230
1.0
 70
     8
 71
     3
 72
    10
 73
     6
 74
     0
 42
0.00000001
 43
0.00000001
 40
0.0
 40
0.0
 40
0.0
 40
0.0
 40
0.1992962418359752
 40
0.5207329983524612
 40
1.0
 40
1.0
 40
1.0
 40
1.0
 10
137.5863090541122
 20
150.1577474520189
 30
0.0
 10
137.6261581535895
 20
150.1319415722485
 30
0.0
 10
137.7302782356407
 20
150.0645144445508
 30
0.0
 10
137.9302159044985
 20
149.935011798857
 30
0.0
 10
138.0902839494555
 20
149.8312833554945
 30
0.0
 10
138.1860938306806
 20
149.769195948599
 30
0.0
  0
LINE
  5
26A
330
1F
100
AcDbEntity
  8
0
  6
Continuous
 62
     7
370
    15
100
AcDbLine
 10
137.5863090541
 20
150.157747452
 30
0.0
 11
138.0998328712
 21
150.6712712691
 31
0.0
  0
LINE
  5
26B
330
1F
100
AcDbEntity
  8
0
  6
Continuous
 62
     7
370
    15
100
AcDbLine
 10
138.1702483084
 20
150.7073283539
 30
0.0
 11
138.0998328712
 21
150.6712712691
 31
0.0
  0
SPLINE
  5
26C
330
1F
100
AcDbEntity
  8
0
  6
Continuous
 62
     7
370
    15
100
AcDbSpline
210
0.0
220
0.0
230
1.0
 70
     8
 71
     3
 72
    11
 73
     7
 74
     0
 42
0.00000001
 43
0.00000001
 40
0.0
 40
0.0
 40
0.0
 40
0.0
 40
0.1972770233645343
 40
0.5617040758630892
 40
0.9257375146790613
 40
1.0
 40
1.0
 40
1.0
 40
1.0
 10
138.2656585808752
 20
150.837098841427
 30
0.0
 10
138.2632057434485
 20
150.8264097462275
 30
0.0
 10
138.2562218141673
 20
150.7959748367865
 30
0.0
 10
138.2294203973009
 20
150.7507677758118
 30
0.0
 10
138.1952673752112
 20
150.7208268269115
 30
0.0
 10
138.1738732183534
 20
150.709284092264
 30
0.0
 10
138.1702483083961
 20
150.7073283538801
 30
0.0
  0
LINE
  5
26D
330
1F
100
AcDbEntity
  8
0
  6
Continuous
 62
     7
370
    15
100
AcDbLine
 10
138.2656585809
 20
150.8370988414
 30
0.0
 11
138.7630388524
 21
151.334479113
 31
0.0
  0
LINE
  5
26E
330
1F
100
AcDbEntity
  8
0
  6
Continuous
 62
     7
370
    15
100
AcDbLine
 10
138.7630388524
 20
151.334479113
 30
0.0
 11
144.2630388226
 21
151.334479113
 31
0.0
  0
LINE
  5
26F
330
1F
100
AcDbEntity
  8
0
  6
Continuous
 62
     7
370
    15
100
AcDbLine
 10
144.2630388226
 20
151.334479113
 30
0.0
 11
145.0604577001
 21
150.5370602355
 31
0.0
  0
LWPOLYLINE
  5
270
330
1F
100
AcDbEntity
  8
0
  6
Continuous
 62
     7
370
    15
100
AcDbPolyline
 90
        3
 70
   128
 43
0.0
 10
144.839985707
 20
150.3941953526
 10
145.0327620294
 20
150.5191173748
 10
145.0604577001
 20
150.5370602355
  0
SPLINE
  5
271
330
1F
100
AcDbEntity
  8
0
  6
Continuous
 62
     7
370
    15
100
AcDbSpline
210
0.0
220
0.0
230
1.0
 70
     8
 71
     3
 72
    14
 73
    10
 74
     0
 42
0.00000001
 43
0.00000001
 40
0.0
 40
0.0
 40
0.0
 40
0.0
 40
0.1609309538117201
 40
0.3218600967964909
 40
0.4829788158303591
 40
0.6443034237680201
 40
0.8056830116646155
 40
0.9669362937702233
 40
0.9999999999999999
 40
0.9999999999999999
 40
0.9999999999999999
 40
0.9999999999999999
 10
144.855831229305
 20
150.0823289499266
 30
0.0
 10
144.8387173812728
 20
150.0933323434304
 30
0.0
 10
144.8044898777766
 20
150.1153390066257
 30
0.0
 10
144.770656533521
 20
150.1675558547605
 30
0.0
 10
144.754985615197
 20
150.2269712727076
 30
0.0
 10
144.7601037148219
 20
150.2886173646839
 30
0.0
 10
144.7852937114501
 20
150.344887636616
 30
0.0
 10
144.8164312594434
 20
150.3781930740101
 30
0.0
 10
144.8365606258518
 20
150.3918684415642
 30
0.0
 10
144.8399857070205
 20
150.3941953525526
 30
0.0
  0
LWPOLYLINE
  5
272
330
1F
100
AcDbEntity
  8
0
  6
Continuous
 62
     7
370
    15
100
AcDbPolyline
 90
        4
 70
   128
 43
0.0
 10
145.5130394932
 20
149.7459315107
 10
145.3061405953
 20
149.8518061236
 10
145.0809784617
 20
149.9670535669
 10
144.8558312293
 20
150.0823289499
  0
LINE
  5
273
330
1F
100
AcDbEntity
  8
0
  6
Continuous
 62
     7
370
    15
100
AcDbLine
 10
145.5130394932
 20
149.7459315107
 30
0.0
 11
145.5130394932
 21
149.58018962
 31
0.0
  0
SPLINE
  5
274
330
1F
100
AcDbEntity
  8
0
  6
Continuous
 62
     7
370
    15
100
AcDbSpline
210
0.0
220
0.0
230
1.0
 70
     8
 71
     3
 72
    10
 73
     6
 74
     0
 42
0.00000001
 43
0.00000001
 40
0.0
 40
0.0
 40
0.0
 40
0.0
 40
0.2864507014955565
 40
0.5729000019798581
 40
1.0
 40
1.0
 40
1.0
 40
1.0
 10
144.8399857070205
 20
149.1441965446455
 30
0.0
 10
144.904243248089
 20
149.1858391216743
 30
0.0
 10
145.0327580159466
 20
149.2691240720609
 30
0.0
 10
145.257107054136
 20
149.4144585366418
 30
0.0
 10
145.4172092107762
 20
149.5181339596159
 30
0.0
 10
145.5130394931791
 20
149.5801896200163
 30
0.0
  0
SPLINE
  5
275
330
1F
100
AcDbEntity
  8
0
  6
Continuous
 62
     7
370
    15
100
AcDbSpline
210
0.0
220
0.0
230
1.0
 70
     8
 71
     3
 72
    14
 73
    10
 74
     0
 42
0.00000001
 43
0.00000001
 40
0.0
 40
0.0
 40
0.0
 40
0.0
 40
0.1609337603868176
 40
0.3218627409022773
 40
0.4829764992396621
 40
0.6443009443087625
 40
0.805680369281291
 40
0.9669334885903464
 40
1.0
 40
1.0
 40
1.0
 40
1.0
 10
144.855831229305
 20
148.8323282793743
 30
0.0
 10
144.8387174250362
 20
148.8433323709141
 30
0.0
 10
144.8044903247931
 20
148.8653402271628
 30
0.0
 10
144.7706569144869
 20
148.9175564427786
 30
0.0
 10
144.7549854163194
 20
148.9769712411556
 30
0.0
 10
144.7601039170678
 20
149.0386164931981
 30
0.0
 10
144.7852931523725
 20
149.094887742081
 30
0.0
 10
144.8164328537498
 20
149.1281907426527
 30
0.0
 10
144.8365606491691
 20
149.141868979609
 30
0.0
 10
144.8399857070205
 20
149.1441965446455
 30
0.0
  0
LINE
  5
276
330
1F
100
AcDbEntity
  8
0
  6
Continuous
 62
     7
370
    15
100
AcDbLine
 10
138.9850922312
 20
131.3344786287
 30
0.0
 11
133.5130412515
 21
131.3344786287
 31
0.0
  0
LINE
  5
277
330
1F
100
AcDbEntity
  8
0
  6
Continuous
 62
     7
370
    15
100
AcDbLine
 10
149.5130401488
 20
131.3344786287
 30
0.0
 11
144.0409873065
 21
131.3344786287
 31
0.0
  0
LINE
  5
278
330
1F
100
AcDbEntity
  8
0
  6
Continuous
 62
     7
370
    15
100
AcDbLine
 10
137.5582632061
 20
137.691576627
 30
0.0
 11
137.5130400445
 21
137.705189769
 31
0.0
  0
LINE
  5
279
330
1F
100
AcDbEntity
  8
0
  6
Continuous
 62
     7
370
    15
100
AcDbLine
 10
137.5582632061
 20
138.9415763662
 30
0.0
 11
137.5130400445
 21
138.9551904396
 31
0.0
  0
LINE
  5
27A
330
1F
100
AcDbEntity
  8
0
  6
Continuous
 62
     7
370
    15
100
AcDbLine
 10
137.5582632061
 20
142.6915765152
 30
0.0
 11
137.5130400445
 21
142.7051905886
 31
0.0
  0
LINE
  5
27B
330
1F
100
AcDbEntity
  8
0
  6
Continuous
 62
     7
370
    15
100
AcDbLine
 10
137.5582632061
 20
145.1915759937
 30
0.0
 11
137.5130400445
 21
145.2051900671
 31
0.0
  0
LINE
  5
27C
330
1F
100
AcDbEntity
  8
0
  6
Continuous
 62
     7
370
    15
100
AcDbLine
 10
137.5582632061
 20
140.1915770367
 30
0.0
 11
137.5130400445
 21
140.2051892475
 31
0.0
  0
LINE
  5
27D
330
1F
100
AcDbEntity
  8
0
  6
Continuous
 62
     7
370
    15
100
AcDbLine
 10
137.5582632061
 20
141.4415758446
 30
0.0
 11
137.5130400445
 21
141.455189918
 31
0.0
  0
LINE
  5
27E
330
1F
100
AcDbEntity
  8
0
  6
Continuous
 62
     7
370
    15
100
AcDbLine
 10
137.5582632061
 20
143.9415771857
 30
0.0
 11
137.5130400445
 21
143.9551893965
 31
0.0
  0
LINE
  5
27F
330
1F
100
AcDbEntity
  8
0
  6
Continuous
 62
     7
370
    15
100
AcDbLine
 10
137.5582632061
 20
148.9415761427
 30
0.0
 11
137.5130400445
 21
148.9551902161
 31
0.0
  0
LINE
  5
280
330
1F
100
AcDbEntity
  8
0
  6
Continuous
 62
     7
370
    15
100
AcDbLine
 10
137.5582632061
 20
147.6915773348
 30
0.0
 11
137.5130400445
 21
147.7051895455
 31
0.0
  0
LINE
  5
281
330
1F
100
AcDbEntity
  8
0
  6
Continuous
 62
     7
370
    15
100
AcDbLine
 10
137.5582632061
 20
146.4415766642
 30
0.0
 11
137.5130400445
 21
146.4551907376
 31
0.0
  0
SPLINE
  5
282
330
1F
100
AcDbEntity
  8
0
  6
Continuous
 62
     7
370
    15
100
AcDbSpline
210
0.0
220
0.0
230
1.0
 70
     8
 71
     3
 72
     9
 73
     5
 74
     0
 42
0.00000001
 43
0.00000001
 40
0.0
 40
0.0
 40
0.0
 40
0.0
 40
0.7764953202950337
 40
1.0
 40
1.0
 40
1.0
 40
1.0
 10
137.5863090541122
 20
150.1577474520189
 30
0.0
 10
137.5806978418982
 20
150.1555868841983
 30
0.0
 10
137.5734715108858
 20
150.152804423359
 30
0.0
 10
137.5938274781014
 20
150.1499998374936
 30
0.0
 10
137.5983771320341
 20
150.149372999428
 30
0.0
  0
LINE
  5
283
330
1F
100
AcDbEntity
  8
0
  6
Continuous
 62
     7
370
    15
100
AcDbLine
 10
145.5130394932
 20
138.495931995
 30
0.0
 11
145.4839617398
 21
138.5148741648
 31
0.0
  0
LINE
  5
284
330
1F
100
AcDbEntity
  8
0
  6
Continuous
 62
     7
370
    15
100
AcDbLine
 10
145.5130394932
 20
137.2459322557
 30
0.0
 11
145.4839617398
 21
137.2648744256
 31
0.0
  0
LINE
  5
285
330
1F
100
AcDbEntity
  8
0
  6
Continuous
 62
     7
370
    15
100
AcDbLine
 10
145.5130394932
 20
135.9959325165
 30
0.0
 11
145.4839617398
 21
136.0148746864
 31
0.0
  0
LINE
  5
286
330
1F
100
AcDbEntity
  8
0
  6
Continuous
 62
     7
370
    15
100
AcDbLine
 10
145.5130394932
 20
147.2459320322
 30
0.0
 11
145.4839617398
 21
147.2648751334
 31
0.0
  0
LINE
  5
287
330
1F
100
AcDbEntity
  8
0
  6
Continuous
 62
     7
370
    15
100
AcDbLine
 10
145.5130394932
 20
148.4959327028
 30
0.0
 11
145.4839617398
 21
148.5148739413
 31
0.0
  0
LINE
  5
288
330
1F
100
AcDbEntity
  8
0
  6
Continuous
 62
     7
370
    15
100
AcDbLine
 10
145.5130394932
 20
145.9959332243
 30
0.0
 11
145.4839617398
 21
146.0148744628
 31
0.0
  0
LINE
  5
289
330
1F
100
AcDbEntity
  8
0
  6
Continuous
 62
     7
370
    15
100
AcDbLine
 10
145.5130394932
 20
142.2459330753
 30
0.0
 11
145.4839617398
 21
142.2648743138
 31
0.0
  0
LINE
  5
28A
330
1F
100
AcDbEntity
  8
0
  6
Continuous
 62
     7
370
    15
100
AcDbLine
 10
145.5130394932
 20
144.7459325538
 30
0.0
 11
145.4839617398
 21
144.7648737923
 31
0.0
  0
LINE
  5
28B
330
1F
100
AcDbEntity
  8
0
  6
Continuous
 62
     7
370
    15
100
AcDbLine
 10
145.5130394932
 20
149.7459315107
 30
0.0
 11
145.4839617398
 21
149.7648746119
 31
0.0
  0
LINE
  5
28C
330
1F
100
AcDbEntity
  8
0
  6
Continuous
 62
     7
370
    15
100
AcDbLine
 10
145.5130394932
 20
139.7459317342
 30
0.0
 11
145.4839617398
 21
139.7648748354
 31
0.0
  0
LINE
  5
28D
330
1F
100
AcDbEntity
  8
0
  6
Continuous
 62
     7
370
    15
100
AcDbLine
 10
145.5130394932
 20
140.9959324048
 30
0.0
 11
145.4839617398
 21
141.0148736433
 31
0.0
  0
LINE
  5
28E
330
1F
100
AcDbEntity
  8
0
  6
Continuous
 62
     7
370
    15
100
AcDbLine
 10
145.5130394932
 20
143.4959318832
 30
0.0
 11
145.4839617398
 21
143.5148749844
 31
0.0
  0
LINE
  5
28F
330
1F
100
AcDbEntity
  8
0
  6
Continuous
 62
     7
370
    15
100
AcDbLine
 10
143.7713675585
 20
134.8344782711
 30
0.0
 11
143.7713675585
 21
131.3344786287
 31
0.0
  0
LINE
  5
290
330
1F
100
AcDbEntity
  8
0
  6
Continuous
 62
     7
370
    15
100
AcDbLine
 10
143.7713675585
 20
131.3344786287
 30
0.0
 11
144.0409873065
 21
131.3344786287
 31
0.0
  0
LINE
  5
291
330
1F
100
AcDbEntity
  8
0
  6
Continuous
 62
     7
370
    15
100
AcDbLine
 10
141.0849731799
 20
134.8344782711
 30
0.0
 11
141.0849731799
 21
131.3344786287
 31
0.0
  0
LINE
  5
292
330
1F
100
AcDbEntity
  8
0
  6
Continuous
 62
     7
370
    15
100
AcDbLine
 10
138.9850922312
 20
131.3344786287
 30
0.0
 11
141.0849731799
 21
131.3344786287
 31
0.0
  0
LINE
  5
293
330
1F
100
AcDbEntity
  8
0
  6
Continuous
 62
     7
370
    15
100
AcDbLine
 10
141.0849731799
 20
131.3344786287
 30
0.0
 11
143.7713675585
 21
131.3344786287
 31
0.0
  0
LINE
  5
294
330
1F
100
AcDbEntity
  8
0
  6
Continuous
 62
     7
370
    15
100
AcDbLine
 10
136.5130398806
 20
139.2344791785
 30
0.0
 11
137.0130390312
 21
138.7344781653
 31
0.0
  0
LINE
  5
295
330
1F
100
AcDbEntity
  8
0
  6
Continuous
 62
     7
370
    15
100
AcDbLine
 10
136.5130398806
 20
139.2344791785
 30
0.0
 11
137.6719385769
 21
139.2344791785
 31
0.0
  0
LINE
  5
296
330
1F
100
AcDbEntity
  8
0
  6
Continuous
 62
     7
370
    15
100
AcDbLine
 10
145.0106561568
 20
139.2344791785
 30
0.0
 11
146.5130396571
 21
139.2344791785
 31
0.0
  0
LINE
  5
297
330
1F
100
AcDbEntity
  8
0
  6
Continuous
 62
     7
370
    15
100
AcDbLine
 10
146.0130405065
 20
138.7344781653
 30
0.0
 11
146.5130396571
 21
139.2344791785
 31
0.0
  0
LINE
  5
298
330
1F
100
AcDbEntity
  8
0
  6
Continuous
 62
     7
370
    15
100
AcDbLine
 10
146.0130405065
 20
138.7344781653
 30
0.0
 11
145.1389514293
 21
138.7344781653
 31
0.0
  0
LINE
  5
299
330
1F
100
AcDbEntity
  8
0
  6
Continuous
 62
     7
370
    15
100
AcDbLine
 10
137.7709549304
 20
138.7344781653
 30
0.0
 11
137.0130390312
 21
138.7344781653
 31
0.0
  0
LINE
  5
29A
330
1F
100
AcDbEntity
  8
0
  6
Continuous
 62
     7
370
    15
100
AcDbLine
 10
150.0130392995
 20
131.2344778672
 30
0.0
 11
146.0130405065
 21
135.2344785229
 31
0.0
  0
LINE
  5
29B
330
1F
100
AcDbEntity
  8
0
  6
Continuous
 62
     7
370
    15
100
AcDbLine
 10
133.0130402382
 20
131.2344778672
 30
0.0
 11
134.0130385395
 21
131.2344778672
 31
0.0
  0
LINE
  5
29C
330
1F
100
AcDbEntity
  8
0
  6
Continuous
 62
     7
370
    15
100
AcDbLine
 10
149.0130391356
 20
131.2344778672
 30
0.0
 11
150.0130392995
 21
131.2344778672
 31
0.0
  0
LINE
  5
29D
330
1F
100
AcDbEntity
  8
0
  6
Continuous
 62
     7
370
    15
100
AcDbLine
 10
137.0130390312
 20
135.2344785229
 30
0.0
 11
133.0130402382
 21
131.2344778672
 31
0.0
  0
LINE
  5
29E
330
1F
100
AcDbEntity
  8
0
  6
Continuous
 62
     7
370
    15
100
AcDbLine
 10
150.0130392995
 20
131.2344778672
 30
0.0
 11
150.0130392995
 21
128.7344783888
 31
0.0
  0
LINE
  5
29F
330
1F
100
AcDbEntity
  8
0
  6
Continuous
 62
     7
370
    15
100
AcDbLine
 10
133.0130402382
 20
128.7344783888
 30
0.0
 11
134.0130385395
 21
128.7344783888
 31
0.0
  0
LINE
  5
2A0
330
1F
100
AcDbEntity
  8
0
  6
Continuous
 62
     7
370
    15
100
AcDbLine
 10
149.0130391356
 20
128.7344783888
 30
0.0
 11
150.0130392995
 21
128.7344783888
 31
0.0
  0
LINE
  5
2A1
330
1F
100
AcDbEntity
  8
0
  6
Continuous
 62
     7
370
    15
100
AcDbLine
 10
133.0130402382
 20
128.7344783888
 30
0.0
 11
133.0130402382
 21
131.2344778672
 31
0.0
  0
LINE
  5
2A2
330
1F
100
AcDbEntity
  8
0
  6
Continuous
 62
     7
370
    15
100
AcDbLine
 10
150.5130403127
 20
128.2344783068
 30
0.0
 11
150.0130392995
 21
128.7344783888
 31
0.0
  0
LINE
  5
2A3
330
1F
100
AcDbEntity
  8
0
  6
Continuous
 62
     7
370
    15
100
AcDbLine
 10
133.0130402382
 20
128.7344783888
 30
0.0
 11
132.513039225
 21
128.2344783068
 31
0.0
  0
LINE
  5
2A4
330
1F
100
AcDbEntity
  8
0
  6
Continuous
 62
     7
370
    15
100
AcDbLine
 10
150.5130403127
 20
128.2344783068
 30
0.0
 11
149.0130391356
 21
128.2344783068
 31
0.0
  0
LINE
  5
2A5
330
1F
100
AcDbEntity
  8
0
  6
Continuous
 62
     7
370
    15
100
AcDbLine
 10
134.0130385395
 20
128.2344783068
 30
0.0
 11
132.513039225
 21
128.2344783068
 31
0.0
  0
LINE
  5
2A6
330
1F
100
AcDbEntity
  8
0
  6
Continuous
 62
     7
370
    15
100
AcDbLine
 10
137.0130390312
 20
135.2344785229
 30
0.0
 11
137.0130390312
 21
138.7344781653
 31
0.0
  0
LINE
  5
2A7
330
1F
100
AcDbEntity
  8
0
  6
Continuous
 62
     7
370
    15
100
AcDbLine
 10
146.0130405065
 20
138.7344781653
 30
0.0
 11
146.0130405065
 21
135.2344785229
 31
0.0
  0
LINE
  5
2A8
330
1F
100
AcDbEntity
  8
0
  6
Continuous
 62
     7
370
    15
100
AcDbLine
 10
136.5130398806
 20
139.2344791785
 30
0.0
 11
123.5130396124
 21
139.2344791785
 31
0.0
  0
LINE
  5
2A9
330
1F
100
AcDbEntity
  8
0
  6
Continuous
 62
     7
370
    15
100
AcDbLine
 10
122.5130413111
 20
138.2344780833
 30
0.0
 11
122.5130413111
 21
129.2344784707
 31
0.0
  0
LINE
  5
2AA
330
1F
100
AcDbEntity
  8
0
  6
Continuous
 62
     7
370
    15
100
AcDbLine
 10
132.513039225
 20
128.2344783068
 30
0.0
 11
123.5130396124
 21
128.2344783068
 31
0.0
  0
LINE
  5
2AB
330
1F
100
AcDbEntity
  8
0
  6
Continuous
 62
     7
370
    15
100
AcDbLine
 10
122.5130413111
 20
138.2344780833
 30
0.0
 11
123.5130396124
 21
139.2344791785
 31
0.0
  0
LINE
  5
2AC
330
1F
100
AcDbEntity
  8
0
  6
Continuous
 62
     7
370
    15
100
AcDbLine
 10
123.5130396124
 20
128.2344783068
 30
0.0
 11
122.5130413111
 21
129.2344784707
 31
0.0
  0
LINE
  5
2AD
330
1F
100
AcDbEntity
  8
0
  6
Continuous
 62
     7
370
    15
100
AcDbLine
 10
159.5130399253
 20
139.2344791785
 30
0.0
 11
146.5130396571
 21
139.2344791785
 31
0.0
  0
LINE
  5
2AE
330
1F
100
AcDbEntity
  8
0
  6
Continuous
 62
     7
370
    15
100
AcDbLine
 10
159.5130399253
 20
128.2344783068
 30
0.0
 11
150.5130403127
 21
128.2344783068
 31
0.0
  0
LINE
  5
2AF
330
1F
100
AcDbEntity
  8
0
  6
Continuous
 62
     7
370
    15
100
AcDbLine
 10
160.5130396236
 20
129.2344784707
 30
0.0
 11
160.5130396236
 21
138.2344780833
 31
0.0
  0
LINE
  5
2B0
330
1F
100
AcDbEntity
  8
0
  6
Continuous
 62
     7
370
    15
100
AcDbLine
 10
159.5130399253
 20
139.2344791785
 30
0.0
 11
160.5130396236
 21
138.2344780833
 31
0.0
  0
LINE
  5
2B1
330
1F
100
AcDbEntity
  8
0
  6
Continuous
 62
     7
370
    15
100
AcDbLine
 10
160.5130396236
 20
129.2344784707
 30
0.0
 11
159.5130399253
 21
128.2344783068
 31
0.0
  0
ARC
  5
2B2
330
1F
100
AcDbEntity
  8
0
  6
Continuous
 62
     7
370
    15
100
AcDbCircle
 10
166.6959762613
 20
72.4309154431
 30
0.0
 40
58.42283666445987
100
AcDbArc
 50
67.8184499818
 51
82.0054202411
  0
ARC
  5
2B3
330
1F
100
AcDbEntity
  8
0
  6
Continuous
 62
     7
370
    15
100
AcDbCircle
 10
174.75185078
 20
129.7908133945
 30
0.0
 40
0.5000000000049892
100
AcDbArc
 50
82.0054195924
 51
216.252547333
  0
ARC
  5
2B4
330
1F
100
AcDbEntity
  8
0
  6
Continuous
 62
     7
370
    15
100
AcDbCircle
 10
173.9454324629
 20
129.1994678967
 30
0.0
 40
0.4999999999998525
100
AcDbArc
 50
353.9569616818
 51
36.2525467719
  0
ARC
  5
2B5
330
1F
100
AcDbEntity
  8
0
  6
Continuous
 62
     7
370
    15
100
AcDbCircle
 10
172.4537678208
 20
129.357381115
 30
0.0
 40
1.999999996336367
100
AcDbArc
 50
284.732160022
 51
353.9569616818
  0
ARC
  5
2B6
330
1F
100
AcDbEntity
  8
0
  6
Continuous
 62
     7
370
    15
100
AcDbCircle
 10
173.2167196792
 20
126.4558178674
 30
0.0
 40
1.000194133739883
100
AcDbArc
 50
104.732160022
 51
214.8380652602
  0
ARC
  5
2B7
330
1F
100
AcDbEntity
  8
0
  6
Continuous
 62
     7
370
    15
100
AcDbCircle
 10
171.9758981927
 20
125.6129880927
 30
0.0
 40
0.4999999996462652
100
AcDbArc
 50
214.1863636659
 51
32.8826230552
  0
ARC
  5
2B8
330
1F
100
AcDbEntity
  8
0
  6
Continuous
 62
     7
370
    15
100
AcDbCircle
 10
173.2167196792
 20
126.4558178674
 30
0.0
 40
1.999999996396173
100
AcDbArc
 50
104.732160022
 51
214.1863636676
  0
ARC
  5
2B9
330
1F
100
AcDbEntity
  8
0
  6
Continuous
 62
     7
370
    15
100
AcDbCircle
 10
172.4537678208
 20
129.357381115
 30
0.0
 40
1.000194133680083
100
AcDbArc
 50
284.732160022
 51
0.2827780531
  0
LINE
  5
2BA
330
1F
100
AcDbEntity
  8
0
  6
Continuous
 62
     7
370
    15
100
AcDbLine
 10
173.4492261346
 20
130.3194394678
 30
0.0
 11
173.4539498027
 21
129.3623173953
 31
0.0
  0
ARC
  5
2BB
330
1F
100
AcDbEntity
  8
0
  6
Continuous
 62
     7
370
    15
100
AcDbCircle
 10
172.9492320372
 20
130.316971635
 30
0.0
 40
0.500000000000541
100
AcDbArc
 50
0.2827776585
 51
83.8344197117
  0
ARC
  5
2BC
330
1F
100
AcDbEntity
  8
0
  6
Continuous
 62
     7
370
    15
100
AcDbCircle
 10
166.6959762613
 20
72.4309154431
 30
0.0
 40
58.72283666445788
100
AcDbArc
 50
83.8344196025
 51
87.0562922343
  0
ARC
  5
2BD
330
1F
100
AcDbEntity
  8
0
  6
Continuous
 62
     7
370
    15
100
AcDbCircle
 10
169.7424882449
 20
131.6754739667
 30
0.0
 40
0.5999999999997888
100
AcDbArc
 50
87.0562922343
 51
267.0562922343
  0
ARC
  5
2BE
330
1F
100
AcDbEntity
  8
0
  6
Continuous
 62
     7
370
    15
100
AcDbCircle
 10
166.6959762613
 20
72.4309154431
 30
0.0
 40
59.92283666445713
100
AcDbArc
 50
68.3377059208
 51
87.0562922343
  0
ARC
  5
2BF
330
1F
100
AcDbEntity
  8
0
  6
Continuous
 62
     7
370
    15
100
AcDbCircle
 10
166.69144414
 20
71.7717680675
 30
0.0
 40
60.53757737008927
100
AcDbArc
 50
50.1019928181
 51
68.5640049996
  0
ARC
  5
2C0
330
1F
100
AcDbEntity
  8
0
  6
Continuous
 62
     7
370
    15
100
AcDbCircle
 10
205.84773755
 20
118.5944600925
 30
0.0
 40
0.4999999999944122
100
AcDbArc
 50
229.2920108695
 51
275.9318662169
  0
LINE
  5
2C1
330
1F
100
AcDbEntity
  8
0
  6
Continuous
 62
     7
370
    15
100
AcDbLine
 10
207.0388388272
 20
118.2155265816
 30
0.0
 11
205.8994103607
 21
118.0971373216
 31
0.0
  0
ARC
  5
2C2
330
1F
100
AcDbEntity
  8
0
  6
Continuous
 62
     7
370
    15
100
AcDbCircle
 10
207.0698441989
 20
117.9171328614
 30
0.0
 40
0.2999999999986389
100
AcDbArc
 50
46.8700111423
 51
95.9318662172
  0
ARC
  5
2C3
330
1F
100
AcDbEntity
  8
0
  6
Continuous
 62
     7
370
    15
100
AcDbCircle
 10
106.6002973603
 20
3.6619430108
 30
0.0
 40
152.445762749123
100
AcDbArc
 50
47.8447703691
 51
48.6698831375
  0
ARC
  5
2C4
330
1F
100
AcDbEntity
  8
0
  6
Continuous
 62
     7
370
    15
100
AcDbCircle
 10
208.7047509795
 20
116.4584801956
 30
0.0
 40
0.3000000000043279
100
AcDbArc
 50
356.9830433089
 51
46.0448983739
  0
LINE
  5
2C5
330
1F
100
AcDbEntity
  8
0
  6
Continuous
 62
     7
370
    15
100
AcDbLine
 10
208.9472379919
 20
115.3593176388
 30
0.0
 11
209.0043355163
 21
116.4426907309
 31
0.0
  0
ARC
  5
2C6
330
1F
100
AcDbEntity
  8
0
  6
Continuous
 62
     7
370
    15
100
AcDbCircle
 10
209.4465434938
 20
115.3330019121
 30
0.0
 40
0.5000000000003866
100
AcDbArc
 50
176.9830433087
 51
224.7193998372
  0
ARC
  5
2C7
330
1F
100
AcDbEntity
  8
0
  6
Continuous
 62
     7
370
    15
100
AcDbCircle
 10
166.69144414
 20
71.7717680675
 30
0.0
 40
60.53757737008961
100
AcDbArc
 50
39.7291219289
 51
45.5418239613
  0
ARC
  5
2C8
330
1F
100
AcDbEntity
  8
0
  6
Continuous
 62
     7
370
    15
100
AcDbCircle
 10
215.9800705287
 20
100.323924613
 30
0.0
 40
0.5499999999996541
100
AcDbArc
 50
230.2827780531
 51
50.282778053
  0
LINE
  5
2C9
330
1F
100
AcDbEntity
  8
0
  6
Continuous
 62
     7
370
    15
100
AcDbLine
 10
214.9899382528
 20
100.431428884
 30
0.0
 11
215.628620648
 21
99.9008600012
 31
0.0
  0
ARC
  5
2CA
330
1F
100
AcDbEntity
  8
0
  6
Continuous
 62
     7
370
    15
100
AcDbCircle
 10
215.6289389462
 20
101.2006356851
 30
0.0
 40
0.9999999999994318
100
AcDbArc
 50
188.3087788504
 51
230.2827780531
  0
ARC
  5
2CB
330
1F
100
AcDbEntity
  8
0
  6
Continuous
 62
     7
370
    15
100
AcDbCircle
 10
217.3110951668
 20
101.4462989694
 30
0.0
 40
2.699999999999265
100
AcDbArc
 50
126.8825680004
 51
188.3087788504
  0
ARC
  5
2CC
330
1F
100
AcDbEntity
  8
0
  6
Continuous
 62
     7
370
    15
100
AcDbCircle
 10
215.3905290969
 20
104.0058743192
 30
0.0
 40
0.5000000000002882
100
AcDbArc
 50
306.8825680005
 51
32.2416862734
  0
ARC
  5
2CD
330
1F
100
AcDbEntity
  8
0
  6
Continuous
 62
     7
370
    15
100
AcDbCircle
 10
166.3990902562
 20
73.1045162977
 30
0.0
 40
58.4228366644602
100
AcDbArc
 50
32.2416862734
 51
38.4848386881
  0
ARC
  5
2CE
330
1F
100
AcDbEntity
  8
0
  6
Continuous
 62
     7
370
    15
100
AcDbCircle
 10
166.7450532573
 20
71.8428984911
 30
0.0
 40
58.9494138104686
100
AcDbArc
 50
39.6540331796
 51
68.0783949136
  0
ARC
  5
2CF
330
1F
100
AcDbEntity
  8
0
  6
Continuous
 62
     7
370
    15
100
AcDbCircle
 10
216.3116322251
 20
101.413529652
 30
0.0
 40
0.4999999999869518
100
AcDbArc
 50
181.8778797752
 51
230.282778053
  0
LINE
  5
2D0
330
1F
100
AcDbEntity
  8
0
  6
Continuous
 62
     7
370
    15
100
AcDbLine
 10
216.3315195974
 20
100.746988912
 30
0.0
 11
215.9921344753
 21
101.0289263324
 31
0.0
  0
ARC
  5
2D1
330
1F
100
AcDbEntity
  8
0
  6
Continuous
 62
     7
370
    15
100
AcDbCircle
 10
217.4967797602
 20
103.4376606221
 30
0.0
 40
0.4999999999685402
100
AcDbArc
 50
264.6728564086
 51
30.6946578705
  0
ARC
  5
2D2
330
1F
100
AcDbEntity
  8
0
  6
Continuous
 62
     7
370
    15
100
AcDbCircle
 10
166.3990902562
 20
73.1045162977
 30
0.0
 40
59.92283666446401
100
AcDbArc
 50
30.6946578759
 51
38.5703273455
  0
ARC
  5
2D3
330
1F
100
AcDbEntity
  8
0
  6
Continuous
 62
     7
370
    15
100
AcDbCircle
 10
217.3110951668
 20
101.4462989694
 30
0.0
 40
1.499999999995867
100
AcDbArc
 50
84.6728564093
 51
181.8778797756
  0
LINE
  5
2D4
330
1F
100
AcDbEntity
  8
0
  6
Continuous
 62
     7
370
    15
100
AcDbLine
 10
160.5130396236
 20
124.4354837219
 30
0.0
 11
160.5130396236
 21
122.9354837145
 31
0.0
  0
LINE
  5
2D5
330
1F
100
AcDbEntity
  8
0
  6
Continuous
 62
     7
370
    15
100
AcDbLine
 10
162.2130595531
 20
124.4354837219
 30
0.0
 11
160.5130396236
 21
124.4354837219
 31
0.0
  0
ARC
  5
2D6
330
1F
100
AcDbEntity
  8
0
  6
Continuous
 62
     7
370
    15
100
AcDbCircle
 10
162.2130397439
 20
123.4354837148
 30
0.0
 40
1.000000000000028
100
AcDbArc
 50
359.9999999885
 51
89.9988540846
  0
LINE
  5
2D7
330
1F
100
AcDbEntity
  8
0
  6
Continuous
 62
     7
370
    15
100
AcDbLine
 10
163.2130396936
 20
96.3344775484
 30
0.0
 11
163.2130396936
 21
123.4354837326
 31
0.0
  0
ARC
  5
2D8
330
1F
100
AcDbEntity
  8
0
  6
Continuous
 62
     7
370
    15
100
AcDbCircle
 10
162.7130397439
 20
96.3344783165
 30
0.0
 40
0.5000000000028137
100
AcDbArc
 50
215.0001228452
 51
0.0000000004
  0
LINE
  5
2D9
330
1F
100
AcDbEntity
  8
0
  6
Continuous
 62
     7
370
    15
100
AcDbLine
 10
161.2582518171
 20
97.5404005841
 30
0.0
 11
162.3034644324
 21
96.0476898
 31
0.0
  0
ARC
  5
2DA
330
1F
100
AcDbEntity
  8
0
  6
Continuous
 62
     7
370
    15
100
AcDbCircle
 10
161.4630397439
 20
97.6837948143
 30
0.0
 40
0.2500000000000673
100
AcDbArc
 50
114.999986806
 51
215.0001228452
  0
LINE
  5
2DB
330
1F
100
AcDbEntity
  8
0
  6
Continuous
 62
     7
370
    15
100
AcDbLine
 10
161.5686942276
 20
98.0089061306
 30
0.0
 11
161.3573850516
 21
97.9103722022
 31
0.0
  0
ARC
  5
2DC
330
1F
100
AcDbEntity
  8
0
  6
Continuous
 62
     7
370
    15
100
AcDbCircle
 10
161.4630397439
 20
98.2354837146
 30
0.0
 40
0.2499999999998752
100
AcDbArc
 50
294.9999868059
 51
0.0
  0
LINE
  5
2DD
330
1F
100
AcDbEntity
  8
0
  6
Continuous
 62
     7
370
    15
100
AcDbLine
 10
161.7130399134
 20
122.4354837433
 30
0.0
 11
161.7130399134
 21
98.2354838744
 31
0.0
  0
ARC
  5
2DE
330
1F
100
AcDbEntity
  8
0
  6
Continuous
 62
     7
370
    15
100
AcDbCircle
 10
161.2130397439
 20
122.435483715
 30
0.0
 40
0.500000000000007
100
AcDbArc
 50
359.9999999542
 51
89.9977081688
  0
LINE
  5
2DF
330
1F
100
AcDbEntity
  8
0
  6
Continuous
 62
     7
370
    15
100
AcDbLine
 10
160.5130396236
 20
122.9354837145
 30
0.0
 11
161.2130598549
 21
122.9354837145
 31
0.0
  0
LINE
  5
2E0
330
1F
100
AcDbEntity
  8
0
  6
Continuous
 62
     7
370
    15
100
AcDbLine
 10
121.8130406376
 20
122.9354837145
 30
0.0
 11
122.5130413111
 21
122.9354837145
 31
0.0
  0
ARC
  5
2E1
330
1F
100
AcDbEntity
  8
0
  6
Continuous
 62
     7
370
    15
100
AcDbCircle
 10
121.8130397439
 20
122.4354837146
 30
0.0
 40
0.5
100
AcDbArc
 50
90.0
 51
180.0
  0
ARC
  5
2E2
330
1F
100
AcDbEntity
  8
0
  6
Continuous
 62
     7
370
    15
100
AcDbCircle
 10
120.8130397439
 20
123.4354837146
 30
0.0
 40
0.9999999999999574
100
AcDbArc
 50
90.0
 51
180.0
  0
LINE
  5
2E3
330
1F
100
AcDbEntity
  8
0
  6
Continuous
 62
     7
370
    15
100
AcDbLine
 10
122.5130413111
 20
124.4354837219
 30
0.0
 11
120.813038611
 21
124.4354837219
 31
0.0
  0
LINE
  5
2E4
330
1F
100
AcDbEntity
  8
0
  6
Continuous
 62
     7
370
    15
100
AcDbLine
 10
122.5130413111
 20
122.9354837145
 30
0.0
 11
122.5130413111
 21
124.4354837219
 31
0.0
  0
LINE
  5
2E5
330
1F
100
AcDbEntity
  8
0
  6
Continuous
 62
     7
370
    15
100
AcDbLine
 10
119.8130403098
 20
123.4354837326
 30
0.0
 11
119.8130403098
 21
96.3344775484
 31
0.0
  0
ARC
  5
2E6
330
1F
100
AcDbEntity
  8
0
  6
Continuous
 62
     7
370
    15
100
AcDbCircle
 10
120.3130397439
 20
96.3344783165
 30
0.0
 40
0.5000000000026574
100
AcDbArc
 50
180.0
 51
324.999877155
  0
ARC
  5
2E7
330
1F
100
AcDbEntity
  8
0
  6
Continuous
 62
     7
370
    15
100
AcDbCircle
 10
121.5630397439
 20
98.2354837146
 30
0.0
 40
0.2500000000000348
100
AcDbArc
 50
180.0
 51
245.0000131941
  0
LINE
  5
2E8
330
1F
100
AcDbEntity
  8
0
  6
Continuous
 62
     7
370
    15
100
AcDbLine
 10
121.3130396243
 20
98.2354838744
 30
0.0
 11
121.3130396243
 21
122.4354837433
 31
0.0
  0
LINE
  5
2E9
330
1F
100
AcDbEntity
  8
0
  6
Continuous
 62
     7
370
    15
100
AcDbLine
 10
120.7226146396
 20
96.0476898
 30
0.0
 11
121.7678267892
 21
97.5404005841
 31
0.0
  0
ARC
  5
2EA
330
1F
100
AcDbEntity
  8
0
  6
Continuous
 62
     7
370
    15
100
AcDbCircle
 10
121.5630397439
 20
97.6837948143
 30
0.0
 40
0.2500000000000726
100
AcDbArc
 50
324.9998771548
 51
65.0000131941
  0
LINE
  5
2EB
330
1F
100
AcDbEntity
  8
0
  6
Continuous
 62
     7
370
    15
100
AcDbLine
 10
121.6686930891
 20
97.9103722022
 30
0.0
 11
121.4573834475
 21
98.0089061306
 31
0.0
  0
LINE
  5
2EC
330
1F
100
AcDbEntity
  8
0
  6
Continuous
 62
     7
370
    15
100
AcDbLine
 10
160.5130396236
 20
124.4354837219
 30
0.0
 11
159.5130399253
 21
124.4354837219
 31
0.0
  0
LINE
  5
2ED
330
1F
100
AcDbEntity
  8
0
  6
Continuous
 62
     7
370
    15
100
AcDbLine
 10
123.5130396124
 20
124.4354837219
 30
0.0
 11
122.5130413111
 21
124.4354837219
 31
0.0
  0
LINE
  5
2EE
330
1F
100
AcDbEntity
  8
0
  6
Continuous
 62
     7
370
    15
100
AcDbLine
 10
160.5130396236
 20
122.9354837145
 30
0.0
 11
159.5130399253
 21
122.9354837145
 31
0.0
  0
LINE
  5
2EF
330
1F
100
AcDbEntity
  8
0
  6
Continuous
 62
     7
370
    15
100
AcDbLine
 10
123.5130396124
 20
122.9354837145
 30
0.0
 11
122.5130413111
 21
122.9354837145
 31
0.0
  0
LINE
  5
2F0
330
1F
100
AcDbEntity
  8
0
  6
Continuous
 62
     7
370
    15
100
AcDbLine
 10
153.3130392816
 20
127.8344785207
 30
0.0
 11
159.5130399253
 21
127.8344785207
 31
0.0
  0
LINE
  5
2F1
330
1F
100
AcDbEntity
  8
0
  6
Continuous
 62
     7
370
    15
100
AcDbLine
 10
159.5130399253
 20
102.3344785318
 30
0.0
 11
159.5130399253
 21
127.8344785207
 31
0.0
  0
LINE
  5
2F2
330
1F
100
AcDbEntity
  8
0
  6
Continuous
 62
     7
370
    15
100
AcDbLine
 10
123.5130396124
 20
127.8344785207
 30
0.0
 11
123.5130396124
 21
102.3344785318
 31
0.0
  0
LINE
  5
2F3
330
1F
100
AcDbEntity
  8
0
  6
Continuous
 62
     7
370
    15
100
AcDbLine
 10
123.5130396124
 20
127.8344785207
 30
0.0
 11
129.7130402561
 21
127.8344785207
 31
0.0
  0
LINE
  5
2F4
330
1F
100
AcDbEntity
  8
0
  6
Continuous
 62
     7
370
    15
100
AcDbLine
 10
129.7130402561
 20
127.3344784387
 30
0.0
 11
129.7130402561
 21
127.8344785207
 31
0.0
  0
LINE
  5
2F5
330
1F
100
AcDbEntity
  8
0
  6
Continuous
 62
     7
370
    15
100
AcDbLine
 10
135.5130397167
 20
127.3344784387
 30
0.0
 11
129.7130402561
 21
127.3344784387
 31
0.0
  0
LINE
  5
2F6
330
1F
100
AcDbEntity
  8
0
  6
Continuous
 62
     7
370
    15
100
AcDbLine
 10
135.5130397167
 20
127.8344785207
 30
0.0
 11
135.5130397167
 21
127.3344784387
 31
0.0
  0
LINE
  5
2F7
330
1F
100
AcDbEntity
  8
0
  6
Continuous
 62
     7
370
    15
100
AcDbLine
 10
135.5130397167
 20
127.8344785207
 30
0.0
 11
147.513039821
 21
127.8344785207
 31
0.0
  0
LINE
  5
2F8
330
1F
100
AcDbEntity
  8
0
  6
Continuous
 62
     7
370
    15
100
AcDbLine
 10
147.513039821
 20
127.3344784387
 30
0.0
 11
147.513039821
 21
127.8344785207
 31
0.0
  0
LINE
  5
2F9
330
1F
100
AcDbEntity
  8
0
  6
Continuous
 62
     7
370
    15
100
AcDbLine
 10
153.3130392816
 20
127.3344784387
 30
0.0
 11
147.513039821
 21
127.3344784387
 31
0.0
  0
LINE
  5
2FA
330
1F
100
AcDbEntity
  8
0
  6
Continuous
 62
     7
370
    15
100
AcDbLine
 10
153.3130392816
 20
127.8344785207
 30
0.0
 11
153.3130392816
 21
127.3344784387
 31
0.0
  0
LINE
  5
2FB
330
1F
100
AcDbEntity
  8
0
  6
Continuous
 62
     7
370
    15
100
AcDbLine
 10
159.5130399253
 20
102.3344785318
 30
0.0
 11
123.5130396124
 21
102.3344785318
 31
0.0
  0
ARC
  5
2FC
330
1F
100
AcDbEntity
  8
0
  6
Continuous
 62
     7
370
    15
100
AcDbCircle
 10
123.2101567924
 20
111.9857950185
 30
0.0
 40
0.3000000000024272
100
AcDbArc
 50
0.0
 51
161.5650511774
  0
LINE
  5
2FD
330
1F
100
AcDbEntity
  8
0
  6
Continuous
 62
     7
370
    15
100
AcDbLine
 10
123.5101562377
 20
96.3344775484
 30
0.0
 11
123.5101562377
 21
111.9857948617
 31
0.0
  0
ARC
  5
2FE
330
1F
100
AcDbEntity
  8
0
  6
Continuous
 62
     7
370
    15
100
AcDbCircle
 10
124.0101567924
 20
96.3344783165
 30
0.0
 40
0.5000000000000284
100
AcDbArc
 50
180.0
 51
270.0
  0
LINE
  5
2FF
330
1F
100
AcDbEntity
  8
0
  6
Continuous
 62
     7
370
    15
100
AcDbLine
 10
124.010157251
 20
95.8344783977
 30
0.0
 11
127.90304836
 21
95.8344783977
 31
0.0
  0
ARC
  5
300
330
1F
100
AcDbEntity
  8
0
  6
Continuous
 62
     7
370
    15
100
AcDbCircle
 10
127.9030500112
 20
95.5344783165
 30
0.0
 40
0.299999999997844
100
AcDbArc
 50
45.0000000008
 51
90.0
  0
LINE
  5
301
330
1F
100
AcDbEntity
  8
0
  6
Continuous
 62
     7
370
    15
100
AcDbLine
 10
128.3687357243
 20
95.4930574045
 30
0.0
 11
128.1151812907
 21
95.7466099755
 31
0.0
  0
ARC
  5
302
330
1F
100
AcDbEntity
  8
0
  6
Continuous
 62
     7
370
    15
100
AcDbCircle
 10
128.5101567924
 20
95.6344783165
 30
0.0
 40
0.2000000000018084
100
AcDbArc
 50
224.9999999994
 51
315.0000000005
  0
LINE
  5
303
330
1F
100
AcDbEntity
  8
0
  6
Continuous
 62
     7
370
    15
100
AcDbLine
 10
128.9051328238
 20
95.7466099755
 30
0.0
 11
128.6515783902
 21
95.4930574045
 31
0.0
  0
ARC
  5
304
330
1F
100
AcDbEntity
  8
0
  6
Continuous
 62
     7
370
    15
100
AcDbCircle
 10
129.1172635736
 20
95.5344783165
 30
0.0
 40
0.2999999999996419
100
AcDbArc
 50
90.0
 51
135.0000000005
  0
LINE
  5
305
330
1F
100
AcDbEntity
  8
0
  6
Continuous
 62
     7
370
    15
100
AcDbLine
 10
129.1172620293
 20
95.8344783977
 30
0.0
 11
133.0101568635
 21
95.8344783977
 31
0.0
  0
ARC
  5
306
330
1F
100
AcDbEntity
  8
0
  6
Continuous
 62
     7
370
    15
100
AcDbCircle
 10
133.0101567924
 20
96.3344783165
 30
0.0
 40
0.5
100
AcDbArc
 50
270.0
 51
0.0
  0
LINE
  5
307
330
1F
100
AcDbEntity
  8
0
  6
Continuous
 62
     7
370
    15
100
AcDbLine
 10
133.5101578768
 20
96.3344775484
 30
0.0
 11
133.5101578768
 21
101.3344783679
 31
0.0
  0
ARC
  5
308
330
1F
100
AcDbEntity
  8
0
  6
Continuous
 62
     7
370
    15
100
AcDbCircle
 10
134.5101567924
 20
101.3344783165
 30
0.0
 40
1.000000000000043
100
AcDbArc
 50
90.0
 51
180.0
  0
LINE
  5
309
330
1F
100
AcDbEntity
  8
0
  6
Continuous
 62
     7
370
    15
100
AcDbLine
 10
134.5101561781
 20
102.3344785318
 30
0.0
 11
148.5101566102
 21
102.3344785318
 31
0.0
  0
ARC
  5
30A
330
1F
100
AcDbEntity
  8
0
  6
Continuous
 62
     7
370
    15
100
AcDbCircle
 10
148.5101567924
 20
101.3344783165
 30
0.0
 40
1.0
100
AcDbArc
 50
0.0
 51
90.0
  0
LINE
  5
30B
330
1F
100
AcDbEntity
  8
0
  6
Continuous
 62
     7
370
    15
100
AcDbLine
 10
149.5101567741
 20
96.3344775484
 30
0.0
 11
149.5101567741
 21
101.3344783679
 31
0.0
  0
ARC
  5
30C
330
1F
100
AcDbEntity
  8
0
  6
Continuous
 62
     7
370
    15
100
AcDbCircle
 10
150.0101567924
 20
96.3344783165
 30
0.0
 40
0.5
100
AcDbArc
 50
180.0
 51
270.0
  0
LINE
  5
30D
330
1F
100
AcDbEntity
  8
0
  6
Continuous
 62
     7
370
    15
100
AcDbLine
 10
153.9030498277
 20
95.8344783977
 30
0.0
 11
150.0101559248
 21
95.8344783977
 31
0.0
  0
ARC
  5
30E
330
1F
100
AcDbEntity
  8
0
  6
Continuous
 62
     7
370
    15
100
AcDbCircle
 10
153.9030500112
 20
95.5344783165
 30
0.0
 40
0.3000000000014325
100
AcDbArc
 50
44.9999999995
 51
90.0
  0
LINE
  5
30F
330
1F
100
AcDbEntity
  8
0
  6
Continuous
 62
     7
370
    15
100
AcDbLine
 10
154.1151818272
 20
95.7466099755
 30
0.0
 11
154.3687353294
 21
95.4930574045
 31
0.0
  0
ARC
  5
310
330
1F
100
AcDbEntity
  8
0
  6
Continuous
 62
     7
370
    15
100
AcDbCircle
 10
154.5101567924
 20
95.6344783165
 30
0.0
 40
0.2000000000018084
100
AcDbArc
 50
224.9999999994
 51
315.0000000005
  0
LINE
  5
311
330
1F
100
AcDbEntity
  8
0
  6
Continuous
 62
     7
370
    15
100
AcDbLine
 10
154.6515779953
 20
95.4930574045
 30
0.0
 11
154.9051314976
 21
95.7466099755
 31
0.0
  0
ARC
  5
312
330
1F
100
AcDbEntity
  8
0
  6
Continuous
 62
     7
370
    15
100
AcDbCircle
 10
155.1172635736
 20
95.5344783165
 30
0.0
 40
0.3000000000014112
100
AcDbArc
 50
90.0
 51
135.0000000005
  0
LINE
  5
313
330
1F
100
AcDbEntity
  8
0
  6
Continuous
 62
     7
370
    15
100
AcDbLine
 10
159.0101569343
 20
95.8344783977
 30
0.0
 11
155.117263497
 21
95.8344783977
 31
0.0
  0
ARC
  5
314
330
1F
100
AcDbEntity
  8
0
  6
Continuous
 62
     7
370
    15
100
AcDbCircle
 10
159.0101567924
 20
96.3344783165
 30
0.0
 40
0.5
100
AcDbArc
 50
270.0
 51
0.0
  0
LINE
  5
315
330
1F
100
AcDbEntity
  8
0
  6
Continuous
 62
     7
370
    15
100
AcDbLine
 10
159.5101570163
 20
96.3344775484
 30
0.0
 11
159.5101570163
 21
111.9857948617
 31
0.0
  0
ARC
  5
316
330
1F
100
AcDbEntity
  8
0
  6
Continuous
 62
     7
370
    15
100
AcDbCircle
 10
159.8101567924
 20
111.9857950185
 30
0.0
 40
0.2999999999974827
100
AcDbArc
 50
18.4349488232
 51
180.0
  0
LINE
  5
317
330
1F
100
AcDbEntity
  8
0
  6
Continuous
 62
     7
370
    15
100
AcDbLine
 10
161.0101567965
 20
109.3344787479
 30
0.0
 11
160.0947617005
 21
112.0806631044
 31
0.0
  0
LINE
  5
318
330
1F
100
AcDbEntity
  8
0
  6
Continuous
 62
     7
370
    15
100
AcDbLine
 10
161.0101567965
 20
109.3344787479
 30
0.0
 11
161.0101567965
 21
99.864778702
 31
0.0
  0
ARC
  5
319
330
1F
100
AcDbEntity
  8
0
  6
Continuous
 62
     7
370
    15
100
AcDbCircle
 10
161.3101567924
 20
99.8647781924
 30
0.0
 40
0.2999999999999829
100
AcDbArc
 50
180.0
 51
215.0001228455
  0
LINE
  5
31A
330
1F
100
AcDbEntity
  8
0
  6
Continuous
 62
     7
370
    15
100
AcDbLine
 10
161.0644114587
 20
99.6927038178
 30
0.0
 11
161.5649447229
 21
98.9778727636
 31
0.0
  0
ARC
  5
31B
330
1F
100
AcDbEntity
  8
0
  6
Continuous
 62
     7
370
    15
100
AcDbCircle
 10
161.3601567924
 20
98.8344783165
 30
0.0
 40
0.2500000000000022
100
AcDbArc
 50
294.9999868059
 51
35.0001228455
  0
LINE
  5
31C
330
1F
100
AcDbEntity
  8
0
  6
Continuous
 62
     7
370
    15
100
AcDbLine
 10
161.4658114884
 20
98.6079011456
 30
0.0
 11
161.1545024823
 21
98.4627358959
 31
0.0
  0
ARC
  5
31D
330
1F
100
AcDbEntity
  8
0
  6
Continuous
 62
     7
370
    15
100
AcDbCircle
 10
161.2601567924
 20
98.2361586785
 30
0.0
 40
0.25
100
AcDbArc
 50
114.9999868059
 51
180.0
  0
LINE
  5
31E
330
1F
100
AcDbEntity
  8
0
  6
Continuous
 62
     7
370
    15
100
AcDbLine
 10
161.0101567965
 20
96.3344775484
 30
0.0
 11
161.0101567965
 21
98.236158152
 31
0.0
  0
ARC
  5
31F
330
1F
100
AcDbEntity
  8
0
  6
Continuous
 62
     7
370
    15
100
AcDbCircle
 10
161.5101567924
 20
96.3344783165
 30
0.0
 40
0.5
100
AcDbArc
 50
180.0
 51
270.0
  0
LINE
  5
320
330
1F
100
AcDbEntity
  8
0
  6
Continuous
 62
     7
370
    15
100
AcDbLine
 10
162.913059761
 20
95.8344783977
 30
0.0
 11
161.5101568784
 21
95.8344783977
 31
0.0
  0
ARC
  5
321
330
1F
100
AcDbEntity
  8
0
  6
Continuous
 62
     7
370
    15
100
AcDbCircle
 10
162.9130597439
 20
95.5344783165
 30
0.0
 40
0.3000000000001819
100
AcDbArc
 50
0.0
 51
90.0
  0
LINE
  5
322
330
1F
100
AcDbEntity
  8
0
  6
Continuous
 62
     7
370
    15
100
AcDbLine
 10
163.213059717
 20
93.5344785795
 30
0.0
 11
163.213059717
 21
95.5344789073
 31
0.0
  0
LINE
  5
323
330
1F
100
AcDbEntity
  8
0
  6
Continuous
 62
     7
370
    15
100
AcDbLine
 10
161.9130595971
 20
93.5344785795
 30
0.0
 11
163.213059717
 21
93.5344785795
 31
0.0
  0
ARC
  5
324
330
1F
100
AcDbEntity
  8
0
  6
Continuous
 62
     7
370
    15
100
AcDbCircle
 10
161.9130597439
 20
93.8344783165
 30
0.0
 40
0.3000000000002387
100
AcDbArc
 50
180.0
 51
270.0
  0
LINE
  5
325
330
1F
100
AcDbEntity
  8
0
  6
Continuous
 62
     7
370
    15
100
AcDbLine
 10
161.613059641
 20
93.8344780699
 30
0.0
 11
161.613059641
 21
94.0344777302
 31
0.0
  0
ARC
  5
326
330
1F
100
AcDbEntity
  8
0
  6
Continuous
 62
     7
370
    15
100
AcDbCircle
 10
161.3130597439
 20
94.0344783165
 30
0.0
 40
0.3000000000001819
100
AcDbArc
 50
0.0
 51
89.9999999997
  0
LINE
  5
327
330
1F
100
AcDbEntity
  8
0
  6
Continuous
 62
     7
370
    15
100
AcDbLine
 10
161.313059685
 20
94.3344790832
 30
0.0
 11
149.0101576235
 21
94.3344790832
 31
0.0
  0
ARC
  5
328
330
1F
100
AcDbEntity
  8
0
  6
Continuous
 62
     7
370
    15
100
AcDbCircle
 10
149.0101567924
 20
95.3344783165
 30
0.0
 40
1.0
100
AcDbArc
 50
180.0
 51
270.0
  0
LINE
  5
329
330
1F
100
AcDbEntity
  8
0
  6
Continuous
 62
     7
370
    15
100
AcDbLine
 10
148.0101574596
 20
100.334478204
 30
0.0
 11
148.0101574596
 21
95.3344792471
 31
0.0
  0
ARC
  5
32A
330
1F
100
AcDbEntity
  8
0
  6
Continuous
 62
     7
370
    15
100
AcDbCircle
 10
147.5101567924
 20
100.3344783165
 30
0.0
 40
0.5
100
AcDbArc
 50
0.0
 51
90.0
  0
LINE
  5
32B
330
1F
100
AcDbEntity
  8
0
  6
Continuous
 62
     7
370
    15
100
AcDbLine
 10
142.120156848
 20
100.8344792173
 30
0.0
 11
147.5101564463
 21
100.8344792173
 31
0.0
  0
ARC
  5
32C
330
1F
100
AcDbEntity
  8
0
  6
Continuous
 62
     7
370
    15
100
AcDbCircle
 10
142.1201568859
 20
101.1344783165
 30
0.0
 40
0.3000000000016882
100
AcDbArc
 50
224.9999999994
 51
270.0
  0
LINE
  5
32D
330
1F
100
AcDbEntity
  8
0
  6
Continuous
 62
     7
370
    15
100
AcDbLine
 10
141.9080257799
 20
100.9223457769
 30
0.0
 11
141.6544713464
 21
101.1759002105
 31
0.0
  0
ARC
  5
32E
330
1F
100
AcDbEntity
  8
0
  6
Continuous
 62
     7
370
    15
100
AcDbCircle
 10
141.5130497439
 20
101.0344786774
 30
0.0
 40
0.2000000000017481
100
AcDbArc
 50
44.9999999995
 51
135.0000000005
  0
LINE
  5
32F
330
1F
100
AcDbEntity
  8
0
  6
Continuous
 62
     7
370
    15
100
AcDbLine
 10
141.3716286804
 20
101.1759002105
 30
0.0
 11
141.1180742469
 21
100.9223457769
 31
0.0
  0
ARC
  5
330
330
1F
100
AcDbEntity
  8
0
  6
Continuous
 62
     7
370
    15
100
AcDbCircle
 10
140.9059426018
 20
101.1344783165
 30
0.0
 40
0.3000000000014916
100
AcDbArc
 50
270.0
 51
315.0000000006
  0
LINE
  5
331
330
1F
100
AcDbEntity
  8
0
  6
Continuous
 62
     7
370
    15
100
AcDbLine
 10
135.510156342
 20
100.8344792173
 30
0.0
 11
140.9059431787
 21
100.8344792173
 31
0.0
  0
ARC
  5
332
330
1F
100
AcDbEntity
  8
0
  6
Continuous
 62
     7
370
    15
100
AcDbCircle
 10
135.5101567924
 20
100.3344783165
 30
0.0
 40
0.5
100
AcDbArc
 50
90.0
 51
180.0
  0
LINE
  5
333
330
1F
100
AcDbEntity
  8
0
  6
Continuous
 62
     7
370
    15
100
AcDbLine
 10
135.0101571914
 20
100.334478204
 30
0.0
 11
135.0101571914
 21
95.3344792471
 31
0.0
  0
ARC
  5
334
330
1F
100
AcDbEntity
  8
0
  6
Continuous
 62
     7
370
    15
100
AcDbCircle
 10
134.0101567924
 20
95.3344783165
 30
0.0
 40
1.0
100
AcDbArc
 50
270.0
 51
0.0
  0
LINE
  5
335
330
1F
100
AcDbEntity
  8
0
  6
Continuous
 62
     7
370
    15
100
AcDbLine
 10
121.7088852461
 20
94.3344790832
 30
0.0
 11
134.0101551648
 21
94.3344790832
 31
0.0
  0
ARC
  5
336
330
1F
100
AcDbEntity
  8
0
  6
Continuous
 62
     7
370
    15
100
AcDbCircle
 10
121.7088848175
 20
94.0344783165
 30
0.0
 40
0.3000000000006366
100
AcDbArc
 50
90.0
 51
180.0
  0
LINE
  5
337
330
1F
100
AcDbEntity
  8
0
  6
Continuous
 62
     7
370
    15
100
AcDbLine
 10
121.4088838931
 20
93.8344780699
 30
0.0
 11
121.4088838931
 21
94.0344777302
 31
0.0
  0
ARC
  5
338
330
1F
100
AcDbEntity
  8
0
  6
Continuous
 62
     7
370
    15
100
AcDbCircle
 10
121.1088848175
 20
93.8344783165
 30
0.0
 40
0.2999999999998835
100
AcDbArc
 50
270.0
 51
0.0
  0
LINE
  5
339
330
1F
100
AcDbEntity
  8
0
  6
Continuous
 62
     7
370
    15
100
AcDbLine
 10
121.1088862654
 20
93.5344785795
 30
0.0
 11
119.8130403098
 21
93.5344785795
 31
0.0
  0
LINE
  5
33A
330
1F
100
AcDbEntity
  8
0
  6
Continuous
 62
     7
370
    15
100
AcDbLine
 10
119.8130403098
 20
93.5344785795
 30
0.0
 11
119.8130403098
 21
95.5344789073
 31
0.0
  0
ARC
  5
33B
330
1F
100
AcDbEntity
  8
0
  6
Continuous
 62
     7
370
    15
100
AcDbCircle
 10
120.1130397439
 20
95.5344783165
 30
0.0
 40
0.3000000000001251
100
AcDbArc
 50
90.0
 51
180.0
  0
LINE
  5
33C
330
1F
100
AcDbEntity
  8
0
  6
Continuous
 62
     7
370
    15
100
AcDbLine
 10
120.1130379375
 20
95.8344783977
 30
0.0
 11
121.5101559099
 21
95.8344783977
 31
0.0
  0
ARC
  5
33D
330
1F
100
AcDbEntity
  8
0
  6
Continuous
 62
     7
370
    15
100
AcDbCircle
 10
121.5101567924
 20
96.3344783165
 30
0.0
 40
0.5
100
AcDbArc
 50
270.0
 51
0.0
  0
LINE
  5
33E
330
1F
100
AcDbEntity
  8
0
  6
Continuous
 62
     7
370
    15
100
AcDbLine
 10
122.0101569232
 20
96.3344775484
 30
0.0
 11
122.0101569232
 21
98.236158152
 31
0.0
  0
ARC
  5
33F
330
1F
100
AcDbEntity
  8
0
  6
Continuous
 62
     7
370
    15
100
AcDbCircle
 10
121.7601567924
 20
98.2361586785
 30
0.0
 40
0.25
100
AcDbArc
 50
0.0
 51
65.0000131941
  0
LINE
  5
340
330
1F
100
AcDbEntity
  8
0
  6
Continuous
 62
     7
370
    15
100
AcDbLine
 10
121.8658131
 20
98.4627358959
 30
0.0
 11
121.5545017656
 21
98.6079011456
 31
0.0
  0
ARC
  5
341
330
1F
100
AcDbEntity
  8
0
  6
Continuous
 62
     7
370
    15
100
AcDbCircle
 10
121.6601567924
 20
98.8344783165
 30
0.0
 40
0.2499999999999954
100
AcDbArc
 50
144.9998771545
 51
245.0000131941
  0
LINE
  5
342
330
1F
100
AcDbEntity
  8
0
  6
Continuous
 62
     7
370
    15
100
AcDbLine
 10
121.4553680655
 20
98.9778727636
 30
0.0
 11
121.9559017952
 21
99.6927038178
 31
0.0
  0
ARC
  5
343
330
1F
100
AcDbEntity
  8
0
  6
Continuous
 62
     7
370
    15
100
AcDbCircle
 10
121.7101567924
 20
99.8647781924
 30
0.0
 40
0.3000000000000104
100
AcDbArc
 50
324.9998771545
 51
0.0
  0
LINE
  5
344
330
1F
100
AcDbEntity
  8
0
  6
Continuous
 62
     7
370
    15
100
AcDbLine
 10
122.0101569232
 20
109.3344787479
 30
0.0
 11
122.0101569232
 21
99.864778702
 31
0.0
  0
LINE
  5
345
330
1F
100
AcDbEntity
  8
0
  6
Continuous
 62
     7
370
    15
100
AcDbLine
 10
122.0101569232
 20
109.3344787479
 30
0.0
 11
122.9255501565
 21
112.0806631044
 31
0.0
  0
LINE
  5
346
330
1F
100
AcDbEntity
  8
0
  6
Continuous
 62
     7
370
    15
100
AcDbLine
 10
148.7129614141
 20
147.0344789669
 30
0.0
 11
160.5270765174
 21
147.0344789669
 31
0.0
  0
ARC
  5
347
330
1F
100
AcDbEntity
  8
0
  6
Continuous
 62
     7
370
    15
100
AcDbCircle
 10
148.7129611001
 20
146.0344783165
 30
0.0
 40
1.000000000000028
100
AcDbArc
 50
90.0
 51
180.0
  0
LINE
  5
348
330
1F
100
AcDbEntity
  8
0
  6
Continuous
 62
     7
370
    15
100
AcDbLine
 10
147.7129612502
 20
145.0344786391
 30
0.0
 11
147.7129612502
 21
146.034478803
 31
0.0
  0
ARC
  5
349
330
1F
100
AcDbEntity
  8
0
  6
Continuous
 62
     7
370
    15
100
AcDbCircle
 10
146.7129611001
 20
145.0344783165
 30
0.0
 40
1.0
100
AcDbArc
 50
270.0
 51
0.0
  0
LINE
  5
34A
330
1F
100
AcDbEntity
  8
0
  6
Continuous
 62
     7
370
    15
100
AcDbLine
 10
145.5130394932
 20
144.0344784752
 30
0.0
 11
146.7129610862
 21
144.0344784752
 31
0.0
  0
LINE
  5
34B
330
1F
100
AcDbEntity
  8
0
  6
Continuous
 62
     7
370
    15
100
AcDbLine
 10
145.5130394932
 20
149.0344774321
 30
0.0
 11
145.5130394932
 21
144.0344784752
 31
0.0
  0
LINE
  5
34C
330
1F
100
AcDbEntity
  8
0
  6
Continuous
 62
     7
370
    15
100
AcDbLine
 10
159.0711953502
 20
149.0344774321
 30
0.0
 11
145.5130394932
 21
149.0344774321
 31
0.0
  0
ARC
  5
34D
330
1F
100
AcDbEntity
  8
0
  6
Continuous
 62
     7
370
    15
100
AcDbCircle
 10
159.0711954546
 20
150.0344783165
 30
0.0
 40
0.9999999999972147
100
AcDbArc
 50
269.9999999998
 51
20.0000000008
  0
LINE
  5
34E
330
1F
100
AcDbEntity
  8
0
  6
Continuous
 62
     7
370
    15
100
AcDbLine
 10
159.0705071028
 20
152.9601734475
 30
0.0
 11
160.0108881865
 21
150.376498361
 31
0.0
  0
ARC
  5
34F
330
1F
100
AcDbEntity
  8
0
  6
Continuous
 62
     7
370
    15
100
AcDbCircle
 10
158.1308143473
 20
152.6181541746
 30
0.0
 40
0.9999999999941459
100
AcDbArc
 50
20.0000000001
 51
85.115188255
  0
ARC
  5
350
330
1F
100
AcDbEntity
  8
0
  6
Continuous
 62
     7
370
    15
100
AcDbCircle
 10
145.7022134268
 20
7.1918325259
 30
0.0
 40
146.9564494947481
100
AcDbArc
 50
85.1151882549
 51
96.4510285439
  0
ARC
  5
351
330
1F
100
AcDbEntity
  8
0
  6
Continuous
 62
     7
370
    15
100
AcDbCircle
 10
129.3034292736
 20
152.2241221286
 30
0.0
 40
1.000000000001374
100
AcDbArc
 50
96.4510285449
 51
257.2848562498
  0
ARC
  5
352
330
1F
100
AcDbEntity
  8
0
  6
Continuous
 62
     7
370
    15
100
AcDbCircle
 10
128.3129611001
 20
147.8344783165
 30
0.0
 40
3.499999999999411
100
AcDbArc
 50
25.1506634125
 51
77.2848562497
  0
ARC
  5
353
330
1F
100
AcDbEntity
  8
0
  6
Continuous
 62
     7
370
    15
100
AcDbCircle
 10
131.9337344982
 20
149.5344783165
 30
0.0
 40
0.5000000000019611
100
AcDbArc
 50
205.1506634123
 51
270.0
  0
LINE
  5
354
330
1F
100
AcDbEntity
  8
0
  6
Continuous
 62
     7
370
    15
100
AcDbLine
 10
137.5130400445
 20
149.0344774321
 30
0.0
 11
131.9337342318
 21
149.0344774321
 31
0.0
  0
LINE
  5
355
330
1F
100
AcDbEntity
  8
0
  6
Continuous
 62
     7
370
    15
100
AcDbLine
 10
137.5130400445
 20
144.0344784752
 30
0.0
 11
137.5130400445
 21
149.0344774321
 31
0.0
  0
LINE
  5
356
330
1F
100
AcDbEntity
  8
0
  6
Continuous
 62
     7
370
    15
100
AcDbLine
 10
136.3129619893
 20
144.0344784752
 30
0.0
 11
137.5130400445
 21
144.0344784752
 31
0.0
  0
ARC
  5
357
330
1F
100
AcDbEntity
  8
0
  6
Continuous
 62
     7
370
    15
100
AcDbCircle
 10
136.3129611001
 20
145.0344783165
 30
0.0
 40
1.0
100
AcDbArc
 50
180.0
 51
270.0
  0
LINE
  5
358
330
1F
100
AcDbEntity
  8
0
  6
Continuous
 62
     7
370
    15
100
AcDbLine
 10
135.3129618253
 20
146.034478803
 30
0.0
 11
135.3129618253
 21
145.0344786391
 31
0.0
  0
ARC
  5
359
330
1F
100
AcDbEntity
  8
0
  6
Continuous
 62
     7
370
    15
100
AcDbCircle
 10
134.3129611001
 20
146.0344783165
 30
0.0
 40
1.0
100
AcDbArc
 50
0.0
 51
90.0
  0
LINE
  5
35A
330
1F
100
AcDbEntity
  8
0
  6
Continuous
 62
     7
370
    15
100
AcDbLine
 10
131.3461106654
 20
147.0344789669
 30
0.0
 11
134.3129616614
 21
147.0344789669
 31
0.0
  0
ARC
  5
35B
330
1F
100
AcDbEntity
  8
0
  6
Continuous
 62
     7
370
    15
100
AcDbCircle
 10
131.3461112777
 20
146.5344783165
 30
0.0
 40
0.4999999999744205
100
AcDbArc
 50
90.0
 51
156.8001568167
  0
ARC
  5
35C
330
1F
100
AcDbEntity
  8
0
  6
Continuous
 62
     7
370
    15
100
AcDbCircle
 10
128.3129611001
 20
147.8344783165
 30
0.0
 40
2.800000000004765
100
AcDbArc
 50
315.1064221063
 51
336.8001568167
  0
ARC
  5
35D
330
1F
100
AcDbEntity
  8
0
  6
Continuous
 62
     7
370
    15
100
AcDbCircle
 10
129.8360618474
 20
146.3170251497
 30
0.0
 40
0.6500000000039624
100
AcDbArc
 50
135.1064221063
 51
315.1064221063
  0
ARC
  5
35E
330
1F
100
AcDbEntity
  8
0
  6
Continuous
 62
     7
370
    15
100
AcDbCircle
 10
128.3129611001
 20
147.8344783165
 30
0.0
 40
1.499999999996914
100
AcDbArc
 50
315.1064221064
 51
219.9117488901
  0
ARC
  5
35F
330
1F
100
AcDbEntity
  8
0
  6
Continuous
 62
     7
370
    15
100
AcDbCircle
 10
126.6638388557
 20
146.4550234159
 30
0.0
 40
0.6500000000040836
100
AcDbArc
 50
219.9117488898
 51
39.9117488903
  0
ARC
  5
360
330
1F
100
AcDbEntity
  8
0
  6
Continuous
 62
     7
370
    15
100
AcDbCircle
 10
128.3129611001
 20
147.8344783165
 30
0.0
 40
2.8000000000051
100
AcDbArc
 50
139.0962389452
 51
219.9117488901
  0
ARC
  5
361
330
1F
100
AcDbEntity
  8
0
  6
Continuous
 62
     7
370
    15
100
AcDbCircle
 10
125.289719146
 20
150.4536400311
 30
0.0
 40
1.199999999998735
100
AcDbArc
 50
319.0962389452
 51
120.4865331318
  0
ARC
  5
362
330
1F
100
AcDbEntity
  8
0
  6
Continuous
 62
     7
370
    15
100
AcDbCircle
 10
133.8129611001
 20
135.9762664229
 30
0.0
 40
17.99999999999811
100
AcDbArc
 50
120.4865331319
 51
180.0
  0
LINE
  5
363
330
1F
100
AcDbEntity
  8
0
  6
Continuous
 62
     7
370
    15
100
AcDbLine
 10
115.812961423
 20
133.2344781951
 30
0.0
 11
115.812961423
 21
135.976266709
 31
0.0
  0
ARC
  5
364
330
1F
100
AcDbEntity
  8
0
  6
Continuous
 62
     7
370
    15
100
AcDbCircle
 10
116.8129611001
 20
133.2344783165
 30
0.0
 40
1.0
100
AcDbArc
 50
180.0
 51
270.0
  0
LINE
  5
365
330
1F
100
AcDbEntity
  8
0
  6
Continuous
 62
     7
370
    15
100
AcDbLine
 10
121.5130392846
 20
132.2344780312
 30
0.0
 11
116.8129597243
 21
132.2344780312
 31
0.0
  0
LINE
  5
366
330
1F
100
AcDbEntity
  8
0
  6
Continuous
 62
     7
370
    15
100
AcDbLine
 10
121.5130392846
 20
130.234478169
 30
0.0
 11
121.5130392846
 21
132.2344780312
 31
0.0
  0
LINE
  5
367
330
1F
100
AcDbEntity
  8
0
  6
Continuous
 62
     7
370
    15
100
AcDbLine
 10
116.8129597243
 20
130.234478169
 30
0.0
 11
121.5130392846
 21
130.234478169
 31
0.0
  0
ARC
  5
368
330
1F
100
AcDbEntity
  8
0
  6
Continuous
 62
     7
370
    15
100
AcDbCircle
 10
116.8129611001
 20
129.2344783165
 30
0.0
 40
1.0
100
AcDbArc
 50
90.0
 51
180.0
  0
ARC
  5
369
330
1F
100
AcDbEntity
  8
0
  6
Continuous
 62
     7
370
    15
100
AcDbCircle
 10
133.8129611001
 20
135.9762664229
 30
0.0
 40
19.99999999999019
100
AcDbArc
 50
127.5531560984
 51
180.0
  0
ARC
  5
36A
330
1F
100
AcDbEntity
  8
0
  6
Continuous
 62
     7
370
    15
100
AcDbCircle
 10
121.3182685076
 20
152.228424957
 30
0.0
 40
0.5000000000000565
100
AcDbArc
 50
307.5531560984
 51
338.2379137599
  0
LINE
  5
36B
330
1F
100
AcDbEntity
  8
0
  6
Continuous
 62
     7
370
    15
100
AcDbLine
 10
122.2204123076
 20
153.1396728352
 30
0.0
 11
121.7826348182
 21
152.0430479542
 31
0.0
  0
ARC
  5
36C
330
1F
100
AcDbEntity
  8
0
  6
Continuous
 62
     7
370
    15
100
AcDbCircle
 10
122.6847772321
 20
152.9542970448
 30
0.0
 40
0.500000000000003
100
AcDbArc
 50
123.2426810086
 51
158.2379137599
  0
ARC
  5
36D
330
1F
100
AcDbEntity
  8
0
  6
Continuous
 62
     7
370
    15
100
AcDbCircle
 10
133.8129611001
 20
135.9762664229
 30
0.0
 40
20.80000000000961
100
AcDbArc
 50
117.2331465111
 51
123.2426810086
  0
ARC
  5
36E
330
1F
100
AcDbEntity
  8
0
  6
Continuous
 62
     7
370
    15
100
AcDbCircle
 10
124.5234295441
 20
154.0260476811
 30
0.0
 40
0.5000000000000248
100
AcDbArc
 50
82.2379137599
 51
117.2331465111
  0
LINE
  5
36F
330
1F
100
AcDbEntity
  8
0
  6
Continuous
 62
     7
370
    15
100
AcDbLine
 10
124.5909598108
 20
154.521466826
 30
0.0
 11
125.7609170314
 21
154.3619908736
 31
0.0
  0
ARC
  5
370
330
1F
100
AcDbEntity
  8
0
  6
Continuous
 62
     7
370
    15
100
AcDbCircle
 10
125.8284484
 20
154.8574093157
 30
0.0
 40
0.5000000000013366
100
AcDbArc
 50
262.2379137599
 51
292.9226714214
  0
ARC
  5
371
330
1F
100
AcDbEntity
  8
0
  6
Continuous
 62
     7
370
    15
100
AcDbCircle
 10
133.8129611001
 20
135.9762664229
 30
0.0
 40
19.99999999999032
100
AcDbArc
 50
105.3611782776
 51
112.9226714214
  0
ARC
  5
372
330
1F
100
AcDbEntity
  8
0
  6
Continuous
 62
     7
370
    15
100
AcDbCircle
 10
128.3824533421
 20
155.7439062792
 30
0.0
 40
0.4999999999998019
100
AcDbArc
 50
285.3611782783
 51
329.9999999999
  0
LINE
  5
373
330
1F
100
AcDbEntity
  8
0
  6
Continuous
 62
     7
370
    15
100
AcDbLine
 10
129.3817092117
 20
156.4746663318
 30
0.0
 11
128.8154650863
 21
155.4939054296
 31
0.0
  0
ARC
  5
374
330
1F
100
AcDbEntity
  8
0
  6
Continuous
 62
     7
370
    15
100
AcDbCircle
 10
129.8147212512
 20
156.2246670679
 30
0.0
 40
0.4999999999988606
100
AcDbArc
 50
90.0
 51
149.9999999999
  0
LINE
  5
375
330
1F
100
AcDbEntity
  8
0
  6
Continuous
 62
     7
370
    15
100
AcDbLine
 10
129.8147220548
 20
156.7246668384
 30
0.0
 11
132.5882379349
 21
156.7246668384
 31
0.0
  0
ARC
  5
376
330
1F
100
AcDbEntity
  8
0
  6
Continuous
 62
     7
370
    15
100
AcDbCircle
 10
132.5882361707
 20
156.2246670679
 30
0.0
 40
0.5000000000024198
100
AcDbArc
 50
34.9999999996
 51
90.0
  0
LINE
  5
377
330
1F
100
AcDbEntity
  8
0
  6
Continuous
 62
     7
370
    15
100
AcDbLine
 10
132.9978112515
 20
156.5114535735
 30
0.0
 11
133.4985200699
 21
155.7963691995
 31
0.0
  0
ARC
  5
378
330
1F
100
AcDbEntity
  8
0
  6
Continuous
 62
     7
370
    15
100
AcDbCircle
 10
133.7442665473
 20
155.9684420263
 30
0.0
 40
0.2999999999944423
100
AcDbArc
 50
215.0000000007
 51
275.6666653824
  0
ARC
  5
379
330
1F
100
AcDbEntity
  8
0
  6
Continuous
 62
     7
370
    15
100
AcDbCircle
 10
145.7022134268
 20
7.1918325259
 30
0.0
 40
148.9564494947483
100
AcDbArc
 50
87.1352420404
 51
94.5931225377
  0
ARC
  5
37A
330
1F
100
AcDbEntity
  8
0
  6
Continuous
 62
     7
370
    15
100
AcDbCircle
 10
153.1618460843
 20
156.2617543626
 30
0.0
 40
0.2999999999999779
100
AcDbArc
 50
267.1352420405
 51
325.0000000001
  0
LINE
  5
37B
330
1F
100
AcDbEntity
  8
0
  6
Continuous
 62
     7
370
    15
100
AcDbLine
 10
153.7029207136
 20
156.5114535735
 30
0.0
 11
153.407591806
 21
156.0896799312
 31
0.0
  0
ARC
  5
37C
330
1F
100
AcDbEntity
  8
0
  6
Continuous
 62
     7
370
    15
100
AcDbCircle
 10
154.112496952
 20
156.2246670679
 30
0.0
 40
0.5
100
AcDbArc
 50
90.0
 51
145.0000000001
  0
LINE
  5
37D
330
1F
100
AcDbEntity
  8
0
  6
Continuous
 62
     7
370
    15
100
AcDbLine
 10
154.1124968242
 20
156.7246668384
 30
0.0
 11
156.8635380279
 21
156.7246668384
 31
0.0
  0
ARC
  5
37E
330
1F
100
AcDbEntity
  8
0
  6
Continuous
 62
     7
370
    15
100
AcDbCircle
 10
156.8635382922
 20
156.2246670679
 30
0.0
 40
0.5
100
AcDbArc
 50
30.0000000003
 51
90.0
  0
LINE
  5
37F
330
1F
100
AcDbEntity
  8
0
  6
Continuous
 62
     7
370
    15
100
AcDbLine
 10
157.2965508711
 20
156.4746663318
 30
0.0
 11
157.6889468741
 21
155.7950169191
 31
0.0
  0
ARC
  5
380
330
1F
100
AcDbEntity
  8
0
  6
Continuous
 62
     7
370
    15
100
AcDbCircle
 10
157.9487546633
 20
155.9450171759
 30
0.0
 40
0.3000000000001025
100
AcDbArc
 50
210.0000000006
 51
265.293571346
  0
ARC
  5
381
330
1F
100
AcDbEntity
  8
0
  6
Continuous
 62
     7
370
    15
100
AcDbCircle
 10
145.7022134268
 20
7.1918325259
 30
0.0
 40
148.956449494747
100
AcDbArc
 50
77.8649710527
 51
85.2935713453
  0
ARC
  5
382
330
1F
100
AcDbEntity
  8
0
  6
Continuous
 62
     7
370
    15
100
AcDbCircle
 10
177.0783537045
 20
153.1131316465
 30
0.0
 40
0.3000000000000245
100
AcDbArc
 50
257.8649710527
 51
305.994817888
  0
LINE
  5
383
330
1F
100
AcDbEntity
  8
0
  6
Continuous
 62
     7
370
    15
100
AcDbLine
 10
177.2546669852
 20
152.8704107151
 30
0.0
 11
178.0464383226
 21
153.4455564216
 31
0.0
  0
ARC
  5
384
330
1F
100
AcDbEntity
  8
0
  6
Continuous
 62
     7
370
    15
100
AcDbCircle
 10
178.3402946068
 20
153.0410215962
 30
0.0
 40
0.499999999999998
100
AcDbArc
 50
77.3861853386
 51
125.994817888
  0
ARC
  5
385
330
1F
100
AcDbEntity
  8
0
  6
Continuous
 62
     7
370
    15
100
AcDbCircle
 10
145.7022134268
 20
7.1918325259
 30
0.0
 40
149.9564494947481
100
AcDbArc
 50
76.6034504373
 51
77.3861853387
  0
ARC
  5
386
330
1F
100
AcDbEntity
  8
0
  6
Continuous
 62
     7
370
    15
100
AcDbCircle
 10
180.3296767381
 20
152.5815470184
 30
0.0
 40
0.5000000000000516
100
AcDbArc
 50
27.994817888
 51
76.6034504373
  0
LINE
  5
387
330
1F
100
AcDbEntity
  8
0
  6
Continuous
 62
     7
370
    15
100
AcDbLine
 10
180.7711715262
 20
152.8162431315
 30
0.0
 11
181.2305277597
 21
151.9521322445
 31
0.0
  0
ARC
  5
388
330
1F
100
AcDbEntity
  8
0
  6
Continuous
 62
     7
370
    15
100
AcDbCircle
 10
181.4954243101
 20
152.0929497419
 30
0.0
 40
0.2999999999999251
100
AcDbArc
 50
207.994817888
 51
256.1246647233
  0
ARC
  5
389
330
1F
100
AcDbEntity
  8
0
  6
Continuous
 62
     7
370
    15
100
AcDbCircle
 10
145.7022134268
 20
7.1918325259
 30
0.0
 40
148.9564494947473
100
AcDbArc
 50
74.0172208389
 51
76.1246647233
  0
ARC
  5
38A
330
1F
100
AcDbEntity
  8
0
  6
Continuous
 62
     7
370
    15
100
AcDbCircle
 10
186.6345328441
 20
150.101892366
 30
0.0
 40
0.3000000000000019
100
AcDbArc
 50
348.4301347746
 51
74.0172208389
  0
LINE
  5
38B
330
1F
100
AcDbEntity
  8
0
  6
Continuous
 62
     7
370
    15
100
AcDbLine
 10
186.928436571
 20
150.0417232857
 30
0.0
 11
186.7735185113
 21
149.2850032047
 31
0.0
  0
ARC
  5
38C
330
1F
100
AcDbEntity
  8
0
  6
Continuous
 62
     7
370
    15
100
AcDbCircle
 10
187.7532001677
 20
149.084439782
 30
0.0
 40
1.000000000000056
100
AcDbArc
 50
168.4301347747
 51
244.5653556437
  0
LINE
  5
38D
330
1F
100
AcDbEntity
  8
0
  6
Continuous
 62
     7
370
    15
100
AcDbLine
 10
188.7695439543
 20
147.4937644199
 30
0.0
 11
187.323719674
 21
148.181363602
 31
0.0
  0
ARC
  5
38E
330
1F
100
AcDbEntity
  8
0
  6
Continuous
 62
     7
370
    15
100
AcDbCircle
 10
188.9387474405
 20
146.3057532509
 30
0.0
 40
1.200000000000017
100
AcDbArc
 50
345.5725211338
 51
98.1058930927
  0
ARC
  5
38F
330
1F
100
AcDbEntity
  8
0
  6
Continuous
 62
     7
370
    15
100
AcDbCircle
 10
189.8103648415
 20
146.0815143019
 30
0.0
 40
0.3000000000000196
100
AcDbArc
 50
303.0199999998
 51
345.5725211338
  0
LINE
  5
390
330
1F
100
AcDbEntity
  8
0
  6
Continuous
 62
     7
370
    15
100
AcDbLine
 10
189.9738446262
 20
145.8299696789
 30
0.0
 11
188.953180277
 21
145.1666370378
 31
0.0
  0
ARC
  5
391
330
1F
100
AcDbEntity
  8
0
  6
Continuous
 62
     7
370
    15
100
AcDbCircle
 10
188.7897007843
 20
145.4181806656
 30
0.0
 40
0.2999999999999051
100
AcDbArc
 50
260.4674788662
 51
303.02
  0
ARC
  5
392
330
1F
100
AcDbEntity
  8
0
  6
Continuous
 62
     7
370
    15
100
AcDbCircle
 10
188.9387474405
 20
146.3057532509
 30
0.0
 40
1.200000000000031
100
AcDbArc
 50
241.8745052877
 51
260.4674788662
  0
LINE
  5
393
330
1F
100
AcDbEntity
  8
0
  6
Continuous
 62
     7
370
    15
100
AcDbLine
 10
178.7731726106
 20
150.378808041
 30
0.0
 11
188.3730613079
 21
145.2474534855
 31
0.0
  0
ARC
  5
394
330
1F
100
AcDbEntity
  8
0
  6
Continuous
 62
     7
370
    15
100
AcDbCircle
 10
145.7022134268
 20
7.1918325259
 30
0.0
 40
146.9564494947472
100
AcDbArc
 50
76.994817888
 51
82.7295378586
  0
ARC
  5
395
330
1F
100
AcDbEntity
  8
0
  6
Continuous
 62
     7
370
    15
100
AcDbCircle
 10
164.0469214116
 20
150.9828056051
 30
0.0
 40
1.999999999999294
100
AcDbArc
 50
82.7295378596
 51
200.0000000013
  0
LINE
  5
396
330
1F
100
AcDbEntity
  8
0
  6
Continuous
 62
     7
370
    15
100
AcDbLine
 10
167.1023258275
 20
136.7405416787
 30
0.0
 11
162.16753604
 21
150.298764591
 31
0.0
  0
ARC
  5
397
330
1F
100
AcDbEntity
  8
0
  6
Continuous
 62
     7
370
    15
100
AcDbCircle
 10
148.3084734245
 20
129.9001392633
 30
0.0
 40
20.00000000000612
100
AcDbArc
 50
13.8647791311
 51
20.0
  0
LINE
  5
398
330
1F
100
AcDbEntity
  8
0
  6
Continuous
 62
     7
370
    15
100
AcDbLine
 10
167.7257528679
 20
134.6927645028
 30
0.0
 11
168.5237080708
 21
131.459856999
 31
0.0
  0
ARC
  5
399
330
1F
100
AcDbEntity
  8
0
  6
Continuous
 62
     7
370
    15
100
AcDbCircle
 10
169.4945720007
 20
131.699487854
 30
0.0
 40
0.9999999999997776
100
AcDbArc
 50
193.8647791309
 51
270.0
  0
LINE
  5
39A
330
1F
100
AcDbEntity
  8
0
  6
Continuous
 62
     7
370
    15
100
AcDbLine
 10
171.435183325
 20
130.6994879962
 30
0.0
 11
169.4945720408
 21
130.6994879962
 31
0.0
  0
ARC
  5
39B
330
1F
100
AcDbEntity
  8
0
  6
Continuous
 62
     7
370
    15
100
AcDbCircle
 10
172.0985082552
 20
129.699487854
 30
0.0
 40
1.199999999999413
100
AcDbArc
 50
16.6579293836
 51
123.5573097619
  0
ARC
  5
39C
330
1F
100
AcDbEntity
  8
0
  6
Continuous
 62
     7
370
    15
100
AcDbCircle
 10
172.9607381685
 20
129.9574792813
 30
0.0
 40
0.2999999999999978
100
AcDbArc
 50
331.1399999984
 51
16.65792938
  0
LINE
  5
39D
330
1F
100
AcDbEntity
  8
0
  6
Continuous
 62
     7
370
    15
100
AcDbLine
 10
172.6036103826
 20
128.6879336805
 30
0.0
 11
173.2234786648
 21
129.812677984
 31
0.0
  0
ARC
  5
39E
330
1F
100
AcDbEntity
  8
0
  6
Continuous
 62
     7
370
    15
100
AcDbCircle
 10
172.3408699892
 20
128.8327348385
 30
0.0
 40
0.299999999992379
100
AcDbArc
 50
285.6220706154
 51
331.14
  0
ARC
  5
39F
330
1F
100
AcDbEntity
  8
0
  6
Continuous
 62
     7
370
    15
100
AcDbCircle
 10
172.0985082552
 20
129.699487854
 30
0.0
 40
1.199999999999994
100
AcDbArc
 50
270.0
 51
285.6220706153
  0
LINE
  5
3A0
330
1F
100
AcDbEntity
  8
0
  6
Continuous
 62
     7
370
    15
100
AcDbLine
 10
169.274000629
 20
128.4994880081
 30
0.0
 11
172.0985080499
 21
128.4994880081
 31
0.0
  0
ARC
  5
3A1
330
1F
100
AcDbEntity
  8
0
  6
Continuous
 62
     7
370
    15
100
AcDbCircle
 10
169.2740006825
 20
127.499487854
 30
0.0
 40
1.000000000000043
100
AcDbArc
 50
90.0
 51
195.9999546878
  0
LINE
  5
3A2
330
1F
100
AcDbEntity
  8
0
  6
Continuous
 62
     7
370
    15
100
AcDbLine
 10
168.3127388276
 20
127.2238512867
 30
0.0
 11
172.1289711457
 21
113.915026781
 31
0.0
  0
ARC
  5
3A3
330
1F
100
AcDbEntity
  8
0
  6
Continuous
 62
     7
370
    15
100
AcDbCircle
 10
172.4173499371
 20
113.9977178428
 30
0.0
 40
0.3000000000007163
100
AcDbArc
 50
195.9999546878
 51
308.7739668345
  0
ARC
  5
3A4
330
1F
100
AcDbEntity
  8
0
  6
Continuous
 62
     7
370
    15
100
AcDbCircle
 10
174.3587238311
 20
111.5808878107
 30
0.0
 40
2.800000000056725
100
AcDbArc
 50
62.5973366086
 51
128.7739668345
  0
ARC
  5
3A5
330
1F
100
AcDbEntity
  8
0
  6
Continuous
 62
     7
370
    15
100
AcDbCircle
 10
175.3482420979
 20
113.4896448931
 30
0.0
 40
0.6500000000283906
100
AcDbArc
 50
242.5973366086
 51
62.5973366086
  0
ARC
  5
3A6
330
1F
100
AcDbEntity
  8
0
  6
Continuous
 62
     7
370
    15
100
AcDbCircle
 10
174.3587238311
 20
111.5808878107
 30
0.0
 40
1.499999999999962
100
AcDbArc
 50
62.5973366086
 51
327.4026633914
  0
ARC
  5
3A7
330
1F
100
AcDbEntity
  8
0
  6
Continuous
 62
     7
370
    15
100
AcDbCircle
 10
176.1700503289
 20
110.4226148211
 30
0.0
 40
0.6499999999905676
100
AcDbArc
 50
327.4026633914
 51
147.4026633914
  0
ARC
  5
3A8
330
1F
100
AcDbEntity
  8
0
  6
Continuous
 62
     7
370
    15
100
AcDbCircle
 10
174.3587238311
 20
111.5808878107
 30
0.0
 40
2.799999999981035
100
AcDbArc
 50
263.225980123
 51
327.4026633914
  0
ARC
  5
3A9
330
1F
100
AcDbEntity
  8
0
  6
Continuous
 62
     7
370
    15
100
AcDbCircle
 10
173.9930673389
 20
108.5025286163
 30
0.0
 40
0.3000000000000485
100
AcDbArc
 50
83.225980123
 51
195.9995251567
  0
LINE
  5
3AA
330
1F
100
AcDbEntity
  8
0
  6
Continuous
 62
     7
370
    15
100
AcDbLine
 10
176.7939230811
 20
98.4344777063
 30
0.0
 11
189.0280940022
 21
98.4344777063
 31
0.0
  0
LINE
  5
3AB
330
1F
100
AcDbEntity
  8
0
  6
Continuous
 62
     7
370
    15
100
AcDbLine
 10
204.469513559
 20
98.0758998886
 30
0.0
 11
204.1695159312
 21
98.375899379
 31
0.0
  0
ARC
  5
3AC
330
1F
100
AcDbEntity
  8
0
  6
Continuous
 62
     7
370
    15
100
AcDbCircle
 10
204.6109367711
 20
98.2173210289
 30
0.0
 40
0.2000000000016777
100
AcDbArc
 50
224.9999999994
 51
315.0000000006
  0
LINE
  5
3AD
330
1F
100
AcDbEntity
  8
0
  6
Continuous
 62
     7
370
    15
100
AcDbLine
 10
205.1937807735
 20
98.4344777063
 30
0.0
 11
211.9110938545
 21
98.4344777063
 31
0.0
  0
ARC
  5
3AE
330
1F
100
AcDbEntity
  8
0
  6
Continuous
 62
     7
370
    15
100
AcDbCircle
 10
211.9110951668
 20
98.9344783165
 30
0.0
 40
0.5
100
AcDbArc
 50
270.0
 51
0.0
  0
LINE
  5
3AF
330
1F
100
AcDbEntity
  8
0
  6
Continuous
 62
     7
370
    15
100
AcDbLine
 10
212.4110948678
 20
100.4321050242
 30
0.0
 11
212.4110948678
 21
98.9344787196
 31
0.0
  0
ARC
  5
3B0
330
1F
100
AcDbEntity
  8
0
  6
Continuous
 62
     7
370
    15
100
AcDbCircle
 10
216.8110951668
 20
98.9344783165
 30
0.0
 40
0.5000000000000142
100
AcDbArc
 50
270.0
 51
0.0
  0
LINE
  5
3B1
330
1F
100
AcDbEntity
  8
0
  6
Continuous
 62
     7
370
    15
100
AcDbLine
 10
217.3110958572
 20
100.6710525945
 30
0.0
 11
217.3110958572
 21
98.9344787196
 31
0.0
  0
ARC
  5
3B2
330
1F
100
AcDbEntity
  8
0
  6
Continuous
 62
     7
370
    15
100
AcDbCircle
 10
216.8110951668
 20
100.6710530032
 30
0.0
 40
0.4999999999999739
100
AcDbArc
 50
0.0
 51
45.0
  0
ARC
  5
3B3
330
1F
100
AcDbEntity
  8
0
  6
Continuous
 62
     7
370
    15
100
AcDbCircle
 10
197.8770741266
 20
95.6344783165
 30
0.0
 40
0.4000000000001295
100
AcDbArc
 50
270.0
 51
330.0
  0
LINE
  5
3B4
330
1F
100
AcDbEntity
  8
0
  6
Continuous
 62
     7
370
    15
100
AcDbLine
 10
196.3389538612
 20
95.2344775543
 30
0.0
 11
197.877075934
 21
95.2344775543
 31
0.0
  0
ARC
  5
3B5
330
1F
100
AcDbEntity
  8
0
  6
Continuous
 62
     7
370
    15
100
AcDbCircle
 10
196.338954342
 20
95.6344783165
 30
0.0
 40
0.4000000000001052
100
AcDbArc
 50
210.0
 51
270.0
  0
LINE
  5
3B6
330
1F
100
AcDbEntity
  8
0
  6
Continuous
 62
     7
370
    15
100
AcDbLine
 10
175.4049336921
 20
95.2344775543
 30
0.0
 11
176.6049335163
 21
95.2344775543
 31
0.0
  0
ARC
  5
3B7
330
1F
100
AcDbEntity
  8
0
  6
Continuous
 62
     7
370
    15
100
AcDbCircle
 10
164.6152907501
 20
129.2344783165
 30
0.0
 40
1.0
100
AcDbArc
 50
16.0
 51
90.0
  0
LINE
  5
3B8
330
1F
100
AcDbEntity
  8
0
  6
Continuous
 62
     7
370
    15
100
AcDbLine
 10
161.5130397875
 20
130.234478169
 30
0.0
 11
164.6152907668
 21
130.234478169
 31
0.0
  0
LINE
  5
3B9
330
1F
100
AcDbEntity
  8
0
  6
Continuous
 62
     7
370
    15
100
AcDbLine
 10
161.5130397875
 20
132.2344780312
 30
0.0
 11
161.5130397875
 21
130.234478169
 31
0.0
  0
LINE
  5
3BA
330
1F
100
AcDbEntity
  8
0
  6
Continuous
 62
     7
370
    15
100
AcDbLine
 10
164.9956597865
 20
132.2344780312
 30
0.0
 11
161.5130397875
 21
132.2344780312
 31
0.0
  0
ARC
  5
3BB
330
1F
100
AcDbEntity
  8
0
  6
Continuous
 62
     7
370
    15
100
AcDbCircle
 10
164.9956598398
 20
133.2344783165
 30
0.0
 40
0.9999999999980389
100
AcDbArc
 50
269.9999999994
 51
13.8647791285
  0
LINE
  5
3BC
330
1F
100
AcDbEntity
  8
0
  6
Continuous
 62
     7
370
    15
100
AcDbLine
 10
165.7840249279
 20
134.2135021806
 30
0.0
 11
165.9665238147
 21
133.4741093562
 31
0.0
  0
ARC
  5
3BD
330
1F
100
AcDbEntity
  8
0
  6
Continuous
 62
     7
370
    15
100
AcDbCircle
 10
148.3084734245
 20
129.9001392633
 30
0.0
 40
18.00000000000257
100
AcDbArc
 50
13.8647791311
 51
20.0
  0
LINE
  5
3BE
330
1F
100
AcDbEntity
  8
0
  6
Continuous
 62
     7
370
    15
100
AcDbLine
 10
161.466768888
 20
146.3764977053
 30
0.0
 11
165.2229405625
 21
136.0565020115
 31
0.0
  0
ARC
  5
3BF
330
1F
100
AcDbEntity
  8
0
  6
Continuous
 62
     7
370
    15
100
AcDbCircle
 10
160.5270763917
 20
146.0344783165
 30
0.0
 40
1.000000000001933
100
AcDbArc
 50
19.9999999999
 51
90.0
  0
LINE
  5
3C0
330
1F
100
AcDbEntity
  8
0
  6
Continuous
 62
     7
370
    15
100
AcDbLine
 10
214.4110951956
 20
98.4344777063
 30
0.0
 11
216.811094844
 21
98.4344777063
 31
0.0
  0
ARC
  5
3C1
330
1F
100
AcDbEntity
  8
0
  6
Continuous
 62
     7
370
    15
100
AcDbCircle
 10
214.4110951668
 20
98.9344783165
 30
0.0
 40
0.5000000000000142
100
AcDbArc
 50
180.0
 51
270.0
  0
LINE
  5
3C2
330
1F
100
AcDbEntity
  8
0
  6
Continuous
 62
     7
370
    15
100
AcDbLine
 10
213.9110941823
 20
98.9344787196
 30
0.0
 11
213.9110941823
 21
100.4321050242
 31
0.0
  0
ARC
  5
3C3
330
1F
100
AcDbEntity
  8
0
  6
Continuous
 62
     7
370
    15
100
AcDbCircle
 10
213.6110951668
 20
100.4321052878
 30
0.0
 40
0.2999999999998835
100
AcDbArc
 50
0.0
 51
90.0
  0
LINE
  5
3C4
330
1F
100
AcDbEntity
  8
0
  6
Continuous
 62
     7
370
    15
100
AcDbLine
 10
213.6110965546
 20
100.7321045146
 30
0.0
 11
212.7110962208
 21
100.7321045146
 31
0.0
  0
ARC
  5
3C5
330
1F
100
AcDbEntity
  8
0
  6
Continuous
 62
     7
370
    15
100
AcDbCircle
 10
212.7110951668
 20
100.4321052878
 30
0.0
 40
0.3000000000001108
100
AcDbArc
 50
90.0
 51
180.0
  0
ARC
  5
3C6
330
1F
100
AcDbEntity
  8
0
  6
Continuous
 62
     7
370
    15
100
AcDbCircle
 10
217.0110951668
 20
96.3344783165
 30
0.0
 40
0.3000000000045304
100
AcDbArc
 50
0.0
 51
90.0
  0
ARC
  5
3C7
330
1F
100
AcDbEntity
  8
0
  6
Continuous
 62
     7
370
    15
100
AcDbCircle
 10
205.1937794836
 20
98.2344783165
 30
0.0
 40
0.199999999997608
100
AcDbArc
 50
90.0
 51
134.9999999984
  0
LINE
  5
3C8
330
1F
100
AcDbEntity
  8
0
  6
Continuous
 62
     7
370
    15
100
AcDbLine
 10
204.7523599502
 20
98.0758998886
 30
0.0
 11
205.0523575779
 21
98.375899379
 31
0.0
  0
ARC
  5
3C9
330
1F
100
AcDbEntity
  8
0
  6
Continuous
 62
     7
370
    15
100
AcDbCircle
 10
216.6768943752
 20
102.2194673572
 30
0.0
 40
0.5000000000000844
100
AcDbArc
 50
129.3607338525
 51
225.0
  0
ARC
  5
3CA
330
1F
100
AcDbEntity
  8
0
  6
Continuous
 62
     7
370
    15
100
AcDbCircle
 10
204.0280940586
 20
98.2344783165
 30
0.0
 40
0.1999999999982612
100
AcDbArc
 50
45.0000000016
 51
90.0
  0
LINE
  5
3CB
330
1F
100
AcDbEntity
  8
0
  6
Continuous
 62
     7
370
    15
100
AcDbLine
 10
190.1937801774
 20
98.4344777063
 30
0.0
 11
204.0280927356
 21
98.4344777063
 31
0.0
  0
ARC
  5
3CC
330
1F
100
AcDbEntity
  8
0
  6
Continuous
 62
     7
370
    15
100
AcDbCircle
 10
190.1937794836
 20
98.2344783165
 30
0.0
 40
0.1999999999981004
100
AcDbArc
 50
90.0
 51
134.9999999983
  0
LINE
  5
3CD
330
1F
100
AcDbEntity
  8
0
  6
Continuous
 62
     7
370
    15
100
AcDbLine
 10
189.7523574915
 20
98.0758998886
 30
0.0
 11
190.0523588445
 21
98.375899379
 31
0.0
  0
ARC
  5
3CE
330
1F
100
AcDbEntity
  8
0
  6
Continuous
 62
     7
370
    15
100
AcDbCircle
 10
189.6109367711
 20
98.2173210289
 30
0.0
 40
0.2000000000018083
100
AcDbArc
 50
224.9999999994
 51
315.0000000006
  0
LINE
  5
3CF
330
1F
100
AcDbEntity
  8
0
  6
Continuous
 62
     7
370
    15
100
AcDbLine
 10
189.4695148256
 20
98.0758998886
 30
0.0
 11
189.1695153352
 21
98.375899379
 31
0.0
  0
ARC
  5
3D0
330
1F
100
AcDbEntity
  8
0
  6
Continuous
 62
     7
370
    15
100
AcDbCircle
 10
189.0280940586
 20
98.2344783165
 30
0.0
 40
0.1999999999982713
100
AcDbArc
 50
45.0000000016
 51
90.0
  0
LINE
  5
3D1
330
1F
100
AcDbEntity
  8
0
  6
Continuous
 62
     7
370
    15
100
AcDbLine
 10
115.812961423
 20
129.2344784707
 30
0.0
 11
115.812961423
 21
97.7344788954
 31
0.0
  0
ARC
  5
3D2
330
1F
100
AcDbEntity
  8
0
  6
Continuous
 62
     7
370
    15
100
AcDbCircle
 10
176.7939230568
 20
98.7344783165
 30
0.0
 40
0.3000000000000106
100
AcDbArc
 50
196.0219534719
 51
270.0
  0
LINE
  5
3D3
330
1F
100
AcDbEntity
  8
0
  6
Continuous
 62
     7
370
    15
100
AcDbLine
 10
173.7046879169
 20
108.4198398859
 30
0.0
 11
176.5055762987
 21
98.6516770319
 31
0.0
  0
LINE
  5
3D4
330
1F
100
AcDbEntity
  8
0
  6
Continuous
 62
     7
370
    15
100
AcDbLine
 10
165.5765524518
 20
129.5101154939
 30
0.0
 11
175.4049336921
 21
95.2344775543
 31
0.0
  0
LINE
  5
3D5
330
1F
100
AcDbEntity
  8
0
  6
Continuous
 62
     7
370
    15
100
AcDbLine
 10
218.8110951718
 20
101.4462985442
 30
0.0
 11
218.8110951718
 21
95.2344775543
 31
0.0
  0
ARC
  5
3D6
330
1F
100
AcDbEntity
  8
0
  6
Continuous
 62
     7
370
    15
100
AcDbCircle
 10
176.6049333018
 20
95.5344783165
 30
0.0
 40
0.3000000000000966
100
AcDbArc
 50
270.0
 51
0.0
  0
LINE
  5
3D7
330
1F
100
AcDbEntity
  8
0
  6
Continuous
 62
     7
370
    15
100
AcDbLine
 10
176.9049330067
 20
96.3344775484
 30
0.0
 11
176.9049330067
 21
95.5344789073
 31
0.0
  0
ARC
  5
3D8
330
1F
100
AcDbEntity
  8
0
  6
Continuous
 62
     7
370
    15
100
AcDbCircle
 10
177.2049333018
 20
96.3344783165
 30
0.0
 40
0.2999999999998408
100
AcDbArc
 50
90.0
 51
180.0
  0
LINE
  5
3D9
330
1F
100
AcDbEntity
  8
0
  6
Continuous
 62
     7
370
    15
100
AcDbLine
 10
177.2049334284
 20
96.6344789014
 30
0.0
 11
195.068784469
 21
96.6344789014
 31
0.0
  0
ARC
  5
3DA
330
1F
100
AcDbEntity
  8
0
  6
Continuous
 62
     7
370
    15
100
AcDbCircle
 10
195.0687837497
 20
96.2344783165
 30
0.0
 40
0.3999999999997689
100
AcDbArc
 50
30.0000000001
 51
90.0
  0
LINE
  5
3DB
330
1F
100
AcDbEntity
  8
0
  6
Continuous
 62
     7
370
    15
100
AcDbLine
 10
195.9925447043
 20
95.4344790772
 30
0.0
 11
195.4151936259
 21
96.4344792411
 31
0.0
  0
LINE
  5
3DC
330
1F
100
AcDbEntity
  8
0
  6
Continuous
 62
     7
370
    15
100
AcDbLine
 10
113.8129610952
 20
135.976266709
 30
0.0
 11
113.8129610952
 21
97.7344788954
 31
0.0
  0
ARC
  5
3DD
330
1F
100
AcDbEntity
  8
0
  6
Continuous
 62
     7
370
    15
100
AcDbCircle
 10
114.8129611001
 20
97.7344783165
 30
0.0
 40
1.000000000000014
100
AcDbArc
 50
180.0000000001
 51
359.9999999999
  0
LINE
  5
3DE
330
1F
100
AcDbEntity
  8
0
  6
Continuous
 62
     7
370
    15
100
AcDbLine
 10
198.2234832283
 20
95.4344790772
 30
0.0
 11
198.8008361693
 21
96.4344792411
 31
0.0
  0
ARC
  5
3DF
330
1F
100
AcDbEntity
  8
0
  6
Continuous
 62
     7
370
    15
100
AcDbCircle
 10
199.1472447188
 20
96.2344783165
 30
0.0
 40
0.3999999999997514
100
AcDbArc
 50
90.0
 51
149.9999999999
  0
LINE
  5
3E0
330
1F
100
AcDbEntity
  8
0
  6
Continuous
 62
     7
370
    15
100
AcDbLine
 10
199.1472434636
 20
96.6344789014
 30
0.0
 11
217.0110945042
 21
96.6344789014
 31
0.0
  0
LINE
  5
3E1
330
1F
100
AcDbEntity
  8
0
  6
Continuous
 62
     7
370
    15
100
AcDbLine
 10
217.3110958572
 20
96.3344775484
 30
0.0
 11
217.3110958572
 21
95.5344789073
 31
0.0
  0
ARC
  5
3E2
330
1F
100
AcDbEntity
  8
0
  6
Continuous
 62
     7
370
    15
100
AcDbCircle
 10
217.6110951668
 20
95.5344783165
 30
0.0
 40
0.3000000000007788
100
AcDbArc
 50
180.0
 51
269.9999999994
  0
LINE
  5
3E3
330
1F
100
AcDbEntity
  8
0
  6
Continuous
 62
     7
370
    15
100
AcDbLine
 10
218.8110951718
 20
95.2344775543
 30
0.0
 11
217.611093485
 21
95.2344775543
 31
0.0
  0
ARC
  5
3E4
330
1F
100
AcDbEntity
  8
0
  6
Continuous
 62
     7
370
    15
100
AcDbCircle
 10
217.3110951668
 20
101.4462989694
 30
0.0
 40
1.499999999999834
100
AcDbArc
 50
0.0
 51
129.3607338529
  0
LINE
  5
3E5
330
1F
100
AcDbEntity
  8
0
  6
Continuous
 62
     7
370
    15
100
AcDbLine
 10
217.164647245
 20
101.0246068583
 30
0.0
 11
216.3233425852
 21
101.8659133807
 31
0.0
  0
LINE
  5
3E6
330
1F
100
AcDbEntity
  8
0
  6
Continuous
 62
     7
370
    15
100
AcDbLine
 10
137.5130400445
 20
149.0344774321
 30
0.0
 11
137.5170223799
 21
149.0344774321
 31
0.0
  0
LINE
  5
3E7
330
1F
100
AcDbEntity
  8
0
  6
Continuous
 62
     7
370
    15
100
AcDbLine
 10
144.8254365858
 20
149.0344774321
 30
0.0
 11
145.5130394932
 21
149.0344774321
 31
0.0
  0
LINE
  5
3E8
330
1F
100
AcDbEntity
  8
0
  6
Continuous
 62
     7
370
    15
100
AcDbLine
 10
144.7641201701
 20
144.0344784752
 30
0.0
 11
145.5130394932
 21
144.0344784752
 31
0.0
  0
LINE
  5
3E9
330
1F
100
AcDbEntity
  8
0
  6
Continuous
 62
     7
370
    15
100
AcDbLine
 10
137.5130400445
 20
144.0344784752
 30
0.0
 11
137.5170223799
 21
144.0344784752
 31
0.0
  0
LINE
  5
3EA
330
1F
100
AcDbEntity
  8
0
  6
Continuous
 62
     7
370
    15
100
AcDbLine
 10
161.5130397875
 20
130.234478169
 30
0.0
 11
160.5130396236
 21
130.234478169
 31
0.0
  0
LINE
  5
3EB
330
1F
100
AcDbEntity
  8
0
  6
Continuous
 62
     7
370
    15
100
AcDbLine
 10
121.5130392846
 20
132.2344780312
 30
0.0
 11
122.5130413111
 21
132.2344780312
 31
0.0
  0
LINE
  5
3EC
330
1F
100
AcDbEntity
  8
0
  6
Continuous
 62
     7
370
    15
100
AcDbLine
 10
160.5130396236
 20
132.2344780312
 30
0.0
 11
161.5130397875
 21
132.2344780312
 31
0.0
  0
LINE
  5
3ED
330
1F
100
AcDbEntity
  8
0
  6
Continuous
 62
     7
370
    15
100
AcDbLine
 10
121.5130392846
 20
130.234478169
 30
0.0
 11
122.5130413111
 21
130.234478169
 31
0.0
  0
LINE
  5
3EE
330
1F
100
AcDbEntity
  8
0
  6
Continuous
 62
     7
370
    15
100
AcDbLine
 10
144.9431986
 20
98.8344788895
 30
0.0
 11
138.0828809377
 21
98.8344788895
 31
0.0
  0
LINE
  5
3EF
330
1F
100
AcDbEntity
  8
0
  6
Continuous
 62
     7
370
    15
100
AcDbLine
 10
142.120156848
 20
100.8344792173
 30
0.0
 11
140.9059431787
 21
100.8344792173
 31
0.0
  0
SPLINE
  5
3F0
330
1F
100
AcDbEntity
  8
0
  6
Continuous
 62
     7
370
    15
100
AcDbSpline
210
0.0
220
0.0
230
1.0
 70
     8
 71
     3
 72
    18
 73
    14
 74
     0
 42
0.00000001
 43
0.00000001
 40
0.0
 40
0.0
 40
0.0
 40
0.0
 40
0.0334755128973785
 40
0.1418679110702286
 40
0.2499777210085534
 40
0.3575189052511549
 40
0.4645971212093143
 40
0.5713618082505559
 40
0.6780339451036053
 40
0.784867988825048
 40
0.8920556862726172
 40
0.9997450605341294
 40
1.0
 40
1.0
 40
1.0
 40
1.0
 10
142.4458589788435
 20
98.42486459469623
 30
0.0
 10
142.4493792140214
 20
98.42750977519788
 30
0.0
 10
142.4642978326755
 20
98.43871994644519
 30
0.0
 10
142.4649587925607
 20
98.45821568738286
 30
0.0
 10
142.4213200857555
 20
98.47960538275046
 30
0.0
 10
142.336634968378
 20
98.49477598373315
 30
0.0
 10
142.2214244908099
 20
98.50198404214534
 30
0.0
 10
142.0886846097596
 20
98.50052150346175
 30
0.0
 10
141.953198642658
 20
98.490573317284
 30
0.0
 10
141.8301677812622
 20
98.47335141000808
 30
0.0
 10
141.7323869435003
 20
98.45040761978424
 30
0.0
 10
141.6933763480295
 20
98.43382440088943
 30
0.0
 10
141.6797107980225
 20
98.4248857058235
 30
0.0
 10
141.6796785231588
 20
98.42486459469623
 30
0.0
  0
ARC
  5
3F1
330
1F
100
AcDbEntity
  8
0
  6
Continuous
 62
     7
370
    15
100
AcDbCircle
 10
141.0857086376
 20
99.2755484413
 30
0.0
 40
1.037527460769392
100
AcDbArc
 50
278.8328139546
 51
304.9237606028
  0
ARC
  5
3F2
330
1F
100
AcDbEntity
  8
0
  6
Continuous
 62
     7
370
    15
100
AcDbCircle
 10
141.6292899091
 20
107.5214655012
 30
0.0
 40
9.279100139119226
100
AcDbArc
 50
258.6177111707
 51
267.6265823665
  0
SPLINE
  5
3F3
330
1F
100
AcDbEntity
  8
0
  6
Continuous
 62
     7
370
    15
100
AcDbSpline
210
0.0
220
0.0
230
1.0
 70
     8
 71
     3
 72
    18
 73
    14
 74
     0
 42
0.00000001
 43
0.00000001
 40
0.0
 40
0.0
 40
0.0
 40
0.0
 40
0.0404591040823087
 40
0.148829250600496
 40
0.2568594715639761
 40
0.3246503100145456
 40
0.4313786637384541
 40
0.538123844845849
 40
0.6447663362351167
 40
0.7514784742908474
 40
0.8584940326262226
 40
0.9659879607231023
 40
1.0
 40
1.0
 40
1.0
 40
1.0
 10
139.5678729202507
 20
98.42486459469623
 30
0.0
 10
139.5521458706212
 20
98.42806728533853
 30
0.0
 10
139.4942937489884
 20
98.43984841739787
 30
0.0
 10
139.4050271098819
 20
98.4597332871209
 30
0.0
 10
139.3337835384524
 20
98.4782312749336
 30
0.0
 10
139.2921095378815
 20
98.4920778017584
 30
0.0
 10
139.2815040010495
 20
98.5006611654896
 30
0.0
 10
139.3145197584126
 20
98.50190751494968
 30
0.0
 10
139.388671375074
 20
98.49454145461777
 30
0.0
 10
139.4957626110285
 20
98.47937365535476
 30
0.0
 10
139.6237043008589
 20
98.45811227294011
 30
0.0
 10
139.7283173427886
 20
98.43875205413198
 30
0.0
 10
139.7845125462039
 20
98.42755571924123
 30
0.0
 10
139.7980194922445
 20
98.42486459469623
 30
0.0
  0
ARC
  5
3F4
330
1F
100
AcDbEntity
  8
0
  6
Continuous
 62
     7
370
    15
100
AcDbCircle
 10
141.3991356568
 20
107.5214018283
 30
0.0
 40
9.279036202769788
100
AcDbArc
 50
258.6176800692
 51
267.626613468
  0
ARC
  5
3F5
330
1F
100
AcDbEntity
  8
0
  6
Continuous
 62
     7
370
    15
100
AcDbCircle
 10
141.914833079
 20
99.1846156292
 30
0.0
 40
0.9438189928277014
100
AcDbArc
 50
244.8043166463
 51
261.8514877815
  0
LWPOLYLINE
  5
3F6
330
1F
100
AcDbEntity
  8
0
  6
Continuous
 62
     7
370
    15
100
AcDbPolyline
 90
        3
 70
   128
 43
0.0
 10
142.0112032827
 20
98.2627213345
 10
141.9630855705
 20
98.2596535579
 10
141.7810567107
 20
98.250325431
  0
ARC
  5
3F7
330
1F
100
AcDbEntity
  8
0
  6
Continuous
 62
     7
370
    15
100
AcDbCircle
 10
141.6275874587
 20
107.5138509059
 30
0.0
 40
9.271465112094118
100
AcDbArc
 50
272.3713451578
 51
277.9096800314
  0
ARC
  5
3F8
330
1F
100
AcDbEntity
  8
0
  6
Continuous
 62
     7
370
    15
100
AcDbCircle
 10
141.8518803924
 20
99.2755701091
 30
0.0
 40
1.037550207668259
100
AcDbArc
 50
278.833105006
 51
304.9234695515
  0
SPLINE
  5
3F9
330
1F
100
AcDbEntity
  8
0
  6
Continuous
 62
     7
370
    15
100
AcDbSpline
210
0.0
220
0.0
230
1.0
 70
     8
 71
     3
 72
     9
 73
     5
 74
     0
 42
0.00000001
 43
0.00000001
 40
0.0
 40
0.0
 40
0.0
 40
0.0
 40
0.1307914282099223
 40
1.0
 40
1.0
 40
1.0
 40
1.0
 10
141.2268359597681
 20
101.0311093524677
 30
0.0
 10
141.2556483915325
 20
101.029869259666
 30
0.0
 10
141.4759413584249
 20
101.0203878064948
 30
0.0
 10
141.7100988127471
 20
101.0118111144405
 30
0.0
 10
141.9136304791925
 20
101.0043561801893
 30
0.0
  0
LINE
  5
3FA
330
1F
100
AcDbEntity
  8
0
  6
Continuous
 62
     7
370
    15
100
AcDbLine
 10
142.0112032827
 20
98.250325431
 30
0.0
 11
142.0112032827
 21
98.4934658155
 31
0.0
  0
LINE
  5
3FB
330
1F
100
AcDbEntity
  8
0
  6
Continuous
 62
     7
370
    15
100
AcDbLine
 10
141.014876255
 20
98.250325431
 30
0.0
 11
141.014876255
 21
98.2627213345
 31
0.0
  0
LINE
  5
3FC
330
1F
100
AcDbEntity
  8
0
  6
Continuous
 62
     7
370
    15
100
AcDbLine
 10
141.7810567107
 20
98.4599363402
 30
0.0
 11
141.7810567107
 21
98.250325431
 31
0.0
  0
LINE
  5
3FD
330
1F
100
AcDbEntity
  8
0
  6
Continuous
 62
     8
370
    15
100
AcDbLine
 10
138.1860938307
 20
137.2691957623
 30
0.0
 11
138.2279996212
 21
137.2539071709
 31
0.0
  0
LINE
  5
3FE
330
1F
100
AcDbEntity
  8
0
  6
Continuous
 62
     8
370
    15
100
AcDbLine
 10
138.1860938307
 20
138.5191955016
 30
0.0
 11
138.2279996212
 21
138.5039069102
 31
0.0
  0
LINE
  5
3FF
330
1F
100
AcDbEntity
  8
0
  6
Continuous
 62
     8
370
    15
100
AcDbLine
 10
138.1860938307
 20
142.2691956506
 30
0.0
 11
138.2279996212
 21
142.2539070592
 31
0.0
  0
LINE
  5
400
330
1F
100
AcDbEntity
  8
0
  6
Continuous
 62
     8
370
    15
100
AcDbLine
 10
138.1860938307
 20
144.769195129
 30
0.0
 11
138.2279996212
 21
144.7539065377
 31
0.0
  0
LINE
  5
401
330
1F
100
AcDbEntity
  8
0
  6
Continuous
 62
     8
370
    15
100
AcDbLine
 10
138.1860938307
 20
139.7691961721
 30
0.0
 11
138.2279996212
 21
139.7539075807
 31
0.0
  0
LINE
  5
402
330
1F
100
AcDbEntity
  8
0
  6
Continuous
 62
     8
370
    15
100
AcDbLine
 10
138.1860938307
 20
141.01919498
 30
0.0
 11
138.2279996212
 21
141.0039063886
 31
0.0
  0
LINE
  5
403
330
1F
100
AcDbEntity
  8
0
  6
Continuous
 62
     8
370
    15
100
AcDbLine
 10
138.1860938307
 20
143.5191963211
 30
0.0
 11
138.2279996212
 21
143.5039077297
 31
0.0
  0
LINE
  5
404
330
1F
100
AcDbEntity
  8
0
  6
Continuous
 62
     8
370
    15
100
AcDbLine
 10
138.1860938307
 20
148.519195278
 30
0.0
 11
138.2279996212
 21
148.5039066867
 31
0.0
  0
LINE
  5
405
330
1F
100
AcDbEntity
  8
0
  6
Continuous
 62
     8
370
    15
100
AcDbLine
 10
138.1860938307
 20
147.2691964701
 30
0.0
 11
138.2279996212
 21
147.2539078788
 31
0.0
  0
LINE
  5
406
330
1F
100
AcDbEntity
  8
0
  6
Continuous
 62
     8
370
    15
100
AcDbLine
 10
138.1860938307
 20
146.0191957996
 30
0.0
 11
138.2279996212
 21
146.0039072082
 31
0.0
  0
LINE
  5
407
330
1F
100
AcDbEntity
  8
0
  6
Continuous
 62
     8
370
    15
100
AcDbLine
 10
138.1860938307
 20
149.7691959486
 30
0.0
 11
138.2279996212
 21
149.7539073572
 31
0.0
  0
LINE
  5
408
330
1F
100
AcDbEntity
  8
0
  6
Continuous
 62
     8
370
    15
100
AcDbLine
 10
144.827923217
 20
138.8546467171
 30
0.0
 11
144.8558312293
 21
138.8323285029
 31
0.0
  0
LINE
  5
409
330
1F
100
AcDbEntity
  8
0
  6
Continuous
 62
     8
370
    15
100
AcDbLine
 10
144.827923217
 20
137.6046460465
 30
0.0
 11
144.8558312293
 21
137.5823287637
 31
0.0
  0
LINE
  5
40A
330
1F
100
AcDbEntity
  8
0
  6
Continuous
 62
     8
370
    15
100
AcDbLine
 10
144.827923217
 20
136.3546463073
 30
0.0
 11
144.8558312293
 21
136.3323280931
 31
0.0
  0
LINE
  5
40B
330
1F
100
AcDbEntity
  8
0
  6
Continuous
 62
     8
370
    15
100
AcDbLine
 10
144.827923217
 20
147.604645823
 30
0.0
 11
144.8558312293
 21
147.5823276088
 31
0.0
  0
LINE
  5
40C
330
1F
100
AcDbEntity
  8
0
  6
Continuous
 62
     8
370
    15
100
AcDbLine
 10
144.827923217
 20
148.8546464936
 30
0.0
 11
144.8558312293
 21
148.8323282794
 31
0.0
  0
LINE
  5
40D
330
1F
100
AcDbEntity
  8
0
  6
Continuous
 62
     8
370
    15
100
AcDbLine
 10
144.827923217
 20
146.3546470151
 30
0.0
 11
144.8558312293
 21
146.3323288009
 31
0.0
  0
LINE
  5
40E
330
1F
100
AcDbEntity
  8
0
  6
Continuous
 62
     8
370
    15
100
AcDbLine
 10
144.827923217
 20
142.6046468661
 30
0.0
 11
144.8558312293
 21
142.5823286519
 31
0.0
  0
LINE
  5
40F
330
1F
100
AcDbEntity
  8
0
  6
Continuous
 62
     8
370
    15
100
AcDbLine
 10
144.827923217
 20
145.1046463445
 30
0.0
 11
144.8558312293
 21
145.0823281304
 31
0.0
  0
LINE
  5
410
330
1F
100
AcDbEntity
  8
0
  6
Continuous
 62
     8
370
    15
100
AcDbLine
 10
144.827923217
 20
150.1046471641
 30
0.0
 11
144.8558312293
 21
150.0823289499
 31
0.0
  0
LINE
  5
411
330
1F
100
AcDbEntity
  8
0
  6
Continuous
 62
     8
370
    15
100
AcDbLine
 10
144.827923217
 20
140.104645525
 30
0.0
 11
144.8558312293
 21
140.0823291734
 31
0.0
  0
LINE
  5
412
330
1F
100
AcDbEntity
  8
0
  6
Continuous
 62
     8
370
    15
100
AcDbLine
 10
144.827923217
 20
141.3546461955
 30
0.0
 11
144.8558312293
 21
141.3323279814
 31
0.0
  0
LINE
  5
413
330
1F
100
AcDbEntity
  8
0
  6
Continuous
 62
     8
370
    15
100
AcDbLine
 10
144.827923217
 20
143.854645674
 30
0.0
 11
144.8558312293
 21
143.8323274598
 31
0.0
  0
LINE
  5
414
330
1F
100
AcDbEntity
  8
0
  6
CENTERX2
 62
     7
370
     0
100
AcDbLine
 10
114.8129611001
 20
96.7344783165
 30
0.0
 11
113.4204089816
 21
96.7344783165
 31
0.0
  0
LINE
  5
415
330
1F
100
AcDbEntity
  8
0
  6
CENTERX2
 62
     7
370
     0
100
AcDbLine
 10
141.5130497439
 20
124.2354837145
 30
0.0
 11
141.5130397439
 21
161.1812378953
 31
0.0
  0
HATCH
  5
416
330
1F
100
AcDbEntity
  8
0
  6
Continuous
 62
     7
370
     0
100
AcDbHatch
 10
0.0
 20
0.0
 30
0.0
210
0.0
220
0.0
230
1.0
  2
ANSI34
 70
     0
 71
     0
 91
        1
 92
        0
 93
        4
 72
     1
 10
146.0130397438949
 20
127.8344783165094
 11
149.0130397438949
 21
127.8344783165094
 72
     1
 10
149.0130397438949
 20
127.8344783165094
 11
149.0130397438949
 21
131.3344783165094
 72
     1
 10
149.0130397438949
 20
131.3344783165094
 11
146.0130397438949
 21
131.3344783165094
 72
     1
 10
146.0130397438949
 20
131.3344783165094
 11
146.0130397438949
 21
127.8344783165094
 97
        0
 75
     0
 76
     1
 52
0.0
 41
1.0
 77
     0
 78
     4
 53
45.0
 43
0.0
 44
0.0
 45
-13.47038418160373
 46
13.47038418160373
 79
     0
 53
45.0
 43
4.49013
 44
0.0
 45
-13.47038418160373
 46
13.47038418160373
 79
     0
 53
45.0
 43
8.98026
 44
0.0
 45
-13.47038418160373
 46
13.47038418160373
 79
     0
 53
45.0
 43
13.4704
 44
0.0
 45
-13.47038418160373
 46
13.47038418160373
 79
     0
 98
        1
 10
0.0
 20
0.0
  0
HATCH
  5
417
330
1F
100
AcDbEntity
  8
0
  6
Continuous
 62
     7
370
     0
100
AcDbHatch
 10
0.0
 20
0.0
 30
0.0
210
0.0
220
0.0
230
1.0
  2
ANSI34
 70
     0
 71
     0
 91
        1
 92
        0
 93
        4
 72
     1
 10
137.0130397438949
 20
131.3344783165095
 11
134.013039743895
 21
131.3344783165095
 72
     1
 10
134.013039743895
 20
131.3344783165095
 11
134.0130397438949
 21
127.8344783165095
 72
     1
 10
134.0130397438949
 20
127.8344783165095
 11
137.0130397438949
 21
127.8344783165095
 72
     1
 10
137.0130397438949
 20
127.8344783165095
 11
137.0130397438949
 21
131.3344783165095
 97
        0
 75
     0
 76
     1
 52
0.0
 41
1.0
 77
     0
 78
     4
 53
45.0
 43
0.0
 44
0.0
 45
-13.47038418160373
 46
13.47038418160373
 79
     0
 53
45.0
 43
4.49013
 44
0.0
 45
-13.47038418160373
 46
13.47038418160373
 79
     0
 53
45.0
 43
8.98026
 44
0.0
 45
-13.47038418160373
 46
13.47038418160373
 79
     0
 53
45.0
 43
13.4704
 44
0.0
 45
-13.47038418160373
 46
13.47038418160373
 79
     0
 98
        1
 10
0.0
 20
0.0
  0
HATCH
  5
418
330
1F
100
AcDbEntity
  8
0
  6
Continuous
 62
     7
370
     0
100
AcDbHatch
 10
0.0
 20
0.0
 30
0.0
210
0.0
220
0.0
230
1.0
  2
ANSI31
 70
     0
 71
     0
 91
        1
 92
        0
 93
        4
 72
     1
 10
146.613039743895
 20
139.2344783165146
 11
152.613039743895
 21
139.2344783165145
 72
     1
 10
152.613039743895
 20
139.2344783165145
 11
152.613039743895
 21
139.9344783165145
 72
     1
 10
152.613039743895
 20
139.9344783165145
 11
146.613039743895
 21
139.9344783165146
 72
     1
 10
146.613039743895
 20
139.9344783165146
 11
146.613039743895
 21
139.2344783165146
 97
        0
 75
     0
 76
     1
 52
0.0
 41
1.0
 77
     0
 78
     1
 53
45.0
 43
0.0
 44
0.0
 45
-2.245064030267288
 46
2.245064030267288
 79
     0
 98
        1
 10
0.0
 20
0.0
  0
HATCH
  5
419
330
1F
100
AcDbEntity
  8
0
  6
Continuous
 62
     7
370
     0
100
AcDbHatch
 10
0.0
 20
0.0
 30
0.0
210
0.0
220
0.0
230
1.0
  2
ANSI31
 70
     0
 71
     0
 91
        1
 92
        0
 93
        4
 72
     1
 10
136.413039743895
 20
139.9344783165146
 11
130.413039743895
 21
139.9344783165146
 72
     1
 10
130.413039743895
 20
139.9344783165146
 11
130.413039743895
 21
139.2344783165146
 72
     1
 10
130.413039743895
 20
139.2344783165146
 11
136.413039743895
 21
139.2344783165146
 72
     1
 10
136.413039743895
 20
139.2344783165146
 11
136.413039743895
 21
139.9344783165146
 97
        0
 75
     0
 76
     1
 52
0.0
 41
1.0
 77
     0
 78
     1
 53
45.0
 43
0.0
 44
0.0
 45
-2.245064030267288
 46
2.245064030267288
 79
     0
 98
        1
 10
0.0
 20
0.0
  0
HATCH
  5
41A
330
1F
100
AcDbEntity
  8
0
  6
Continuous
 62
     7
370
     0
100
AcDbHatch
 10
0.0
 20
0.0
 30
0.0
210
0.0
220
0.0
230
1.0
  2
ANSI31
 70
     0
 71
     0
 91
        1
 92
        0
 93
        4
 72
     1
 10
146.6130397438951
 20
143.4344783165146
 11
152.6130397438951
 21
143.4344783165145
 72
     1
 10
152.6130397438951
 20
143.4344783165145
 11
152.6130397438951
 21
144.1344783165146
 72
     1
 10
152.6130397438951
 20
144.1344783165146
 11
146.6130397438951
 21
144.1344783165146
 72
     1
 10
146.6130397438951
 20
144.1344783165146
 11
146.6130397438951
 21
143.4344783165146
 97
        0
 75
     0
 76
     1
 52
0.0
 41
1.0
 77
     0
 78
     1
 53
45.0
 43
0.0
 44
0.0
 45
-2.245064030267288
 46
2.245064030267288
 79
     0
 98
        1
 10
0.0
 20
0.0
  0
HATCH
  5
41B
330
1F
100
AcDbEntity
  8
0
  6
Continuous
 62
     7
370
     0
100
AcDbHatch
 10
0.0
 20
0.0
 30
0.0
210
0.0
220
0.0
230
1.0
  2
ANSI31
 70
     0
 71
     0
 91
        1
 92
        0
 93
        4
 72
     1
 10
136.4130397438951
 20
144.1344783165146
 11
130.4130397438951
 21
144.1344783165146
 72
     1
 10
130.4130397438951
 20
144.1344783165146
 11
130.4130397438951
 21
143.4344783165146
 72
     1
 10
130.4130397438951
 20
143.4344783165146
 11
136.4130397438951
 21
143.4344783165146
 72
     1
 10
136.4130397438951
 20
143.4344783165146
 11
136.4130397438951
 21
144.1344783165146
 97
        0
 75
     0
 76
     1
 52
0.0
 41
1.0
 77
     0
 78
     1
 53
45.0
 43
0.0
 44
0.0
 45
-2.245064030267288
 46
2.245064030267288
 79
     0
 98
        1
 10
0.0
 20
0.0
  0
HATCH
  5
41C
330
1F
100
AcDbEntity
  8
0
  6
Continuous
 62
     7
370
     0
100
AcDbHatch
 10
0.0
 20
0.0
 30
0.0
210
0.0
220
0.0
230
1.0
  2
ANSI34
 70
     0
 71
     0
 91
        1
 92
        0
 93
        4
 72
     1
 10
137.013039743895
 20
143.4344783165146
 11
134.013039743895
 21
143.4344783165146
 72
     1
 10
134.013039743895
 20
143.4344783165146
 11
134.013039743895
 21
139.9344783165146
 72
     1
 10
134.013039743895
 20
139.9344783165146
 11
137.013039743895
 21
139.9344783165146
 72
     1
 10
137.013039743895
 20
139.9344783165146
 11
137.013039743895
 21
143.4344783165146
 97
        0
 75
     0
 76
     1
 52
0.0
 41
1.0
 77
     0
 78
     4
 53
45.0
 43
0.0
 44
0.0
 45
-13.47038418160373
 46
13.47038418160373
 79
     0
 53
45.0
 43
4.49013
 44
0.0
 45
-13.47038418160373
 46
13.47038418160373
 79
     0
 53
45.0
 43
8.98026
 44
0.0
 45
-13.47038418160373
 46
13.47038418160373
 79
     0
 53
45.0
 43
13.4704
 44
0.0
 45
-13.47038418160373
 46
13.47038418160373
 79
     0
 98
        1
 10
0.0
 20
0.0
  0
HATCH
  5
41D
330
1F
100
AcDbEntity
  8
0
  6
Continuous
 62
     7
370
     0
100
AcDbHatch
 10
0.0
 20
0.0
 30
0.0
210
0.0
220
0.0
230
1.0
  2
ANSI34
 70
     0
 71
     0
 91
        1
 92
        0
 93
        4
 72
     1
 10
146.013039743895
 20
139.9344783165146
 11
149.013039743895
 21
139.9344783165146
 72
     1
 10
149.013039743895
 20
139.9344783165146
 11
149.013039743895
 21
143.4344783165146
 72
     1
 10
149.013039743895
 20
143.4344783165146
 11
146.013039743895
 21
143.4344783165146
 72
     1
 10
146.013039743895
 20
143.4344783165146
 11
146.013039743895
 21
139.9344783165146
 97
        0
 75
     0
 76
     1
 52
0.0
 41
1.0
 77
     0
 78
     4
 53
45.0
 43
0.0
 44
0.0
 45
-13.47038418160373
 46
13.47038418160373
 79
     0
 53
45.0
 43
4.49013
 44
0.0
 45
-13.47038418160373
 46
13.47038418160373
 79
     0
 53
45.0
 43
8.98026
 44
0.0
 45
-13.47038418160373
 46
13.47038418160373
 79
     0
 53
45.0
 43
13.4704
 44
0.0
 45
-13.47038418160373
 46
13.47038418160373
 79
     0
 98
        1
 10
0.0
 20
0.0
  0
DIMENSION
  5
41E
330
1F
100
AcDbEntity
  8
0
  6
Continuous
 62
     7
370
     0
100
AcDbDimension
  2
*D7
 10
87.6738133973
 20
96.7344783165
 30
0.0
 11
87.6738133973
 21
125.4591552687
 31
0.0
 70
   160
 71
     2
 42
-1.0
  3
SLDDIMSTYLE1
100
AcDbAlignedDimension
 13
156.8635382922
 23
156.7246670679
 33
0.0
 14
113.4204089816
 24
96.7344783165
 34
0.0
 50
90.0
100
AcDbRotatedDimension
  0
DIMENSION
  5
429
330
1F
100
AcDbEntity
  8
0
  6
Continuous
 62
     7
370
     0
100
AcDbDimension
  2
*D8
 10
218.8110951668
 20
75.7766528622
 30
0.0
 11
194.9151919229
 21
75.7766528622
 31
0.0
 70
   160
 71
     2
 42
-1.0
  3
SLDDIMSTYLE1
100
AcDbAlignedDimension
 13
175.4049333018
 23
95.2344783165
 33
0.0
 14
218.8110951668
 24
95.2344783165
 34
0.0
 50
0.0
100
AcDbRotatedDimension
  0
DIMENSION
  5
433
330
1F
100
AcDbEntity
  8
0
  6
Continuous
 62
     7
370
     0
100
AcDbDimension
  2
*D9
 10
230.8731571778
 20
95.2344783165
 30
0.0
 11
230.8731571778
 21
99.2041862818
 31
0.0
 70
   160
 71
     2
 42
-1.0
  3
SLDDIMSTYLE2
100
AcDbAlignedDimension
 13
217.4503586119
 23
102.9398202089
 33
0.0
 14
218.8110951668
 24
95.2344783165
 34
0.0
 50
90.0
100
AcDbRotatedDimension
  0
DIMENSION
  5
440
330
1F
100
AcDbEntity
  8
0
  6
Continuous
 62
     7
370
     0
100
AcDbDimension
  2
*D10
 10
241.115475012
 20
95.2344783165
 30
0.0
 11
241.115475012
 21
116.8046478067
 31
0.0
 70
   160
 71
     2
 42
-1.0
  3
SLDDIMSTYLE3
100
AcDbAlignedDimension
 13
169.7733011205
 23
132.2746822499
 33
0.0
 14
176.6049333018
 24
95.2344783165
 34
0.0
 50
90.0
100
AcDbRotatedDimension
  0
DIMENSION
  5
44B
330
1F
100
AcDbEntity
  8
0
  6
Continuous
 62
     7
370
     0
100
AcDbDimension
  2
*D11
 10
77.4056490785
 20
93.5344783165
 30
0.0
 11
77.4056490785
 21
125.4591552687
 31
0.0
 70
   160
 71
     2
 42
-1.0
  3
SLDDIMSTYLE1
100
AcDbAlignedDimension
 13
156.8635382922
 23
156.7246670679
 33
0.0
 14
161.9130597439
 24
93.5344783165
 34
0.0
 50
90.0
100
AcDbRotatedDimension
  0
DIMENSION
  5
455
330
1F
100
AcDbEntity
  8
0
  6
Continuous
 62
     7
370
     0
100
AcDbDimension
  2
*D12
 10
163.2130397439
 20
75.7766528622
 30
0.0
 11
143.0971973797
 21
75.7766528622
 31
0.0
 70
   160
 71
     2
 42
-1.0
  3
SLDDIMSTYLE1
100
AcDbAlignedDimension
 13
119.8130397439
 23
96.3344783165
 33
0.0
 14
163.2130397439
 24
96.3344783165
 34
0.0
 50
0.0
100
AcDbRotatedDimension
  0
DIMENSION
  5
45F
330
1F
100
AcDbEntity
  8
0
  6
Continuous
 62
     7
370
     0
100
AcDbDimension
  2
*D13
 10
170.2249618528
 20
93.5344783165
 30
0.0
 11
170.2249618528
 21
82.0701222467
 31
0.0
 70
   160
 71
     2
 42
-1.0
  3
SLDDIMSTYLE3
100
AcDbAlignedDimension
 13
148.5101567924
 23
102.3344783165
 33
0.0
 14
163.2130597439
 24
93.5344783165
 34
0.0
 50
90.0
100
AcDbRotatedDimension
  0
DIMENSION
  5
46A
330
1F
100
AcDbEntity
  8
0
  6
Continuous
 62
     7
370
     0
100
AcDbDimension
  2
*D14
 10
97.8129611001
 20
124.4354837145
 30
0.0
 11
97.8129611001
 21
111.2400812169
 31
0.0
 70
   160
 71
     2
 42
-1.0
  3
SLDDIMSTYLE3
100
AcDbAlignedDimension
 13
119.8130397439
 23
93.5344783165
 33
0.0
 14
120.8130397439
 24
124.4354837145
 34
0.0
 50
90.0
100
AcDbRotatedDimension
  0
DIMENSION
  5
474
330
1F
100
AcDbEntity
  8
0
  6
Continuous
 62
     7
370
     0
100
AcDbDimension
  2
*D15
 10
108.0701604588
 20
124.4354837145
 30
0.0
 11
108.0701604588
 21
111.2400812169
 31
0.0
 70
   160
 71
     2
 42
-1.0
  3
SLDDIMSTYLE3
100
AcDbAlignedDimension
 13
120.1130397439
 23
95.8344783165
 33
0.0
 14
120.8130397439
 24
124.4354837145
 34
0.0
 50
90.0
100
AcDbRotatedDimension
  0
DIMENSION
  5
47E
330
1F
100
AcDbEntity
  8
0
  6
Continuous
 62
     7
370
     0
100
AcDbDimension
  2
*D16
 10
108.0701604588
 20
93.5344783165
 30
0.0
 11
108.0701604588
 21
82.2979914496
 31
0.0
 70
   160
 71
     2
 42
-1.0
  3
SLDDIMSTYLE2
100
AcDbAlignedDimension
 13
120.1130397439
 23
95.8344783165
 33
0.0
 14
119.8130397439
 24
93.5344783165
 34
0.0
 50
90.0
100
AcDbRotatedDimension
  0
DIMENSION
  5
48A
330
1F
100
AcDbEntity
  8
0
  6
Continuous
 62
     7
370
     0
100
AcDbDimension
  2
*D17
 10
218.8110951668
 20
164.5343312415
 30
0.0
 11
163.0173927402
 21
164.5343312415
 31
0.0
 70
   160
 71
     2
 42
-1.0
  3
SLDDIMSTYLE3
100
AcDbAlignedDimension
 13
113.8129611001
 23
135.9762664228
 33
0.0
 14
218.8110951668
 24
101.4462989694
 34
0.0
 50
0.0
100
AcDbRotatedDimension
  0
INSERT
  5
49A
330
1F
100
AcDbEntity
  8
0
  6
Continuous
 62
     7
370
     0
100
AcDbBlockReference
  2
SW_NOTE_4
 10
65.2828338418
 20
243.7244199032
 30
0.0
  0
ENDSEC
  0
SECTION
  2
OBJECTS
  0
DICTIONARY
  5
C
330
0
100
AcDbDictionary
281
     1
  3
ACAD_GROUP
350
D
  3
ACAD_LAYOUT
350
1A
  3
ACAD_MLEADERSTYLE
350
49D
  3
ACAD_MLINESTYLE
350
17
  3
ACAD_PLOTSETTINGS
350
19
  3
ACAD_PLOTSTYLENAME
350
E
  3
ACAD_SCALELIST
350
53
  3
ACAD_VISUALSTYLE
350
2A
  3
AcDbVariableDictionary
350
49B
  0
DICTIONARY
  5
D
102
{ACAD_REACTORS
330
C
102
}
330
C
100
AcDbDictionary
281
     1
  0
DICTIONARY
  5
1A
102
{ACAD_REACTORS
330
C
102
}
330
C
100
AcDbDictionary
281
     1
  3
Layout1
350
1E
  3
Layout2
350
26
  3
Model
350
22
  0
DICTIONARY
  5
49D
102
{ACAD_REACTORS
330
C
102
}
330
C
100
AcDbDictionary
281
     1
  0
DICTIONARY
  5
17
102
{ACAD_REACTORS
330
C
102
}
330
C
100
AcDbDictionary
281
     1
  3
Standard
350
18
  0
DICTIONARY
  5
19
102
{ACAD_REACTORS
330
C
102
}
330
C
100
AcDbDictionary
281
     1
  0
ACDBDICTIONARYWDFLT
  5
E
102
{ACAD_REACTORS
330
C
102
}
330
C
100
AcDbDictionary
281
     1
  3
Normal
350
F
100
AcDbDictionaryWithDefault
340
F
  0
DICTIONARY
  5
53
102
{ACAD_REACTORS
330
C
102
}
330
C
100
AcDbDictionary
281
     1
  3
A0
350
54
  3
A1
350
55
  3
A2
350
56
  3
A3
350
57
  3
A4
350
58
  3
A5
350
59
  3
A6
350
5A
  3
A7
350
5B
  3
A8
350
5C
  3
A9
350
5D
  3
B0
350
5E
  3
B1
350
5F
  3
B2
350
60
  3
B3
350
61
  3
B4
350
62
  3
B5
350
63
  3
B6
350
64
  3
B7
350
65
  3
B8
350
66
  3
B9
350
67
  3
C0
350
68
  3
C1
350
69
  3
C2
350
6A
  3
C3
350
6B
  3
C4
350
6C
  3
C5
350
6D
  3
C6
350
6E
  3
C7
350
6F
  3
C8
350
70
  3
C9
350
71
  3
D0
350
72
  3
D1
350
73
  3
D2
350
74
  0
DICTIONARY
  5
2A
102
{ACAD_REACTORS
330
C
102
}
330
C
100
AcDbDictionary
281
     1
  3
2dWireframe
350
2F
  3
3D Hidden
350
31
  3
3dWireframe
350
30
  3
Basic
350
32
  3
Brighten
350
36
  3
ColorChange
350
3A
  3
Conceptual
350
34
  3
Dim
350
35
  3
Facepattern
350
39
  3
Flat
350
2B
  3
FlatWithEdges
350
2C
  3
Gouraud
350
2D
  3
GouraudWithEdges
350
2E
  3
Linepattern
350
38
  3
Realistic
350
33
  3
Thicken
350
37
  0
DICTIONARY
  5
49B
102
{ACAD_REACTORS
330
C
102
}
330
C
100
AcDbDictionary
281
     1
  3
CANNOSCALE
350
4A0
  3
DIMASSOC
350
4A1
  3
HIDETEXT
350
4A2
  3
PSOLHEIGHT
350
49F
  3
PSOLWIDTH
350
49E
  0
LAYOUT
  5
1E
102
{ACAD_REACTORS
330
1A
102
}
330
1A
100
AcDbPlotSettings
  1

  2
none_device
  4

  6

 40
0.0
 41
0.0
 42
0.0
 43
0.0
 44
0.0
 45
0.0
 46
0.0
 47
0.0
 48
0.0
 49
0.0
140
0.0
141
0.0
142
1.0
143
1.0
 70
   688
 72
     0
 73
     0
 74
     5
  7

 75
    16
147
1.0
148
0.0
149
0.0
100
AcDbLayout
  1
Layout1
 70
     1
 71
     1
 10
0.0
 20
0.0
 11
420.0
 21
297.0
 12
0.0
 22
0.0
 32
0.0
 14
1.0000000000E+20
 24
1.0000000000E+20
 34
1.0000000000E+20
 15
-1.0000000000E+20
 25
-1.0000000000E+20
 35
-1.0000000000E+20
146
0.0
 13
0.0
 23
0.0
 33
0.0
 16
1.0
 26
0.0
 36
0.0
 17
0.0
 27
1.0
 37
0.0
 76
     0
330
1B
  0
LAYOUT
  5
26
102
{ACAD_REACTORS
330
1A
102
}
330
1A
100
AcDbPlotSettings
  1

  2
none_device
  4

  6

 40
0.0
 41
0.0
 42
0.0
 43
0.0
 44
0.0
 45
0.0
 46
0.0
 47
0.0
 48
0.0
 49
0.0
140
0.0
141
0.0
142
1.0
143
1.0
 70
   688
 72
     0
 73
     0
 74
     5
  7

 75
    16
147
1.0
148
0.0
149
0.0
100
AcDbLayout
  1
Layout2
 70
     1
 71
     2
 10
0.0
 20
0.0
 11
0.0
 21
0.0
 12
0.0
 22
0.0
 32
0.0
 14
0.0
 24
0.0
 34
0.0
 15
0.0
 25
0.0
 35
0.0
146
0.0
 13
0.0
 23
0.0
 33
0.0
 16
1.0
 26
0.0
 36
0.0
 17
0.0
 27
1.0
 37
0.0
 76
     0
330
23
  0
LAYOUT
  5
22
102
{ACAD_REACTORS
330
1A
102
}
330
1A
100
AcDbPlotSettings
  1

  2
none_device
  4

  6

 40
0.0
 41
0.0
 42
0.0
 43
0.0
 44
0.0
 45
0.0
 46
0.0
 47
0.0
 48
0.0
 49
0.0
140
0.0
141
0.0
142
1.0
143
1.0
 70
  1712
 72
     0
 73
     0
 74
     0
  7

 75
     0
147
1.0
148
0.0
149
0.0
100
AcDbLayout
  1
Model
 70
     1
 71
     0
 10
0.0
 20
0.0
 11
420.0
 21
297.0
 12
0.0
 22
0.0
 32
0.0
 14
0.0
 24
0.0
 34
0.0
 15
420.0
 25
297.0
 35
0.0
146
0.0
 13
0.0
 23
0.0
 33
0.0
 16
1.0
 26
0.0
 36
0.0
 17
0.0
 27
1.0
 37
0.0
 76
     0
330
1F
331
29
  0
MLINESTYLE
  5
18
102
{ACAD_REACTORS
330
17
102
}
330
17
100
AcDbMlineStyle
  2
Standard
 70
     0
  3

 62
   256
 51
90.0
 52
90.0
 71
     2
 49
0.5
 62
   256
  6
BYLAYER
 49
-0.5
 62
   256
  6
BYLAYER
  0
ACDBPLACEHOLDER
  5
F
102
{ACAD_REACTORS
330
E
102
}
330
E
  0
SCALE
  5
54
102
{ACAD_REACTORS
330
53
102
}
330
53
100
AcDbScale
 70
     0
300
1:1
140
1.0
141
1.0
290
     1
  0
SCALE
  5
55
102
{ACAD_REACTORS
330
53
102
}
330
53
100
AcDbScale
 70
     0
300
1:2
140
1.0
141
2.0
290
     0
  0
SCALE
  5
56
102
{ACAD_REACTORS
330
53
102
}
330
53
100
AcDbScale
 70
     0
300
1:4
140
1.0
141
4.0
290
     0
  0
SCALE
  5
57
102
{ACAD_REACTORS
330
53
102
}
330
53
100
AcDbScale
 70
     0
300
1:5
140
1.0
141
5.0
290
     0
  0
SCALE
  5
58
102
{ACAD_REACTORS
330
53
102
}
330
53
100
AcDbScale
 70
     0
300
1:8
140
1.0
141
8.0
290
     0
  0
SCALE
  5
59
102
{ACAD_REACTORS
330
53
102
}
330
53
100
AcDbScale
 70
     0
300
1:10
140
1.0
141
10.0
290
     0
  0
SCALE
  5
5A
102
{ACAD_REACTORS
330
53
102
}
330
53
100
AcDbScale
 70
     0
300
1:16
140
1.0
141
16.0
290
     0
  0
SCALE
  5
5B
102
{ACAD_REACTORS
330
53
102
}
330
53
100
AcDbScale
 70
     0
300
1:20
140
1.0
141
20.0
290
     0
  0
SCALE
  5
5C
102
{ACAD_REACTORS
330
53
102
}
330
53
100
AcDbScale
 70
     0
300
1:30
140
1.0
141
30.0
290
     0
  0
SCALE
  5
5D
102
{ACAD_REACTORS
330
53
102
}
330
53
100
AcDbScale
 70
     0
300
1:40
140
1.0
141
40.0
290
     0
  0
SCALE
  5
5E
102
{ACAD_REACTORS
330
53
102
}
330
53
100
AcDbScale
 70
     0
300
1:50
140
1.0
141
50.0
290
     0
  0
SCALE
  5
5F
102
{ACAD_REACTORS
330
53
102
}
330
53
100
AcDbScale
 70
     0
300
1:100
140
1.0
141
100.0
290
     0
  0
SCALE
  5
60
102
{ACAD_REACTORS
330
53
102
}
330
53
100
AcDbScale
 70
     0
300
2:1
140
2.0
141
1.0
290
     0
  0
SCALE
  5
61
102
{ACAD_REACTORS
330
53
102
}
330
53
100
AcDbScale
 70
     0
300
4:1
140
4.0
141
1.0
290
     0
  0
SCALE
  5
62
102
{ACAD_REACTORS
330
53
102
}
330
53
100
AcDbScale
 70
     0
300
8:1
140
8.0
141
1.0
290
     0
  0
SCALE
  5
63
102
{ACAD_REACTORS
330
53
102
}
330
53
100
AcDbScale
 70
     0
300
10:1
140
10.0
141
1.0
290
     0
  0
SCALE
  5
64
102
{ACAD_REACTORS
330
53
102
}
330
53
100
AcDbScale
 70
     0
300
100:1
140
100.0
141
1.0
290
     0
  0
SCALE
  5
65
102
{ACAD_REACTORS
330
53
102
}
330
53
100
AcDbScale
 70
     0
300
1/128" = 1'-0"
140
0.0078125
141
12.0
290
     0
  0
SCALE
  5
66
102
{ACAD_REACTORS
330
53
102
}
330
53
100
AcDbScale
 70
     0
300
1/64" = 1'-0"
140
0.015625
141
12.0
290
     0
  0
SCALE
  5
67
102
{ACAD_REACTORS
330
53
102
}
330
53
100
AcDbScale
 70
     0
300
1/32" = 1'-0"
140
0.03125
141
12.0
290
     0
  0
SCALE
  5
68
102
{ACAD_REACTORS
330
53
102
}
330
53
100
AcDbScale
 70
     0
300
1/16" = 1'-0"
140
0.0625
141
12.0
290
     0
  0
SCALE
  5
69
102
{ACAD_REACTORS
330
53
102
}
330
53
100
AcDbScale
 70
     0
300
3/32" = 1'-0"
140
0.09375
141
12.0
290
     0
  0
SCALE
  5
6A
102
{ACAD_REACTORS
330
53
102
}
330
53
100
AcDbScale
 70
     0
300
1/8" = 1'-0"
140
0.125
141
12.0
290
     0
  0
SCALE
  5
6B
102
{ACAD_REACTORS
330
53
102
}
330
53
100
AcDbScale
 70
     0
300
3/16" = 1'-0"
140
0.1875
141
12.0
290
     0
  0
SCALE
  5
6C
102
{ACAD_REACTORS
330
53
102
}
330
53
100
AcDbScale
 70
     0
300
1/4" = 1'-0"
140
0.25
141
12.0
290
     0
  0
SCALE
  5
6D
102
{ACAD_REACTORS
330
53
102
}
330
53
100
AcDbScale
 70
     0
300
3/8" = 1'-0"
140
0.375
141
12.0
290
     0
  0
SCALE
  5
6E
102
{ACAD_REACTORS
330
53
102
}
330
53
100
AcDbScale
 70
     0
300
1/2" = 1'-0"
140
0.5
141
12.0
290
     0
  0
SCALE
  5
6F
102
{ACAD_REACTORS
330
53
102
}
330
53
100
AcDbScale
 70
     0
300
3/4" = 1'-0"
140
0.75
141
12.0
290
     0
  0
SCALE
  5
70
102
{ACAD_REACTORS
330
53
102
}
330
53
100
AcDbScale
 70
     0
300
1" = 1'-0"
140
1.0
141
12.0
290
     0
  0
SCALE
  5
71
102
{ACAD_REACTORS
330
53
102
}
330
53
100
AcDbScale
 70
     0
300
1-1/2" = 1'-0"
140
1.5
141
12.0
290
     0
  0
SCALE
  5
72
102
{ACAD_REACTORS
330
53
102
}
330
53
100
AcDbScale
 70
     0
300
3" = 1'-0"
140
3.0
141
12.0
290
     0
  0
SCALE
  5
73
102
{ACAD_REACTORS
330
53
102
}
330
53
100
AcDbScale
 70
     0
300
6" = 1'-0"
140
6.0
141
12.0
290
     0
  0
SCALE
  5
74
102
{ACAD_REACTORS
330
53
102
}
330
53
100
AcDbScale
 70
     0
300
1'-0" = 1'-0"
140
12.0
141
12.0
290
     0
  0
VISUALSTYLE
  5
2F
102
{ACAD_REACTORS
330
2A
102
}
330
2A
100
AcDbVisualStyle
  2
2dWireframe
 70
     4
 71
     0
 72
     2
 73
     0
 90
        0
 40
-0.6
 41
-30.0
 62
     5
 63
     7
 74
     1
 91
        4
 64
     7
 65
   257
 75
     1
175
     1
 42
1.0
 92
        0
 66
   257
 43
1.0
 76
     1
 77
     6
 78
     2
 67
     7
 79
     5
170
     0
171
     0
290
     0
174
     0
 93
        1
 44
0.0
173
     0
291
     0
 45
0.0
1001
ACAD
1000
AcDbSavedByObjectVersion
1070
     0
  0
VISUALSTYLE
  5
31
102
{ACAD_REACTORS
330
2A
102
}
330
2A
100
AcDbVisualStyle
  2
3D Hidden
 70
     6
 71
     1
 72
     2
 73
     2
 90
        0
 40
-0.6
 41
-30.0
 62
     5
 63
     7
 74
     2
 91
        2
 64
     7
 65
   257
 75
     2
175
     1
 42
40.0
 92
        0
 66
   257
 43
1.0
 76
     1
 77
     6
 78
     2
 67
     7
 79
     3
170
     0
171
     0
290
     0
174
     0
 93
        1
 44
0.0
173
     0
291
     0
 45
0.0
1001
ACAD
1000
AcDbSavedByObjectVersion
1070
     0
  0
VISUALSTYLE
  5
30
102
{ACAD_REACTORS
330
2A
102
}
330
2A
100
AcDbVisualStyle
  2
3dWireframe
 70
     5
 71
     0
 72
     2
 73
     0
 90
        0
 40
-0.6
 41
-30.0
 62
     5
 63
     7
 74
     1
 91
        4
 64
     7
 65
   257
 75
     1
175
     1
 42
1.0
 92
        0
 66
   257
 43
1.0
 76
     1
 77
     6
 78
     2
 67
     7
 79
     5
170
     0
171
     0
290
     0
174
     0
 93
        1
 44
0.0
173
     0
291
     0
 45
0.0
1001
ACAD
1000
AcDbSavedByObjectVersion
1070
     0
  0
VISUALSTYLE
  5
32
102
{ACAD_REACTORS
330
2A
102
}
330
2A
100
AcDbVisualStyle
  2
Basic
 70
     7
 71
     1
 72
     0
 73
     1
 90
        0
 40
-0.6
 41
-30.0
 62
     5
 63
     7
 74
     0
 91
        4
 64
     7
 65
   257
 75
     1
175
     1
 42
1.0
 92
        8
 66
     7
 43
1.0
 76
     1
 77
     6
 78
     2
 67
     7
 79
     5
170
     0
171
     0
290
     0
174
     0
 93
        1
 44
0.0
173
     0
291
     1
 45
0.0
1001
ACAD
1000
AcDbSavedByObjectVersion
1070
     0
  0
VISUALSTYLE
  5
36
102
{ACAD_REACTORS
330
2A
102
}
330
2A
100
AcDbVisualStyle
  2
Brighten
 70
    12
 71
     2
 72
     2
 73
     0
 90
        0
 40
-0.6
 41
-30.0
 62
     5
 63
     7
 74
     1
 91
        4
 64
     7
 65
   257
 75
     1
175
     1
 42
1.0
 92
        8
 66
     7
 43
1.0
 76
     1
 77
     6
 78
     2
 67
     7
 79
     5
170
     0
171
     0
290
     0
174
     0
 93
        1
 44
50.0
173
     0
291
     1
 45
0.0
1001
ACAD
1000
AcDbSavedByObjectVersion
1070
     0
  0
VISUALSTYLE
  5
3A
102
{ACAD_REACTORS
330
2A
102
}
330
2A
100
AcDbVisualStyle
  2
ColorChange
 70
    16
 71
     2
 72
     2
 73
     3
 90
        0
 40
-0.6
 41
-30.0
 62
     5
 63
     8
 74
     1
 91
        4
 64
     7
 65
   257
 75
     1
175
     1
 42
1.0
 92
        8
 66
     8
 43
1.0
 76
     1
 77
     6
 78
     2
 67
     7
 79
     5
170
     0
171
     0
290
     0
174
     0
 93
        1
 44
0.0
173
     0
291
     1
 45
0.0
1001
ACAD
1000
AcDbSavedByObjectVersion
1070
     0
  0
VISUALSTYLE
  5
34
102
{ACAD_REACTORS
330
2A
102
}
330
2A
100
AcDbVisualStyle
  2
Conceptual
 70
     9
 71
     3
 72
     2
 73
     0
 90
        0
 40
-0.6
 41
-30.0
 62
     5
 63
     7
 74
     2
 91
        2
 64
     7
 65
   257
 75
     1
175
     1
 42
40.0
 92
        8
 66
     7
 43
1.0
 76
     1
 77
     6
 78
     2
 67
     7
 79
     3
170
     0
171
     0
290
     0
174
     0
 93
        1
 44
0.0
173
     0
291
     0
 45
0.0
1001
ACAD
1000
AcDbSavedByObjectVersion
1070
     0
  0
VISUALSTYLE
  5
35
102
{ACAD_REACTORS
330
2A
102
}
330
2A
100
AcDbVisualStyle
  2
Dim
 70
    11
 71
     2
 72
     2
 73
     0
 90
        0
 40
-0.6
 41
-30.0
 62
     5
 63
     7
 74
     1
 91
        4
 64
     7
 65
   257
 75
     1
175
     1
 42
1.0
 92
        8
 66
     7
 43
1.0
 76
     1
 77
     6
 78
     2
 67
     7
 79
     5
170
     0
171
     0
290
     0
174
     0
 93
        1
 44
-50.0
173
     0
291
     1
 45
0.0
1001
ACAD
1000
AcDbSavedByObjectVersion
1070
     0
  0
VISUALSTYLE
  5
39
102
{ACAD_REACTORS
330
2A
102
}
330
2A
100
AcDbVisualStyle
  2
Facepattern
 70
    15
 71
     2
 72
     2
 73
     0
 90
        0
 40
-0.6
 41
-30.0
 62
     5
 63
     7
 74
     1
 91
        4
 64
     7
 65
   257
 75
     1
175
     1
 42
1.0
 92
        8
 66
     7
 43
1.0
 76
     1
 77
     6
 78
     2
 67
     7
 79
     5
170
     0
171
     0
290
     0
174
     0
 93
        1
 44
0.0
173
     0
291
     1
 45
0.0
1001
ACAD
1000
AcDbSavedByObjectVersion
1070
     0
  0
VISUALSTYLE
  5
2B
102
{ACAD_REACTORS
330
2A
102
}
330
2A
100
AcDbVisualStyle
  2
Flat
 70
     0
 71
     2
 72
     1
 73
     1
 90
        2
 40
-0.6
 41
30.0
 62
     5
 63
     7
 74
     0
 91
        4
 64
     7
 65
   257
 75
     1
175
     1
 42
1.0
 92
        8
 66
     7
 43
1.0
 76
     1
 77
     6
 78
     2
 67
     7
 79
     5
170
     0
171
     0
290
     0
174
     0
 93
       13
 44
0.0
173
     0
291
     1
 45
0.0
1001
ACAD
1000
AcDbSavedByObjectVersion
1070
     0
  0
VISUALSTYLE
  5
2C
102
{ACAD_REACTORS
330
2A
102
}
330
2A
100
AcDbVisualStyle
  2
FlatWithEdges
 70
     1
 71
     2
 72
     1
 73
     1
 90
        2
 40
-0.6
 41
30.0
 62
     5
 63
     7
 74
     1
 91
        4
 64
     7
 65
   257
 75
     1
175
     1
 42
1.0
 92
        0
 66
   257
 43
1.0
 76
     1
 77
     6
 78
     2
 67
     7
 79
     5
170
     0
171
     0
290
     0
174
     0
 93
       13
 44
0.0
173
     0
291
     1
 45
0.0
1001
ACAD
1000
AcDbSavedByObjectVersion
1070
     0
  0
VISUALSTYLE
  5
2D
102
{ACAD_REACTORS
330
2A
102
}
330
2A
100
AcDbVisualStyle
  2
Gouraud
 70
     2
 71
     2
 72
     2
 73
     1
 90
        2
 40
-0.6
 41
30.0
 62
     5
 63
     7
 74
     0
 91
        4
 64
     7
 65
   257
 75
     1
175
     1
 42
1.0
 92
        0
 66
     7
 43
1.0
 76
     1
 77
     6
 78
     2
 67
     7
 79
     5
170
     0
171
     0
290
     0
174
     0
 93
       13
 44
0.0
173
     0
291
     1
 45
0.0
1001
ACAD
1000
AcDbSavedByObjectVersion
1070
     0
  0
VISUALSTYLE
  5
2E
102
{ACAD_REACTORS
330
2A
102
}
330
2A
100
AcDbVisualStyle
  2
GouraudWithEdges
 70
     3
 71
     2
 72
     2
 73
     1
 90
        2
 40
-0.6
 41
30.0
 62
     5
 63
     7
 74
     1
 91
        4
 64
     7
 65
   257
 75
     1
175
     1
 42
1.0
 92
        0
 66
   257
 43
1.0
 76
     1
 77
     6
 78
     2
 67
     7
 79
     5
170
     0
171
     0
290
     0
174
     0
 93
       13
 44
0.0
173
     0
291
     1
 45
0.0
1001
ACAD
1000
AcDbSavedByObjectVersion
1070
     0
  0
VISUALSTYLE
  5
38
102
{ACAD_REACTORS
330
2A
102
}
330
2A
100
AcDbVisualStyle
  2
Linepattern
 70
    14
 71
     2
 72
     2
 73
     0
 90
        0
 40
-0.6
 41
-30.0
 62
     5
 63
     7
 74
     1
 91
        4
 64
     7
 65
   257
 75
     7
175
     7
 42
1.0
 92
        8
 66
     7
 43
1.0
 76
     1
 77
     6
 78
     2
 67
     7
 79
     5
170
     0
171
     0
290
     0
174
     0
 93
        1
 44
0.0
173
     0
291
     1
 45
0.0
1001
ACAD
1000
AcDbSavedByObjectVersion
1070
     0
  0
VISUALSTYLE
  5
33
102
{ACAD_REACTORS
330
2A
102
}
330
2A
100
AcDbVisualStyle
  2
Realistic
 70
     8
 71
     2
 72
     2
 73
     0
 90
        0
 40
-0.6
 41
-30.0
 62
     5
 63
     7
 74
     1
 91
        0
 64
     7
 65
   257
 75
     1
175
     1
 42
1.0
 92
        8
 66
     8
 43
1.0
 76
     1
 77
     6
 78
     2
 67
     7
 79
     5
170
     0
171
     0
290
     0
174
     0
 93
       13
 44
0.0
173
     0
291
     0
 45
0.0
1001
ACAD
1000
AcDbSavedByObjectVersion
1070
     0
  0
VISUALSTYLE
  5
37
102
{ACAD_REACTORS
330
2A
102
}
330
2A
100
AcDbVisualStyle
  2
Thicken
 70
    13
 71
     2
 72
     2
 73
     0
 90
        0
 40
-0.6
 41
-30.0
 62
     5
 63
     7
 74
     1
 91
        4
 64
     7
 65
   257
 75
     1
175
     1
 42
1.0
 92
       12
 66
     7
 43
1.0
 76
     1
 77
     6
 78
     2
 67
     7
 79
     5
170
     0
171
     0
290
     0
174
     0
 93
        1
 44
0.0
173
     0
291
     1
 45
0.0
1001
ACAD
1000
AcDbSavedByObjectVersion
1070
     0
  0
DICTIONARYVAR
  5
4A0
102
{ACAD_REACTORS
330
49B
102
}
330
49B
100
DictionaryVariables
280
     0
  1
1:1
  0
DICTIONARYVAR
  5
4A1
102
{ACAD_REACTORS
330
49B
102
}
330
49B
100
DictionaryVariables
280
     0
  1
2
  0
DICTIONARYVAR
  5
4A2
102
{ACAD_REACTORS
330
49B
102
}
330
49B
100
DictionaryVariables
280
     0
  1
1
  0
DICTIONARYVAR
  5
49F
102
{ACAD_REACTORS
330
49B
102
}
330
49B
100
DictionaryVariables
280
     0
  1
80.000000
  0
DICTIONARYVAR
  5
49E
102
{ACAD_REACTORS
330
49B
102
}
330
49B
100
DictionaryVariables
280
     0
  1
5.000000
  0
ENDSEC
  0
EOF
