  0
SECTION
  2
HEADER
  9
$ACADVER
  1
AC1009
  9
$INSBASE
 10
0.0
 20
0.0
 30
0.0
  9
$EXTMIN
 10
-0.100000
 20
0.000000
 30
0.000000
  9
$EXTMAX
 10
593.900000
 20
420.000000
 30
0.000000
  9
$LIMMIN
 10
0.0
 20
0.0
  9
$LIMMAX
 10
420.0
 20
297.0
  9
$ORTHOMODE
 70
     0
  9
$REGENMODE
 70
     1
  9
$FILLMODE
 70
     1
  9
$QTEXTMODE
 70
     0
  9
$MIRRTEXT
 70
     1
  9
$DRAGMODE
 70
     2
  9
$LTSCALE
 40
1.0
  9
$OSMODE
 70
     0
  9
$ATTMODE
 70
     1
  9
$TEXTSIZE
 40
3.0
  9
$TRACEWID
 40
10.0
  9
$TEXTSTYLE
  7
STANDARD
  9
$CLAYER
  8
0
  9
$CELTYPE
  6
BYLAYER
  9
$CECOLOR
 62
   256
  9
$DIMSCALE
 40
1.0
  9
$DIMASZ
 40
3.0
  9
$DIMEXO
 40
2.5
  9
$DIMDLI
 40
10.0
  9
$DIMRND
 40
0.0
  9
$DIMDLE
 40
1.25
  9
$DIMEXE
 40
2.5
  9
$DIMTP
 40
0.0
  9
$DIMTM
 40
0.0
  9
$DIMTXT
 40
3.0
  9
$DIMCEN
 40
-3.0
  9
$DIMTSZ
 40
0.0
  9
$DIMTOL
 70
     0
  9
$DIMLIM
 70
     0
  9
$DIMTIH
 70
     0
  9
$DIMTOH
 70
     0
  9
$DIMSE1
 70
     0
  9
$DIMSE2
 70
     0
  9
$DIMTAD
 70
     0
  9
$DIMZIN
 70
     0
  9
$DIMBLK
  1

  9
$DIMASO
 70
     1
  9
$DIMSHO
 70
     0
  9
$DIMPOST
  1

  9
$DIMAPOST
  1

  9
$DIMALT
 70
     0
  9
$DIMALTD
 70
     2
  9
$DIMALTF
 40
0.039
  9
$DIMLFAC
 40
1.0
  9
$DIMTOFL
 70
     0
  9
$DIMTVP
 40
1.5
  9
$DIMTIX
 70
     0
  9
$DIMSOXD
 70
     0
  9
$DIMSAH
 70
     0
  9
$DIMBLK1
  1

  9
$DIMBLK2
  1

  9
$DIMSTYLE
  2
STANDARD
  9
$DIMCLRD
 70
     0
  9
$DIMCLRE
 70
     0
  9
$DIMCLRT
 70
     0
  9
$DIMTFAC
 40
0.75
  9
$DIMGAP
 40
1.5
  9
$LUNITS
 70
     2
  9
$LUPREC
 70
     4
  9
$SKETCHINC
 40
1.0
  9
$FILLETRAD
 40
0.0
  9
$AUNITS
 70
     0
  9
$AUPREC
 70
     4
  9
$MENU
  1
acad
  9
$ELEVATION
 40
0.0
  9
$PELEVATION
 40
0.0
  9
$THICKNESS
 40
0.0
  9
$LIMCHECK
 70
     0
  9
$BLIPMODE
 70
     0
  9
$CHAMFERA
 40
0.0
  9
$CHAMFERB
 40
0.0
  9
$SKPOLY
 70
     0
  9
$TDCREATE
 40
2449470.688965856
  9
$TDUPDATE
 40
2449470.688965856
  9
$TDINDWG
 40
0.0000000000
  9
$TDUSRTIMER
 40
0.0000000000
  9
$USRTIMER
 70
     1
  9
$ANGBASE
 50
0.0
  9
$ANGDIR
 70
     0
  9
$PDMODE
 70
     0
  9
$PDSIZE
 40
0.0
  9
$PLINEWID
 40
0.0
  9
$COORDS
 70
     1
  9
$SPLFRAME
 70
     0
  9
$SPLINETYPE
 70
     6
  9
$SPLINESEGS
 70
     8
  9
$ATTDIA
 70
     0
  9
$ATTREQ
 70
     1
  9
$HANDLING
 70
     0
  9
$HANDSEED
  5
0
  9
$SURFTAB1
 70
    18
  9
$SURFTAB2
 70
    18
  9
$SURFTYPE
 70
     6
  9
$SURFU
 70
    18
  9
$SURFV
 70
    18
  9
$UCSNAME
  2

  9
$UCSORG
 10
0.0
 20
0.0
 30
0.0
  9
$UCSXDIR
 10
1.0
 20
0.0
 30
0.0
  9
$UCSYDIR
 10
0.0
 20
1.0
 30
0.0
  9
$PUCSNAME
  2

  9
$PUCSORG
 10
0.0
 20
0.0
 30
0.0
  9
$PUCSXDIR
 10
1.0
 20
0.0
 30
0.0
  9
$PUCSYDIR
 10
0.0
 20
1.0
 30
0.0
  9
$USERI1
 70
     0
  9
$USERI2
 70
     0
  9
$USERI3
 70
     0
  9
$USERI4
 70
     0
  9
$USERI5
 70
     0
  9
$USERR1
 40
0.0
  9
$USERR2
 40
0.0
  9
$USERR3
 40
0.0
  9
$USERR4
 40
0.0
  9
$USERR5
 40
0.0
  9
$WORLDVIEW
 70
     1
  9
$SHADEDGE
 70
     3
  9
$SHADEDIF
 70
    70
  9
$TILEMODE
 70
     1
  9
$MAXACTVP
 70
    16
  9
$PINSBASE
 10
0.0
 20
0.0
 30
0.0
  9
$PLIMCHECK
 70
     0
  9
$PEXTMIN
 10
1.000000E+20
 20
1.000000E+20
 30
1.000000E+20
  9
$PEXTMAX
 10
-1.000000E+20
 20
-1.000000E+20
 30
-1.000000E+20
  9
$PLIMMIN
 10
0.0
 20
0.0
  9
$PLIMMAX
 10
420.0
 20
297.0
  9
$UNITMODE
 70
     0
  9
$VISRETAIN
 70
     0
  9
$PLINEGEN
 70
     0
  9
$PSLTSCALE
 70
     1
  9
$TREEDEPTH
 70
  3020
  9
$DWGCODEPAGE
  3
dos850
  0
ENDSEC
  0
SECTION
  2
TABLES
  0
TABLE
  2
VPORT
 70
     2
  0
VPORT
  2
*ACTIVE
 70
     0
 10
0.0
 20
0.0
 11
1.0
 21
1.0
 12
50
 22
50
 13
0.0
 23
0.0
 14
1.0
 24
1.0
 15
10.0
 25
10.0
 16
0.0
 26
0.0
 36
1.0
 17
0.0
 27
0.0
 37
0.0
 40
100.0
 41
1.387409
 42
50.0
 43
0.0
 44
0.0
 50
0.0
 51
0.0
 71
     0
 72
   100
 73
     1
 74
     1
 75
     0
 76
     0
 77
     0
 78
     0
  0
ENDTAB
  0
TABLE
  2
LTYPE
 70
     8
  0
LTYPE
  2
CONTINUOUS
 70
     0
  3
Solid line
 72
    65
 73
     0
 40
0.000000
  0
LTYPE
  2
HIDDEN
 70
     0
  3
_ _ _ _ _ _ _ _ _ _ _ _ _ _ _ _ _ _ _ _ _ _ _
 72
    65
 73
     2
 40
0.375000
 49
0.250000
 49
-0.125000
  0
LTYPE
  2
DOT
 70
     0
  3
...............................................
 72
    65
 73
     2
 40
0.250000
 49
0.000000
 49
-0.250000
  0
LTYPE
  2
DASHED
 70
     0
  3
__ __ __ __ __ __ __ __ __ __ __ __ __ __ __ 
 72
    65
 73
     2
 40
0.750000
 49
0.500000
 49
-0.250000
  0
LTYPE
  2
DASHDOT
 70
     0
  3
__ . __ . __ . __ . __ . __ . __ . __ . __ . __
 72
    65
 73
     4
 40
1.000000
 49
0.500000
 49
-0.250000
 49
0.000000
 49
-0.250000
  0
LTYPE
  2
BORDER
 70
     0
  3
__ __ . __ __ . __ __ . __ __ . __ __ . __ __
 72
    65
 73
     6
 40
1.750000
 49
0.500000
 49
-0.250000
 49
0.500000
 49
-0.250000
 49
0.000000
 49
-0.250000
  0
LTYPE
  2
CENTER
 70
     0
  3
____ _ ____ _ ____ _ ____ _ ____ _ ____ _ ____
 72
    65
 73
     4
 40
2.000000
 49
1.250000
 49
-0.250000
 49
0.250000
 49
-0.250000
  0
LTYPE
  2
DIVIDE
 70
     0
  3
__ . . __ . . __ . . __ . . __ . . __ . . __
 72
    65
 73
     6
 40
1.250000
 49
0.500000
 49
-0.250000
 49
0.000000
 49
-0.250000
 49
0.000000
 49
-0.250000
  0
ENDTAB
  0
TABLE
  2
LAYER
 70
     4
  0
LAYER
  2
0
 70
     0
 62
     7
  6
CONTINUOUS
  0
LAYER
  2
TEXT
 70
     0
 62
     7
  6
CONTINUOUS
  0
LAYER
  2
HATCH
 70
     0
 62
     7
  6
CONTINUOUS
  0
LAYER
  2
DIMENSION
 70
     0
 62
     7
  6
CONTINUOUS
  0
LAYER
  2
C
 70
     0
 62
     7
  6
CONTINUOUS
  0
ENDTAB
  0
TABLE
  2
STYLE
 70
     1
  0
STYLE
  2
STANDARD
 70
     0
 40
0.000000
 41
1.000000
 50
0.000000
 71
     0
 42
3.500000
  3
txt
  4

  0
ENDTAB
  0
TABLE
  2
DIMSTYLE
 70
     3
  0
DIMSTYLE
  2
CAD400-DIM0
 70
     0
  3

  4

  5

  6

  7

 40
1.000000
 41
3.700000
 42
0.010000
 43
0.000000
 44
0.800000
 45
0.000000
 46
0.000000
 47
0.000000
 48
0.000000
140
3.500000
141
0.000000
142
0.000000
143
25.400000
144
1.000000
145
0.000000
146
1.000000
147
0.090000
 71
     0
 72
     0
 73
     0
 74
     0
 75
     0
 76
     0
 77
     1
 78
     8
170
     0
171
     2
172
     1
173
     0
174
     0
175
     0
176
     3
177
     3
178
     4
  0
DIMSTYLE
  2
CAD400-DIM1
 70
     0
  3

  4

  5

  6

  7

 40
1.000000
 41
3.700000
 42
0.505000
 43
0.000000
 44
0.800000
 45
0.000000
 46
0.000000
 47
0.000000
 48
0.000000
140
3.500000
141
0.000000
142
0.000000
143
25.400000
144
1.000000
145
0.000000
146
1.000000
147
0.090000
 71
     0
 72
     0
 73
     0
 74
     0
 75
     0
 76
     0
 77
     1
 78
     8
170
     0
171
     2
172
     1
173
     0
174
     0
175
     0
176
     3
177
     3
178
     4
  0
DIMSTYLE
  2
CAD400-DIM2
 70
     0
  3
= <>
  4

  5

  6

  7

 40
1.000000
 41
3.700000
 42
0.010000
 43
0.000000
 44
0.800000
 45
0.000000
 46
0.000000
 47
0.000000
 48
0.000000
140
3.500000
141
0.000000
142
0.000000
143
25.400000
144
1.000000
145
0.000000
146
1.000000
147
0.090000
 71
     0
 72
     0
 73
     0
 74
     0
 75
     0
 76
     0
 77
     1
 78
     0
170
     0
171
     2
172
     1
173
     0
174
     0
175
     0
176
     3
177
     3
178
     4
  0
ENDTAB
  0
TABLE
  2
VIEW
 70
     0
  0
ENDTAB
  0
TABLE
  2
UCS
 70
     0
  0
ENDTAB
  0
TABLE
  2
APPID
 70
     1
  0
APPID
  2
ACAD
 70
     0
  0
ENDTAB
  0
ENDSEC
  0
SECTION
  2
BLOCKS
  0
BLOCK
  8
C
  2
B
 70
    66
 10
0.000000
 20
0.000000
 30
0.000000
  0
LINE
  8
C
  6
CONTINUOUS
 62
     7
 10
-0.099998
 20
323.000004
 11
19.899999
 21
323.000004
  0
LINE
  8
C
  6
CONTINUOUS
 62
     7
 10
19.899999
 20
338.000004
 11
4.600002
 21
338.000004
  0
LINE
  8
C
  6
CONTINUOUS
 62
     7
 10
4.600002
 20
349.000004
 11
19.899999
 21
349.000004
  0
LINE
  8
C
  6
CONTINUOUS
 62
     7
 10
19.899999
 20
360.000004
 11
4.600002
 21
360.000004
  0
LINE
  8
C
  6
CONTINUOUS
 62
     7
 10
4.600002
 20
370.999999
 11
14.900000
 21
370.999997
  0
LINE
  8
C
  6
CONTINUOUS
 62
     7
 10
14.900000
 20
381.999997
 11
4.600002
 21
381.999999
  0
LINE
  8
C
  6
CONTINUOUS
 62
     7
 10
4.600002
 20
392.999998
 11
14.900000
 21
392.999997
  0
LINE
  8
C
  6
CONTINUOUS
 62
     7
 10
14.900000
 20
403.999997
 11
4.600002
 21
403.999998
  0
LINE
  8
C
  6
CONTINUOUS
 62
     3
 10
4.600002
 20
414.999998
 11
4.600002
 21
323.000004
  0
LINE
  8
C
  6
CONTINUOUS
 62
     3
 10
9.899999
 20
323.000004
 11
9.899999
 21
414.999999
  0
LINE
  8
C
  6
CONTINUOUS
 62
     3
 10
14.899999
 20
414.999999
 11
14.899999
 21
323.000004
  0
TEXT
  8
TEXT
 62
     3
 10
3.394152
 20
343.803395
 40
2.500000
  1
Grenzabma%%225e nach ISO 2768 - m
 50
90.000000
 41
0.772548
 51
0.000000
  7
STANDARD
 72
     5
 11
3.394152
 21
397.553395
 73
     0
  0
TEXT
  8
TEXT
 62
     3
 10
8.394152
 20
323.740895
 40
2.500000
  1
Nennma%%225e
 50
90.000000
 41
0.754190
 51
0.000000
  7
STANDARD
 72
     5
 11
8.394152
 21
337.240895
 73
     0
  0
TEXT
  8
TEXT
 62
     3
 10
13.394152
 20
323.740895
 40
2.500000
  1
L%%132ngen
 50
90.000000
 41
0.750469
 51
0.000000
  7
STANDARD
 72
     5
 11
13.394152
 21
333.740895
 73
     0
  0
TEXT
  8
TEXT
 62
     3
 10
18.394152
 20
323.740895
 40
2.500000
  1
Rad.Fase
 50
90.000000
 41
0.771429
 51
0.000000
  7
STANDARD
 72
     5
 11
18.394152
 21
337.240895
 73
     0
  0
TEXT
  8
TEXT
 62
     3
 10
6.746652
 20
339.590895
 40
1.500000
  1
> 0.5
 50
90.000000
 41
1.420765
 51
0.000000
  7
STANDARD
 72
     5
 11
6.746652
 21
347.390895
 73
     0
  0
TEXT
  8
TEXT
 62
     3
 10
9.266652
 20
339.590895
 40
1.500000
  1
< 3  
 50
90.000000
 41
1.247002
 51
0.000000
  7
STANDARD
 72
     5
 11
9.266652
 21
347.390895
 73
     0
  0
TEXT
  8
TEXT
 62
     3
 10
6.746652
 20
352.290895
 40
1.500000
  1
> 3
 50
90.000000
 41
1.173333
 51
0.000000
  7
STANDARD
 72
     5
 11
6.746652
 21
356.690895
 73
     0
  0
TEXT
  8
TEXT
 62
     3
 10
9.266652
 20
352.290895
 40
1.500000
  1
< 6
 50
90.000000
 41
1.253561
 51
0.000000
  7
STANDARD
 72
     5
 11
9.266652
 21
356.690895
 73
     0
  0
TEXT
  8
TEXT
 62
     3
 10
6.746652
 20
361.590895
 40
1.500000
  1
> 6 
 50
90.000000
 41
1.221221
 51
0.000000
  7
STANDARD
 72
     5
 11
6.746652
 21
367.690895
 73
     0
  0
TEXT
  8
TEXT
 62
     3
 10
9.266652
 20
361.590895
 40
1.500000
  1
< 30 
 50
90.000000
 41
1.300000
 51
0.000000
  7
STANDARD
 72
     5
 11
9.266652
 21
369.390895
 73
     0
  0
TEXT
  8
TEXT
 62
     3
 10
6.746652
 20
372.590895
 40
1.500000
  1
> 30
 50
90.000000
 41
1.221221
 51
0.000000
  7
STANDARD
 72
     5
 11
6.746652
 21
378.690895
 73
     0
  0
TEXT
  8
TEXT
 62
     3
 10
9.266652
 20
372.590895
 40
1.500000
  1
< 120
 50
90.000000
 41
1.354167
 51
0.000000
  7
STANDARD
 72
     5
 11
9.266652
 21
380.390895
 73
     0
  0
TEXT
  8
TEXT
 62
     3
 10
6.746652
 20
383.590895
 40
1.500000
  1
> 120
 50
90.000000
 41
1.300000
 51
0.000000
  7
STANDARD
 72
     5
 11
6.746652
 21
391.390895
 73
     0
  0
TEXT
  8
TEXT
 62
     3
 10
9.266652
 20
383.590895
 40
1.500000
  1
< 400
 50
90.000000
 41
1.300000
 51
0.000000
  7
STANDARD
 72
     5
 11
9.266652
 21
391.390895
 73
     0
  0
TEXT
  8
TEXT
 62
     3
 10
6.746652
 20
393.740895
 40
1.500000
  1
> 400
 50
90.000000
 41
1.250000
 51
0.000000
  7
STANDARD
 72
     5
 11
6.746652
 21
401.540895
 73
     0
  0
TEXT
  8
TEXT
 62
     3
 10
9.266652
 20
393.740895
 40
1.500000
  1
< 1000
 50
90.000000
 41
1.407407
 51
0.000000
  7
STANDARD
 72
     5
 11
9.266652
 21
403.240895
 73
     0
  0
TEXT
  8
TEXT
 62
     3
 10
6.746652
 20
404.740895
 40
1.500000
  1
> 1000
 50
90.000000
 41
1.359084
 51
0.000000
  7
STANDARD
 72
     5
 11
6.746652
 21
414.240895
 73
     0
  0
TEXT
  8
TEXT
 62
     3
 10
9.266652
 20
404.740895
 40
1.500000
  1
< 2000
 50
90.000000
 41
1.311249
 51
0.000000
  7
STANDARD
 72
     5
 11
9.266652
 21
414.240895
 73
     0
  0
TEXT
  8
TEXT
 62
     3
 10
13.650402
 20
339.640895
 40
2.500000
  1
%%P0.1
 50
90.000000
 41
1.236948
 51
0.000000
  7
STANDARD
 72
     5
 11
13.650402
 21
347.340895
 73
     0
  0
TEXT
  8
TEXT
 62
     3
 10
13.650402
 20
350.640895
 40
2.500000
  1
%%P0.1
 50
90.000000
 41
1.236948
 51
0.000000
  7
STANDARD
 72
     5
 11
13.650402
 21
358.340895
 73
     0
  0
TEXT
  8
TEXT
 62
     3
 10
13.650402
 20
361.640895
 40
2.500000
  1
%%P0.2
 50
90.000000
 41
1.088339
 51
0.000000
  7
STANDARD
 72
     5
 11
13.650402
 21
369.340895
 73
     0
  0
TEXT
  8
TEXT
 62
     3
 10
13.650402
 20
372.640895
 40
2.500000
  1
%%P0.3
 50
90.000000
 41
1.088339
 51
0.000000
  7
STANDARD
 72
     5
 11
13.650402
 21
380.340895
 73
     0
  0
TEXT
  8
TEXT
 62
     3
 10
13.650402
 20
383.640895
 40
2.500000
  1
%%P0.5
 50
90.000000
 41
1.088339
 51
0.000000
  7
STANDARD
 72
     5
 11
13.650402
 21
391.340895
 73
     0
  0
TEXT
  8
TEXT
 62
     3
 10
13.650402
 20
394.640895
 40
2.500000
  1
%%P0.8
 50
90.000000
 41
1.088339
 51
0.000000
  7
STANDARD
 72
     5
 11
13.650402
 21
402.340895
 73
     0
  0
TEXT
  8
TEXT
 62
     3
 10
13.650402
 20
405.640895
 40
2.500000
  1
%%P1.2
 50
90.000000
 41
1.153558
 51
0.000000
  7
STANDARD
 72
     5
 11
13.650402
 21
413.340895
 73
     0
  0
TEXT
  8
TEXT
 62
     3
 10
18.650402
 20
383.457957
 40
2.500000
  1
%%P1
 50
90.000000
 41
1.052632
 51
0.000000
  7
STANDARD
 72
     5
 11
18.650402
 21
386.957957
 73
     0
  0
TEXT
  8
TEXT
 62
     3
 10
18.650402
 20
350.640895
 40
2.500000
  1
%%P0.5
 50
90.000000
 41
1.088339
 51
0.000000
  7
STANDARD
 72
     5
 11
18.650402
 21
358.340895
 73
     0
  0
TEXT
  8
TEXT
 62
     3
 10
18.650402
 20
339.640895
 40
2.500000
  1
%%P0.2
 50
90.000000
 41
1.088339
 51
0.000000
  7
STANDARD
 72
     5
 11
18.650402
 21
347.340895
 73
     0
  0
ENDBLK
  8
0
  0
BLOCK
  8
C
  2
B-2
 70
    66
 10
0.000000
 20
0.000000
 30
0.000000
  0
LINE
  8
C
  6
CONTINUOUS
 62
     3
 10
466.350002
 20
13.699999
 11
466.350002
 21
21.299997
  0
LINE
  8
C
  6
CONTINUOUS
 62
     3
 10
471.950002
 20
21.299998
 11
471.950002
 21
19.299997
  0
LINE
  8
C
  6
CONTINUOUS
 62
     3
 10
469.550002
 20
19.299998
 11
469.550002
 21
18.099997
  0
LINE
  8
C
  6
CONTINUOUS
 62
     3
 10
471.950002
 20
18.099998
 11
471.950002
 21
16.499998
  0
LINE
  8
C
  6
CONTINUOUS
 62
     3
 10
469.550002
 20
16.499999
 11
469.550002
 21
13.699998
  0
LINE
  8
C
  6
CONTINUOUS
 62
     3
 10
472.650002
 20
21.299998
 11
472.650002
 21
16.099998
  0
ARC
  8
C
  6
CONTINUOUS
 62
     3
 10
475.050001
 20
16.099998
 40
2.400000
 50
179.999995
 51
270.000034
  0
ARC
  8
C
  6
CONTINUOUS
 62
     3
 10
477.450001
 20
16.099998
 40
2.400000
 50
270.000034
 51
0.000028
  0
LINE
  8
C
  6
CONTINUOUS
 62
     3
 10
479.850002
 20
16.099999
 11
479.850002
 21
21.299997
  0
LINE
  8
C
  6
CONTINUOUS
 62
     3
 10
480.550002
 20
13.699999
 11
480.550002
 21
21.299997
  0
LINE
  8
C
  6
CONTINUOUS
 62
     3
 10
483.350001
 20
21.299998
 11
483.350001
 21
18.899997
  0
LINE
  8
C
  6
CONTINUOUS
 62
     3
 10
484.950001
 20
18.899998
 11
484.950001
 21
21.299997
  0
LINE
  8
C
  6
CONTINUOUS
 62
     3
 10
487.750001
 20
21.299998
 11
487.750001
 21
13.699998
  0
LINE
  8
C
  6
CONTINUOUS
 62
     3
 10
484.950001
 20
13.699999
 11
484.950001
 21
16.499998
  0
LINE
  8
C
  6
CONTINUOUS
 62
     3
 10
483.350001
 20
16.499999
 11
483.350001
 21
13.699998
  0
LINE
  8
C
  6
CONTINUOUS
 62
     3
 10
491.250001
 20
18.099998
 11
491.250001
 21
19.699997
  0
LINE
  8
C
  6
CONTINUOUS
 62
     3
 10
491.250001
 20
19.699997
 11
491.650001
 21
19.699997
  0
ARC
  8
C
  6
CONTINUOUS
 62
     3
 10
491.650001
 20
18.899998
 40
0.800000
 50
0.000014
 51
89.999968
  0
ARC
  8
C
  6
CONTINUOUS
 62
     3
 10
491.650001
 20
18.899998
 40
0.800000
 50
270.000032
 51
0.000014
  0
LINE
  8
C
  6
CONTINUOUS
 62
     3
 10
491.650001
 20
18.099998
 11
491.250001
 21
18.099997
  0
LINE
  8
C
  6
CONTINUOUS
 62
     3
 10
488.450001
 20
13.699999
 11
488.450001
 21
21.299997
  0
ARC
  8
C
  6
CONTINUOUS
 62
     3
 10
493.650001
 20
19.699998
 40
1.600000
 50
0.000007
 51
89.999984
  0
LINE
  8
C
  6
CONTINUOUS
 62
     3
 10
495.250001
 20
19.699998
 11
495.250001
 21
18.899997
  0
ARC
  8
C
  6
CONTINUOUS
 62
     3
 10
493.650001
 20
18.899998
 40
1.600000
 50
270.000016
 51
359.999971
  0
ARC
  8
C
  6
CONTINUOUS
 62
     3
 10
493.650001
 20
15.699998
 40
1.600000
 50
0.000043
 51
89.999984
  0
LINE
  8
C
  6
CONTINUOUS
 62
     3
 10
495.250001
 20
15.699999
 11
495.250001
 21
14.299998
  0
LINE
  8
C
  6
CONTINUOUS
 62
     3
 10
492.450001
 20
13.699999
 11
492.450001
 21
16.099998
  0
ARC
  8
C
  6
CONTINUOUS
 62
     3
 10
491.650001
 20
16.099998
 40
0.800000
 50
0.000014
 51
89.999968
  0
LINE
  8
C
  6
CONTINUOUS
 62
     3
 10
491.250001
 20
16.899999
 11
491.250001
 21
13.699998
  0
LINE
  8
C
  6
CONTINUOUS
 62
     3
 10
491.250001
 20
16.899999
 11
491.650001
 21
16.899998
  0
LINE
  8
C
  6
CONTINUOUS
 62
     3
 10
475.450002
 20
21.299998
 11
475.450002
 21
15.699998
  0
ARC
  8
C
  6
CONTINUOUS
 62
     3
 10
476.250001
 20
15.699998
 40
0.800000
 50
179.999986
 51
0.000085
  0
LINE
  8
C
  6
CONTINUOUS
 62
     3
 10
477.050002
 20
15.699999
 11
477.050002
 21
21.299997
  0
ARC
  8
C
  6
CONTINUOUS
 62
     3
 10
495.650001
 20
14.299998
 40
0.400000
 50
179.999830
 51
270.000063
  0
ARC
  8
C
  6
CONTINUOUS
 62
     3
 10
464.400001
 20
11.799998
 40
0.500000
 50
179.999864
 51
270.000165
  0
LINE
  8
C
  6
CONTINUOUS
 62
     3
 10
463.900002
 20
11.799999
 11
463.900002
 21
23.199997
  0
ARC
  8
C
  6
CONTINUOUS
 62
     3
 10
464.400001
 20
23.199998
 40
0.500000
 50
89.999835
 51
180.000093
  0
LINE
  8
C
  6
CONTINUOUS
 62
     3
 10
464.400002
 20
23.699998
 11
497.400001
 21
23.699997
  0
ARC
  8
C
  6
CONTINUOUS
 62
     3
 10
497.400001
 20
23.199998
 40
0.500000
 50
0.000022
 51
89.999949
  0
LINE
  8
C
  6
CONTINUOUS
 62
     3
 10
497.900001
 20
23.199998
 11
497.900001
 21
11.799998
  0
ARC
  8
C
  6
CONTINUOUS
 62
     3
 10
497.400001
 20
11.799998
 40
0.500000
 50
270.000051
 51
0.000022
  0
LINE
  8
C
  6
CONTINUOUS
 62
     3
 10
495.650001
 20
13.699999
 11
495.650001
 21
13.899998
  0
LINE
  8
C
  6
CONTINUOUS
 62
     3
 10
464.400002
 20
11.299999
 11
497.400001
 21
11.299998
  0
LINE
  8
C
  6
CONTINUOUS
 62
     3
 10
466.350002
 20
21.299998
 11
471.950002
 21
21.299997
  0
LINE
  8
C
  6
CONTINUOUS
 62
     3
 10
472.650002
 20
21.299998
 11
475.450002
 21
21.299997
  0
LINE
  8
C
  6
CONTINUOUS
 62
     3
 10
477.050002
 20
21.299998
 11
479.850002
 21
21.299997
  0
LINE
  8
C
  6
CONTINUOUS
 62
     3
 10
475.050002
 20
13.699999
 11
477.450002
 21
13.699998
  0
LINE
  8
C
  6
CONTINUOUS
 62
     3
 10
469.550002
 20
13.699999
 11
466.350002
 21
13.699998
  0
LINE
  8
C
  6
CONTINUOUS
 62
     3
 10
469.550002
 20
16.499999
 11
471.950002
 21
16.499998
  0
LINE
  8
C
  6
CONTINUOUS
 62
     3
 10
469.550002
 20
18.099998
 11
471.950002
 21
18.099997
  0
LINE
  8
C
  6
CONTINUOUS
 62
     3
 10
469.550002
 20
19.299998
 11
471.950002
 21
19.299997
  0
LINE
  8
C
  6
CONTINUOUS
 62
     3
 10
480.550002
 20
21.299998
 11
483.350001
 21
21.299997
  0
LINE
  8
C
  6
CONTINUOUS
 62
     3
 10
483.350001
 20
18.899998
 11
484.950001
 21
18.899997
  0
LINE
  8
C
  6
CONTINUOUS
 62
     3
 10
484.950001
 20
21.299998
 11
487.750001
 21
21.299997
  0
LINE
  8
C
  6
CONTINUOUS
 62
     3
 10
483.350001
 20
16.499999
 11
484.950001
 21
16.499998
  0
LINE
  8
C
  6
CONTINUOUS
 62
     3
 10
480.550002
 20
13.699999
 11
483.350001
 21
13.699998
  0
LINE
  8
C
  6
CONTINUOUS
 62
     3
 10
484.950001
 20
13.699999
 11
487.750001
 21
13.699998
  0
LINE
  8
C
  6
CONTINUOUS
 62
     3
 10
488.450001
 20
21.299998
 11
493.650001
 21
21.299997
  0
LINE
  8
C
  6
CONTINUOUS
 62
     3
 10
488.450001
 20
13.699999
 11
491.250001
 21
13.699998
  0
LINE
  8
C
  6
CONTINUOUS
 62
     3
 10
492.450001
 20
13.699999
 11
495.650001
 21
13.699998
  0
LINE
  8
C
  6
CONTINUOUS
 62
     3
 10
483.350001
 20
16.499998
 11
484.950001
 21
16.499998
  0
ENDBLK
  8
0
  0
BLOCK
  8
C
  2
SCHRIFTF_
 70
    66
 10
0.000000
 20
0.000000
 30
0.000000
  0
LINE
  8
C
  6
CONTINUOUS
 62
     7
 10
403.900002
 20
59.999997
 11
588.900000
 21
59.999997
  0
LINE
  8
C
  6
CONTINUOUS
 62
     7
 10
403.900002
 20
42.999997
 11
588.900000
 21
42.999997
  0
LINE
  8
C
  6
CONTINUOUS
 62
     7
 10
588.900000
 20
52.999997
 11
502.900000
 21
52.999997
  0
LINE
  8
C
  6
CONTINUOUS
 62
     7
 10
502.900000
 20
59.999997
 11
502.900000
 21
4.999999
  0
LINE
  8
C
  6
CONTINUOUS
 62
     7
 10
458.900002
 20
4.999999
 11
458.900002
 21
59.999997
  0
LINE
  8
C
  6
CONTINUOUS
 62
     7
 10
484.900002
 20
59.999997
 11
484.900002
 21
25.999998
  0
LINE
  8
C
  6
CONTINUOUS
 62
     7
 10
502.900000
 20
21.999998
 11
588.900000
 21
21.999998
  0
LINE
  8
C
  6
CONTINUOUS
 62
     7
 10
575.900000
 20
21.999998
 11
575.900000
 21
8.999998
  0
LINE
  8
C
  6
CONTINUOUS
 62
     7
 10
588.900000
 20
8.999998
 11
403.900002
 21
8.999998
  0
LINE
  8
C
  6
CONTINUOUS
 62
     7
 10
554.900000
 20
52.999997
 11
554.900000
 21
59.999997
  0
LINE
  8
C
  6
CONTINUOUS
 62
     3
 10
403.900002
 20
38.749997
 11
502.900000
 21
38.749997
  0
LINE
  8
C
  6
CONTINUOUS
 62
     3
 10
403.900002
 20
34.499997
 11
502.900000
 21
34.499997
  0
LINE
  8
C
  6
CONTINUOUS
 62
     3
 10
403.900002
 20
30.249998
 11
502.900000
 21
30.249998
  0
LINE
  8
C
  6
CONTINUOUS
 62
     3
 10
403.900002
 20
25.999998
 11
458.900002
 21
25.999998
  0
LINE
  8
C
  6
CONTINUOUS
 62
     7
 10
458.900002
 20
25.999998
 11
502.900000
 21
25.999998
  0
LINE
  8
C
  6
CONTINUOUS
 62
     3
 10
458.900002
 20
21.999998
 11
403.900002
 21
21.999998
  0
LINE
  8
C
  6
CONTINUOUS
 62
     3
 10
439.400002
 20
17.749996
 11
410.900002
 21
17.749996
  0
LINE
  8
C
  6
CONTINUOUS
 62
     3
 10
458.900002
 20
13.499998
 11
403.900002
 21
13.499998
  0
LINE
  8
C
  6
CONTINUOUS
 62
     3
 10
575.900000
 20
13.499998
 11
588.900000
 21
13.499998
  0
LINE
  8
C
  6
CONTINUOUS
 62
     3
 10
545.900000
 20
4.999999
 11
545.900000
 21
8.999998
  0
LINE
  8
C
  6
CONTINUOUS
 62
     3
 10
468.900002
 20
42.999997
 11
468.900002
 21
25.999998
  0
LINE
  8
C
  6
CONTINUOUS
 62
     3
 10
410.900002
 20
4.999999
 11
410.900002
 21
42.999997
  0
LINE
  8
C
  6
CONTINUOUS
 62
     3
 10
439.400002
 20
42.999997
 11
439.400002
 21
4.999999
  0
LINE
  8
C
  6
CONTINUOUS
 62
     3
 10
452.400002
 20
4.999999
 11
452.400002
 21
42.999997
  0
LINE
  8
C
  6
CONTINUOUS
 62
     7
 10
403.900002
 20
59.999997
 11
403.900002
 21
4.999999
  0
TEXT
  8
TEXT
 62
     7
 10
423.622948
 20
48.466180
 40
5.000000
  1
345K
 50
0.000000
 41
0.659401
 51
0.000000
  7
STANDARD
 72
     5
 11
435.722948
 21
48.466180
 73
     0
  0
TEXT
  8
TEXT
 62
     7
 10
518.649986
 20
12.990890
 40
5.000000
  1
1-0345K-011/2
 50
0.000000
 41
0.837743
 51
0.000000
  7
STANDARD
 72
     5
 11
566.149986
 21
12.990890
 73
     0
  0
TEXT
  8
TEXT
 62
     3
 10
505.275001
 20
54.999997
 40
3.000000
  1
Ma%%225stab: 
 50
0.000000
 41
0.848564
 51
0.000000
  7
STANDARD
 72
     5
 11
524.775001
 21
54.999997
 73
     0
  0
TEXT
  8
TEXT
 62
     3
 10
557.275001
 20
54.998389
 40
3.000000
  1
Gew.: 
 50
0.000000
 41
1.021635
 51
0.000000
  7
STANDARD
 72
     5
 11
570.025001
 21
54.998389
 73
     0
  0
TEXT
  8
TEXT
 62
     3
 10
505.400001
 20
45.999997
 40
4.000000
  1
EDV-Nr.: 
 50
0.000000
 41
0.867824
 51
0.000000
  7
STANDARD
 72
     5
 11
531.400001
 21
45.999997
 73
     0
  0
TEXT
  8
TEXT
 62
     3
 10
404.912503
 20
5.995890
 40
2.000000
  1
Index
 50
0.000000
 41
0.629496
 51
0.000000
  7
STANDARD
 72
     5
 11
410.162503
 21
5.995890
 73
     0
  0
TEXT
  8
TEXT
 62
     3
 10
420.587503
 20
5.995890
 40
2.000000
  1
%%142nderung
 50
0.000000
 41
0.588336
 51
0.000000
  7
STANDARD
 72
     5
 11
429.212503
 21
5.995890
 73
     0
  0
TEXT
  8
TEXT
 62
     3
 10
440.087503
 20
5.995890
 40
2.000000
  1
Datum
 50
0.000000
 41
0.562099
 51
0.000000
  7
STANDARD
 72
     5
 11
445.337503
 21
5.995890
 73
     0
  0
TEXT
  8
TEXT
 62
     3
 10
453.087503
 20
5.995890
 40
2.000000
  1
Name 
 50
0.000000
 41
0.583333
 51
0.000000
  7
STANDARD
 72
     5
 11
458.337503
 21
5.995890
 73
     0
  0
TEXT
  8
TEXT
 62
     3
 10
503.587501
 20
5.995890
 40
2.000000
  1
Ersatz f%%129r:
 50
0.000000
 41
0.600000
 51
0.000000
  7
STANDARD
 72
     5
 11
515.587501
 21
5.995890
 73
     0
  0
TEXT
  8
TEXT
 62
     3
 10
546.587501
 20
5.995890
 40
2.000000
  1
Ersetzt durch:
 50
0.000000
 41
0.591346
 51
0.000000
  7
STANDARD
 72
     5
 11
561.962501
 21
5.995890
 73
     0
  0
TEXT
  8
TEXT
 62
     3
 10
584.987501
 20
9.995890
 40
2.000000
  1
Bl.
 50
0.000000
 41
1.000000
 51
0.000000
  7
STANDARD
 72
     5
 11
587.987501
 21
9.995890
 73
     0
  0
TEXT
  8
TEXT
 62
     3
 10
460.150003
 20
39.745889
 40
2.000000
  1
2000
 50
0.000000
 41
0.870253
 51
0.000000
  7
STANDARD
 72
     5
 11
465.650003
 21
39.745889
 73
     0
  0
TEXT
  8
TEXT
 62
     3
 10
470.150003
 20
39.745889
 40
2.000000
  1
Datum
 50
0.000000
 41
0.749465
 51
0.000000
  7
STANDARD
 72
     5
 11
477.150003
 21
39.745889
 73
     0
  0
TEXT
  8
TEXT
 62
     3
 10
486.150002
 20
39.745889
 40
2.000000
  1
Name 
 50
0.000000
 41
0.777778
 51
0.000000
  7
STANDARD
 72
     5
 11
493.150002
 21
39.745889
 73
     0
  0
TEXT
  8
TEXT
 62
     3
 10
459.787503
 20
35.495890
 40
2.000000
  1
Bearb.
 50
0.000000
 41
0.637500
 51
0.000000
  7
STANDARD
 72
     5
 11
466.162503
 21
35.495890
 73
     0
  0
TEXT
  8
TEXT
 62
     3
 10
459.731253
 20
31.245890
 40
2.000000
  1
Entwickl.
 50
0.000000
 41
0.664414
 51
0.000000
  7
STANDARD
 72
     5
 11
468.581253
 21
31.245890
 73
     0
  0
TEXT
  8
TEXT
 62
     3
 10
459.731253
 20
26.995890
 40
2.000000
  1
Freigabe
 50
0.000000
 41
0.559821
 51
0.000000
  7
STANDARD
 72
     5
 11
467.568753
 21
26.995890
 73
     0
  0
TEXT
  8
TEXT
 62
     3
 10
470.087501
 20
35.624997
 40
2.000000
  1
26.06.
 50
0.000000
 41
0.766226
 51
0.000000
  7
STANDARD
 72
     5
 11
476.462501
 21
35.624997
 73
     0
  0
TEXT
  8
TEXT
 62
     3
 10
486.087502
 20
35.624997
 40
2.000000
  1
Wetzel
 50
0.000000
 41
0.579545
 51
0.000000
  7
STANDARD
 72
     5
 11
492.462502
 21
35.624997
 73
     0
  0
TEXT
  8
TEXT
 62
     3
 10
464.625003
 20
55.330889
 40
2.000000
  1
Allgemein-
 50
0.000000
 41
0.925926
 51
0.000000
  7
STANDARD
 72
     5
 11
479.125003
 21
55.330889
 73
     0
  0
TEXT
  8
TEXT
 62
     3
 10
464.625003
 20
51.570889
 40
2.000000
  1
toleranzen
 50
0.000000
 41
0.821065
 51
0.000000
  7
STANDARD
 72
     5
 11
479.125003
 21
51.570889
 73
     0
  0
TEXT
  8
TEXT
 62
     3
 10
578.737501
 20
18.859640
 40
2.500000
  1
Blatt
 50
0.000000
 41
0.839329
 51
0.000000
  7
STANDARD
 72
     5
 11
587.487501
 21
18.859640
 73
     0
  0
TEXT
  8
TEXT
 62
     3
 10
578.737501
 20
14.159640
 40
2.500000
  1
001
 50
0.000000
 41
1.005025
 51
0.000000
  7
STANDARD
 72
     5
 11
583.737501
 21
14.159640
 73
     0
  0
TEXT
  8
TEXT
 62
     4
 10
462.975003
 20
46.545889
 40
2.000000
  1
ISO 2768 - m
 50
0.000000
 41
0.771605
 51
0.000000
  7
STANDARD
 72
     5
 11
480.475003
 21
46.545889
 73
     0
  0
TEXT
  8
TEXT
 62
     3
 10
525.275001
 20
54.999997
 40
3.000000
  1
1:1
 50
0.000000
 41
1.503759
 51
0.000000
  7
STANDARD
 72
     5
 11
531.275001
 21
54.999997
 73
     0
  0
TEXT
  8
TEXT
 62
     3
 10
570.275001
 20
54.998389
 40
3.000000
  1
       
 50
0.000000
 41
0.769231
 51
0.000000
  7
STANDARD
 72
     5
 11
585.275001
 21
54.998389
 73
     0
  0
TEXT
  8
TEXT
 62
     4
 10
537.900001
 20
45.999997
 40
4.000000
  1
AM345K22
 50
0.000000
 41
0.749674
 51
0.000000
  7
STANDARD
 72
     5
 11
560.900001
 21
45.999997
 73
     0
  0
TEXT
  8
TEXT
 62
     3
 10
405.068753
 20
57.090889
 40
1.800000
  1
Artikel:
 50
0.000000
 41
0.739708
 51
0.000000
  7
STANDARD
 72
     5
 11
412.831253
 21
57.090889
 73
     0
  0
TEXT
  8
TEXT
 62
     3
 10
504.068751
 20
19.090890
 40
1.800000
  1
Zeichnungs-Nr.:
 50
0.000000
 41
0.669643
 51
0.000000
  7
STANDARD
 72
     5
 11
518.918751
 21
19.090890
 73
     0
  0
TEXT
  8
TEXT
 62
     3
 10
407.025003
 20
10.240890
 40
2.000000
  1
a
 50
0.000000
 41
0.375437
 51
0.000000
  7
STANDARD
 72
     5
 11
407.775003
 21
10.240890
 73
     0
  0
TEXT
  8
TEXT
 62
     3
 10
411.587503
 20
10.240890
 40
2.000000
  1
Pos. 13 hinzu            
 50
0.000000
 41
0.612312
 51
0.000000
  7
STANDARD
 72
     5
 11
439.337503
 21
10.240890
 73
     0
  0
TEXT
  8
TEXT
 62
     3
 10
440.087503
 20
10.240890
 40
2.000000
  1
11.10.2005 
 50
0.000000
 41
0.783290
 51
0.000000
  7
STANDARD
 72
     5
 11
452.087503
 21
10.240890
 73
     0
  0
TEXT
  8
TEXT
 62
     3
 10
453.087503
 20
10.240890
 40
2.000000
  1
We   
 50
0.000000
 41
0.543478
 51
0.000000
  7
STANDARD
 72
     5
 11
458.337503
 21
10.240890
 73
     0
  0
TEXT
  8
TEXT
 62
     3
 10
407.025003
 20
14.615890
 40
2.000000
  1
b
 50
0.000000
 41
0.375437
 51
0.000000
  7
STANDARD
 72
     5
 11
407.775003
 21
14.615890
 73
     0
  0
TEXT
  8
TEXT
 62
     3
 10
407.025003
 20
18.865890
 40
2.000000
  1
 
 50
0.000000
 41
0.452442
 51
0.000000
  7
STANDARD
 72
     5
 11
407.775003
 21
18.865890
 73
     0
  0
TEXT
  8
TEXT
 62
     3
 10
407.025003
 20
22.990890
 40
2.000000
  1
 
 50
0.000000
 41
0.452442
 51
0.000000
  7
STANDARD
 72
     5
 11
407.775003
 21
22.990890
 73
     0
  0
TEXT
  8
TEXT
 62
     3
 10
407.025003
 20
27.115890
 40
2.000000
  1
 
 50
0.000000
 41
0.452442
 51
0.000000
  7
STANDARD
 72
     5
 11
407.775003
 21
27.115890
 73
     0
  0
TEXT
  8
TEXT
 62
     3
 10
407.025003
 20
31.365890
 40
2.000000
  1
 
 50
0.000000
 41
0.452442
 51
0.000000
  7
STANDARD
 72
     5
 11
407.775003
 21
31.365890
 73
     0
  0
TEXT
  8
TEXT
 62
     3
 10
407.025003
 20
35.615890
 40
2.000000
  1
 
 50
0.000000
 41
0.452442
 51
0.000000
  7
STANDARD
 72
     5
 11
407.775003
 21
35.615890
 73
     0
  0
TEXT
  8
TEXT
 62
     3
 10
407.025003
 20
39.865889
 40
2.000000
  1
 
 50
0.000000
 41
0.452442
 51
0.000000
  7
STANDARD
 72
     5
 11
407.775003
 21
39.865889
 73
     0
  0
TEXT
  8
TEXT
 62
     3
 10
411.587503
 20
14.615890
 40
2.000000
  1
Pos. 14 hinzu            
 50
0.000000
 41
0.612312
 51
0.000000
  7
STANDARD
 72
     5
 11
439.337503
 21
14.615890
 73
     0
  0
TEXT
  8
TEXT
 62
     3
 10
411.587503
 20
18.865890
 40
2.000000
  1
Pos.4 war 6-00 057/4
 50
0.000000
 41
0.598296
 51
0.000000
  7
STANDARD
 72
     5
 11
433.712503
 21
18.865890
 73
     0
  0
TEXT
  8
TEXT
 62
     3
 10
411.587503
 20
22.990890
 40
2.000000
  1
                         
 50
0.000000
 41
0.566327
 51
0.000000
  7
STANDARD
 72
     5
 11
439.337503
 21
22.990890
 73
     0
  0
TEXT
  8
TEXT
 62
     3
 10
411.587503
 20
27.115890
 40
2.000000
  1
                         
 50
0.000000
 41
0.566327
 51
0.000000
  7
STANDARD
 72
     5
 11
439.337503
 21
27.115890
 73
     0
  0
TEXT
  8
TEXT
 62
     3
 10
411.587503
 20
31.365890
 40
2.000000
  1
                         
 50
0.000000
 41
0.566327
 51
0.000000
  7
STANDARD
 72
     5
 11
439.337503
 21
31.365890
 73
     0
  0
TEXT
  8
TEXT
 62
     3
 10
411.587503
 20
35.615890
 40
2.000000
  1
                         
 50
0.000000
 41
0.566327
 51
0.000000
  7
STANDARD
 72
     5
 11
439.337503
 21
35.615890
 73
     0
  0
TEXT
  8
TEXT
 62
     3
 10
411.587503
 20
39.865889
 40
2.000000
  1
                         
 50
0.000000
 41
0.566327
 51
0.000000
  7
STANDARD
 72
     5
 11
439.337503
 21
39.865889
 73
     0
  0
TEXT
  8
TEXT
 62
     3
 10
440.087503
 20
14.615890
 40
2.000000
  1
04.12.2009 
 50
0.000000
 41
0.721154
 51
0.000000
  7
STANDARD
 72
     5
 11
452.087503
 21
14.615890
 73
     0
  0
TEXT
  8
TEXT
 62
     3
 10
440.087503
 20
18.865890
 40
2.000000
  1
           
 50
0.000000
 41
0.571429
 51
0.000000
  7
STANDARD
 72
     5
 11
452.087503
 21
18.865890
 73
     0
  0
TEXT
  8
TEXT
 62
     3
 10
440.087503
 20
22.990890
 40
2.000000
  1
           
 50
0.000000
 41
0.571429
 51
0.000000
  7
STANDARD
 72
     5
 11
452.087503
 21
22.990890
 73
     0
  0
TEXT
  8
TEXT
 62
     3
 10
440.087503
 20
27.115890
 40
2.000000
  1
           
 50
0.000000
 41
0.571429
 51
0.000000
  7
STANDARD
 72
     5
 11
452.087503
 21
27.115890
 73
     0
  0
TEXT
  8
TEXT
 62
     3
 10
440.087503
 20
31.365890
 40
2.000000
  1
           
 50
0.000000
 41
0.571429
 51
0.000000
  7
STANDARD
 72
     5
 11
452.087503
 21
31.365890
 73
     0
  0
TEXT
  8
TEXT
 62
     3
 10
440.087503
 20
35.615890
 40
2.000000
  1
           
 50
0.000000
 41
0.571429
 51
0.000000
  7
STANDARD
 72
     5
 11
452.087503
 21
35.615890
 73
     0
  0
TEXT
  8
TEXT
 62
     3
 10
440.087503
 20
39.865889
 40
2.000000
  1
           
 50
0.000000
 41
0.571429
 51
0.000000
  7
STANDARD
 72
     5
 11
452.087503
 21
39.865889
 73
     0
  0
TEXT
  8
TEXT
 62
     3
 10
453.087503
 20
14.615890
 40
2.000000
  1
Aust 
 50
0.000000
 41
0.583333
 51
0.000000
  7
STANDARD
 72
     5
 11
458.337503
 21
14.615890
 73
     0
  0
TEXT
  8
TEXT
 62
     3
 10
453.087503
 20
18.865890
 40
2.000000
  1
     
 50
0.000000
 41
0.583333
 51
0.000000
  7
STANDARD
 72
     5
 11
458.337503
 21
18.865890
 73
     0
  0
TEXT
  8
TEXT
 62
     3
 10
453.087503
 20
22.990890
 40
2.000000
  1
     
 50
0.000000
 41
0.583333
 51
0.000000
  7
STANDARD
 72
     5
 11
458.337503
 21
22.990890
 73
     0
  0
TEXT
  8
TEXT
 62
     3
 10
453.087503
 20
27.115890
 40
2.000000
  1
     
 50
0.000000
 41
0.583333
 51
0.000000
  7
STANDARD
 72
     5
 11
458.337503
 21
27.115890
 73
     0
  0
TEXT
  8
TEXT
 62
     3
 10
453.087503
 20
31.365890
 40
2.000000
  1
     
 50
0.000000
 41
0.583333
 51
0.000000
  7
STANDARD
 72
     5
 11
458.337503
 21
31.365890
 73
     0
  0
TEXT
  8
TEXT
 62
     3
 10
453.087503
 20
35.615890
 40
2.000000
  1
     
 50
0.000000
 41
0.583333
 51
0.000000
  7
STANDARD
 72
     5
 11
458.337503
 21
35.615890
 73
     0
  0
TEXT
  8
TEXT
 62
     3
 10
453.087503
 20
39.865889
 40
2.000000
  1
     
 50
0.000000
 41
0.583333
 51
0.000000
  7
STANDARD
 72
     5
 11
458.337503
 21
39.865889
 73
     0
  0
TEXT
  8
TEXT
 62
     7
 10
510.150011
 20
34.499997
 40
4.500000
  1
Einsteck T%%129rkantriegel
 50
0.000000
 41
0.815233
 51
0.000000
  7
STANDARD
 72
     5
 11
581.650011
 21
34.499997
 73
     0
  0
TEXT
  8
TEXT
 62
     7
 10
520.050011
 20
25.999997
 40
4.500000
  1
                
 50
0.000000
 41
0.741219
 51
0.000000
  7
STANDARD
 72
     5
 11
571.750011
 21
25.999997
 73
     0
  0
TEXT
  8
TEXT
 62
     3
 10
470.087501
 20
31.374997
 40
2.000000
  1
  
 50
0.000000
 41
0.625000
 51
0.000000
  7
STANDARD
 72
     5
 11
471.962501
 21
31.374997
 73
     0
  0
TEXT
  8
TEXT
 62
     3
 10
486.087502
 20
31.374997
 40
2.000000
  1
 
 50
0.000000
 41
0.452442
 51
0.000000
  7
STANDARD
 72
     5
 11
486.837502
 21
31.374997
 73
     0
  0
ENDBLK
  8
0
  0
BLOCK
  8
C
  2
B-3
 70
    66
 10
0.000000
 20
0.000000
 30
0.000000
  0
CIRCLE
  8
C
  6
CONTINUOUS
 62
     7
 10
217.816960
 20
322.009299
 40
2.500000
  0
ENDBLK
  8
0
  0
BLOCK
  8
C
  2
B-4
 70
    66
 10
0.000000
 20
0.000000
 30
0.000000
  0
LINE
  8
C
  6
CONTINUOUS
 62
     7
 10
181.504163
 20
139.742288
 11
181.504163
 21
145.442288
  0
LINE
  8
C
  6
CONTINUOUS
 62
     7
 10
174.504163
 20
139.742288
 11
174.504163
 21
145.442288
  0
ENDBLK
  8
0
  0
BLOCK
  8
C
  2
B-5
 70
    66
 10
0.000000
 20
0.000000
 30
0.000000
  0
LINE
  8
C
  6
CONTINUOUS
 62
     7
 10
317.435933
 20
134.592288
 11
314.095722
 21
134.592288
  0
LINE
  8
C
  6
CONTINUOUS
 62
     7
 10
314.095723
 20
150.592285
 11
317.435933
 21
150.592286
  0
LINE
  8
C
  6
CONTINUOUS
 62
     7
 10
305.804160
 20
140.092288
 11
212.409665
 21
140.092288
  0
ARC
  8
C
  6
CONTINUOUS
 62
     7
 10
212.409664
 20
140.592287
 40
0.500000
 50
182.999920
 51
270.000085
  0
LINE
  8
C
  6
CONTINUOUS
 62
     7
 10
212.409664
 20
145.092286
 11
305.804160
 21
145.092287
  0
LINE
  8
C
  6
CONTINUOUS
 62
     7
 10
318.434562
 20
135.539952
 11
318.804160
 21
142.592287
  0
ARC
  8
C
  6
CONTINUOUS
 62
     7
 10
317.435934
 20
135.592287
 40
1.000000
 50
269.999916
 51
357.000034
  0
LINE
  8
C
  6
CONTINUOUS
 62
     7
 10
318.434562
 20
149.644622
 11
318.804161
 21
142.592278
  0
ARC
  8
C
  6
CONTINUOUS
 62
     7
 10
317.435934
 20
149.592286
 40
1.000000
 50
3.000019
 51
90.000085
  0
ARC
  8
C
  6
CONTINUOUS
 62
     7
 10
314.095724
 20
143.592287
 40
9.000000
 50
202.885367
 51
269.999991
  0
ARC
  8
C
  6
CONTINUOUS
 62
     7
 10
314.095724
 20
141.592286
 40
9.000000
 50
90.000005
 51
157.114616
  0
LINE
  8
C
  6
CONTINUOUS
 62
     7
 10
241.804163
 20
145.092287
 11
241.804163
 21
145.092287
  0
LINE
  8
C
  6
CONTINUOUS
 62
     7
 10
241.804163
 20
145.092287
 11
241.354163
 21
145.092287
  0
LINE
  8
C
  6
BORDER
 62
     3
 10
238.804163
 20
147.092287
 11
238.804163
 21
138.092288
  0
LINE
  8
C
  6
BORDER
 62
     3
 10
228.204163
 20
147.092287
 11
228.204163
 21
138.092288
  0
LINE
  8
C
  6
BORDER
 62
     3
 10
217.604163
 20
147.092287
 11
217.604163
 21
138.092288
  0
LINE
  8
C
  6
CONTINUOUS
 62
     7
 10
211.910350
 20
144.618454
 11
211.804163
 21
142.592287
  0
ARC
  8
C
  6
CONTINUOUS
 62
     7
 10
212.409664
 20
144.592286
 40
0.500000
 50
90.000028
 51
176.999966
  0
LINE
  8
C
  6
CONTINUOUS
 62
     7
 10
211.804163
 20
142.592287
 11
211.910350
 21
140.566120
  0
ENDBLK
  8
0
  0
BLOCK
  8
C
  2
B-6
 70
    66
 10
0.000000
 20
0.000000
 30
0.000000
  0
LINE
  8
C
  6
CONTINUOUS
 62
     7
 10
164.404163
 20
139.742288
 11
164.404163
 21
142.592288
  0
LINE
  8
C
  6
CONTINUOUS
 62
     7
 10
164.404163
 20
139.742288
 11
164.404163
 21
145.442288
  0
LINE
  8
C
  6
CONTINUOUS
 62
     7
 10
157.904164
 20
139.742288
 11
157.904164
 21
145.442288
  0
ENDBLK
  8
0
  0
BLOCK
  8
C
  2
B-7
 70
    66
 10
0.000000
 20
0.000000
 30
0.000000
  0
CIRCLE
  8
C
  6
DOT
 62
     3
 10
171.704163
 20
148.442288
 40
1.500000
  0
CIRCLE
  8
C
  6
DOT
 62
     3
 10
177.704163
 20
148.442288
 40
1.500000
  0
CIRCLE
  8
C
  6
DOT
 62
     3
 10
219.704163
 20
148.442288
 40
1.500000
  0
CIRCLE
  8
C
  6
DOT
 62
     3
 10
236.704163
 20
148.442288
 40
1.500000
  0
CIRCLE
  8
C
  6
DOT
 62
     3
 10
278.704163
 20
148.442288
 40
1.500000
  0
CIRCLE
  8
C
  6
DOT
 62
     3
 10
284.704163
 20
148.442288
 40
1.500000
  0
LINE
  8
C
  6
BORDER
 62
     3
 10
169.704164
 20
148.442288
 11
173.704164
 21
148.442288
  0
LINE
  8
C
  6
BORDER
 62
     3
 10
171.704164
 20
146.442288
 11
171.704164
 21
150.442288
  0
LINE
  8
C
  6
BORDER
 62
     3
 10
175.704164
 20
148.442288
 11
179.704164
 21
148.442288
  0
LINE
  8
C
  6
BORDER
 62
     3
 10
177.704164
 20
146.442288
 11
177.704164
 21
150.442288
  0
LINE
  8
C
  6
BORDER
 62
     3
 10
217.704164
 20
148.442288
 11
221.704164
 21
148.442288
  0
LINE
  8
C
  6
BORDER
 62
     3
 10
219.704164
 20
146.442288
 11
219.704164
 21
150.442288
  0
LINE
  8
C
  6
BORDER
 62
     3
 10
236.704164
 20
146.442288
 11
236.704164
 21
150.442288
  0
LINE
  8
C
  6
BORDER
 62
     3
 10
234.704164
 20
148.442288
 11
238.704164
 21
148.442288
  0
LINE
  8
C
  6
BORDER
 62
     3
 10
276.704164
 20
148.442288
 11
280.704164
 21
148.442288
  0
LINE
  8
C
  6
BORDER
 62
     3
 10
282.704164
 20
148.442288
 11
286.704164
 21
148.442288
  0
LINE
  8
C
  6
BORDER
 62
     3
 10
284.704164
 20
146.442288
 11
284.704164
 21
150.442288
  0
LINE
  8
C
  6
BORDER
 62
     3
 10
278.704164
 20
146.442288
 11
278.704164
 21
150.442288
  0
LINE
  8
DIMENSION
  6
CONTINUOUS
 62
     3
 10
177.704164
 20
148.442288
 11
191.900000
 21
170.000000
  0
LINE
  8
DIMENSION
  6
CONTINUOUS
 62
     3
 10
191.900000
 20
170.000000
 11
271.900000
 21
170.000000
  0
TEXT
  8
TEXT
 62
     4
 10
194.709116
 20
171.546896
 40
3.200000
  1
Schwei%%225buckel im Getriebekasten
 50
0.000000
 41
0.826743
 51
0.000000
  7
STANDARD
 72
     5
 11
268.309116
 21
171.546896
 73
     0
  0
ENDBLK
  8
0
  0
BLOCK
  8
C
  2
B-8
 70
    66
 10
0.000000
 20
0.000000
 30
0.000000
  0
LINE
  8
C
  6
CONTINUOUS
 62
     7
 10
523.967080
 20
342.722589
 11
504.967081
 21
342.722589
  0
LINE
  8
C
  6
CONTINUOUS
 62
     7
 10
504.967081
 20
342.722589
 11
504.967081
 21
329.222590
  0
LINE
  8
C
  6
CONTINUOUS
 62
     7
 10
505.967081
 20
328.222590
 11
522.967080
 21
328.222590
  0
ARC
  8
C
  6
CONTINUOUS
 62
     7
 10
505.967080
 20
329.222589
 40
1.000000
 50
179.999959
 51
270.000045
  0
ARC
  8
C
  6
CONTINUOUS
 62
     7
 10
522.967080
 20
329.222589
 40
1.000000
 50
269.999987
 51
0.000041
  0
LINE
  8
C
  6
CONTINUOUS
 62
     7
 10
523.967080
 20
329.222590
 11
523.967080
 21
342.722589
  0
LINE
  8
C
  6
BORDER
 62
     3
 10
514.467080
 20
327.927326
 11
514.467081
 21
347.472592
  0
ENDBLK
  8
0
  0
BLOCK
  8
C
  2
B-9
 70
    66
 10
0.000000
 20
0.000000
 30
0.000000
  0
CIRCLE
  8
C
  6
CONTINUOUS
 62
     7
 10
238.591364
 20
326.235899
 40
2.500000
  0
ENDBLK
  8
0
  0
BLOCK
  8
C
  2
B-10
 70
    66
 10
0.000000
 20
0.000000
 30
0.000000
  0
LINE
  8
C
  6
CONTINUOUS
 62
     7
 10
327.116966
 20
316.522597
 11
327.116966
 21
303.522602
  0
LINE
  8
C
  6
CONTINUOUS
 62
     7
 10
327.116966
 20
303.522602
 11
307.116965
 21
303.522603
  0
LINE
  8
C
  6
CONTINUOUS
 62
     7
 10
307.616960
 20
316.522597
 11
327.116966
 21
316.522597
  0
ARC
  8
C
  6
CONTINUOUS
 62
     7
 10
238.419407
 20
310.022599
 40
70.000000
 50
354.672004
 51
5.327996
  0
LINE
  8
C
  6
BORDER
 62
     3
 10
329.213818
 20
310.022599
 11
290.860275
 21
310.022599
  0
LINE
  8
C
  6
DOT
 62
     2
 10
313.116967
 20
314.022597
 11
326.116965
 21
314.022597
  0
LINE
  8
C
  6
DOT
 62
     2
 10
310.116967
 20
310.022599
 11
310.116967
 21
314.022597
  0
LINE
  8
C
  6
DOT
 62
     2
 10
310.116967
 20
314.022597
 11
307.807570
 21
310.022599
  0
LINE
  8
C
  6
DOT
 62
     2
 10
307.807570
 20
310.022599
 11
310.116967
 21
306.022602
  0
LINE
  8
C
  6
DOT
 62
     2
 10
310.116967
 20
306.022602
 11
310.116967
 21
310.022599
  0
LINE
  8
C
  6
DOT
 62
     2
 10
313.116967
 20
306.022602
 11
310.116967
 21
306.022602
  0
LINE
  8
C
  6
DOT
 62
     2
 10
313.116967
 20
305.022602
 11
327.116965
 21
305.022602
  0
LINE
  8
C
  6
DOT
 62
     2
 10
313.116967
 20
306.022602
 11
313.116967
 21
315.022597
  0
LINE
  8
C
  6
DOT
 62
     2
 10
326.116965
 20
306.022602
 11
313.116967
 21
306.022602
  0
LINE
  8
C
  6
DOT
 62
     2
 10
313.116967
 20
305.022602
 11
313.116967
 21
306.022602
  0
LINE
  8
C
  6
DOT
 62
     2
 10
310.116967
 20
314.022597
 11
313.116967
 21
314.022597
  0
LINE
  8
C
  6
DOT
 62
     2
 10
327.116965
 20
315.022597
 11
313.116967
 21
315.022597
  0
LINE
  8
C
  6
DOT
 62
     2
 10
326.116965
 20
314.022597
 11
327.116965
 21
315.022597
  0
LINE
  8
C
  6
DOT
 62
     2
 10
327.116965
 20
305.022602
 11
326.116965
 21
306.022602
  0
LINE
  8
C
  6
DOT
 62
     2
 10
326.116965
 20
306.022602
 11
326.116965
 21
314.022597
  0
ENDBLK
  8
0
  0
BLOCK
  8
C
  2
B-11
 70
    66
 10
0.000000
 20
0.000000
 30
0.000000
  0
LINE
  8
C
  6
CONTINUOUS
 62
     7
 10
521.217079
 20
301.922591
 11
522.717079
 21
301.922591
  0
LINE
  8
C
  6
CONTINUOUS
 62
     7
 10
522.717079
 20
301.922591
 11
522.717079
 21
328.222589
  0
LINE
  8
C
  6
CONTINUOUS
 62
     7
 10
521.217079
 20
301.922591
 11
521.217079
 21
328.222589
  0
LINE
  8
C
  6
CONTINUOUS
 62
     7
 10
525.217079
 20
342.722587
 11
525.217079
 21
337.722600
  0
LINE
  8
C
  6
CONTINUOUS
 62
     7
 10
523.967080
 20
337.722600
 11
525.217079
 21
337.722600
  0
LINE
  8
C
  6
CONTINUOUS
 62
     7
 10
525.217079
 20
341.922603
 11
525.467081
 21
342.722587
  0
LINE
  8
HATCH
  6
CONTINUOUS
 62
     4
 10
525.217079
 20
341.947595
 11
525.224889
 21
341.947595
  0
LINE
  8
HATCH
  6
CONTINUOUS
 62
     4
 10
525.217079
 20
342.097595
 11
525.271766
 21
342.097595
  0
LINE
  8
HATCH
  6
CONTINUOUS
 62
     4
 10
525.217079
 20
342.247595
 11
525.318642
 21
342.247595
  0
LINE
  8
HATCH
  6
CONTINUOUS
 62
     4
 10
525.217079
 20
342.397595
 11
525.365518
 21
342.397595
  0
LINE
  8
HATCH
  6
CONTINUOUS
 62
     4
 10
525.217079
 20
342.547595
 11
525.412394
 21
342.547595
  0
LINE
  8
HATCH
  6
CONTINUOUS
 62
     4
 10
525.217079
 20
342.697595
 11
525.459271
 21
342.697595
  0
ENDBLK
  8
0
  0
BLOCK
  8
C
  2
B-12
 70
    66
 10
0.000000
 20
0.000000
 30
0.000000
  0
LINE
  8
C
  6
CONTINUOUS
 62
     7
 10
510.717081
 20
328.222589
 11
510.717081
 21
317.422617
  0
LINE
  8
C
  6
CONTINUOUS
 62
     7
 10
510.717081
 20
304.422620
 11
510.717082
 21
303.422591
  0
LINE
  8
C
  6
CONTINUOUS
 62
     7
 10
512.217082
 20
301.922591
 11
521.217079
 21
301.922591
  0
ARC
  8
C
  6
CONTINUOUS
 62
     7
 10
512.217081
 20
303.422589
 40
1.500000
 50
179.999917
 51
270.000033
  0
LINE
  8
C
  6
CONTINUOUS
 62
     7
 10
521.217079
 20
303.422591
 11
512.317082
 21
303.422591
  0
LINE
  8
C
  6
CONTINUOUS
 62
     7
 10
512.317082
 20
326.922588
 11
512.317081
 21
328.222589
  0
LINE
  8
C
  6
CONTINUOUS
 62
     7
 10
512.317082
 20
326.922588
 11
516.417079
 21
326.922588
  0
LINE
  8
C
  6
CONTINUOUS
 62
     7
 10
517.917079
 20
325.422588
 11
517.917079
 21
317.415943
  0
LINE
  8
C
  6
CONTINUOUS
 62
     7
 10
517.917079
 20
304.429294
 11
517.917079
 21
303.422591
  0
ARC
  8
C
  6
CONTINUOUS
 62
     7
 10
516.417081
 20
325.422589
 40
1.500000
 50
359.999969
 51
90.000081
  0
LINE
  8
C
  6
CONTINUOUS
 62
     7
 10
521.217079
 20
303.422591
 11
521.217079
 21
301.922591
  0
LINE
  8
C
  6
CONTINUOUS
 62
     7
 10
510.717082
 20
326.922588
 11
512.317082
 21
326.922588
  0
ENDBLK
  8
0
  0
BLOCK
  8
C
  2
B-13
 70
    66
 10
0.000000
 20
0.000000
 30
0.000000
  0
CIRCLE
  8
C
  6
CONTINUOUS
 62
     7
 10
175.704165
 20
315.922601
 40
2.000000
  0
CIRCLE
  8
C
  6
CONTINUOUS
 62
     7
 10
175.704165
 20
315.922601
 40
3.500000
  0
LINE
  8
C
  6
BORDER
 62
     3
 10
171.204165
 20
315.922601
 11
180.204165
 21
315.922601
  0
LINE
  8
C
  6
BORDER
 62
     3
 10
175.704165
 20
311.422601
 11
175.704165
 21
320.422601
  0
ENDBLK
  8
0
  0
BLOCK
  8
C
  2
B-14
 70
    66
 10
0.000000
 20
0.000000
 30
0.000000
  0
CIRCLE
  8
C
  6
CONTINUOUS
 62
     7
 10
280.704163
 20
315.922601
 40
1.999999
  0
CIRCLE
  8
C
  6
CONTINUOUS
 62
     7
 10
280.704163
 20
315.922601
 40
3.499999
  0
LINE
  8
C
  6
BORDER
 62
     3
 10
280.704163
 20
311.422601
 11
280.704163
 21
320.422601
  0
ENDBLK
  8
0
  0
BLOCK
  8
C
  2
B-15
 70
    66
 10
0.000000
 20
0.000000
 30
0.000000
  0
LINE
  8
C
  6
CONTINUOUS
 62
     7
 10
520.967079
 20
328.222589
 11
520.967079
 21
304.422619
  0
LINE
  8
C
  6
CONTINUOUS
 62
     7
 10
520.967079
 20
304.422619
 11
518.217079
 21
304.422619
  0
LINE
  8
C
  6
CONTINUOUS
 62
     7
 10
518.217079
 20
304.422619
 11
518.217079
 21
304.464580
  0
LINE
  8
C
  6
CONTINUOUS
 62
     7
 10
518.217079
 20
317.380657
 11
518.217079
 21
328.222589
  0
LINE
  8
C
  6
CONTINUOUS
 62
     7
 10
518.217079
 20
327.422598
 11
520.967079
 21
327.422598
  0
ENDBLK
  8
0
  0
BLOCK
  8
C
  2
B-16
 70
    66
 10
0.000000
 20
0.000000
 30
0.000000
  0
CIRCLE
  8
C
  6
CONTINUOUS
 62
     7
 10
228.204164
 20
324.122599
 40
3.499999
  0
LINE
  8
C
  6
BORDER
 62
     3
 10
223.704165
 20
324.122599
 11
232.704164
 21
324.122599
  0
ENDBLK
  8
0
  0
BLOCK
  8
C
  2
B-17
 70
    66
 10
0.000000
 20
0.000000
 30
0.000000
  0
LINE
  8
C
  6
CONTINUOUS
 62
     7
 10
127.091366
 20
304.422600
 11
127.091366
 21
317.422595
  0
LINE
  8
C
  6
CONTINUOUS
 62
     7
 10
127.091366
 20
317.422595
 11
147.091367
 21
317.422594
  0
LINE
  8
C
  6
CONTINUOUS
 62
     7
 10
147.091367
 20
304.422599
 11
127.091366
 21
304.422600
  0
ARC
  8
C
  6
CONTINUOUS
 62
     7
 10
215.788925
 20
310.922598
 40
70.000000
 50
174.672004
 51
185.327996
  0
LINE
  8
C
  6
BORDER
 62
     3
 10
124.994514
 20
310.922598
 11
163.348057
 21
310.922598
  0
LINE
  8
C
  6
DOT
 62
     2
 10
141.091365
 20
306.922600
 11
128.091367
 21
306.922600
  0
LINE
  8
C
  6
DOT
 62
     2
 10
144.091365
 20
310.922598
 11
144.091365
 21
306.922600
  0
LINE
  8
C
  6
DOT
 62
     2
 10
144.091365
 20
306.922600
 11
146.400762
 21
310.922598
  0
LINE
  8
C
  6
DOT
 62
     2
 10
146.400762
 20
310.922598
 11
144.091365
 21
314.922595
  0
LINE
  8
C
  6
DOT
 62
     2
 10
144.091365
 20
314.922595
 11
144.091365
 21
310.922598
  0
LINE
  8
C
  6
DOT
 62
     2
 10
141.091365
 20
314.922595
 11
144.091365
 21
314.922595
  0
LINE
  8
C
  6
DOT
 62
     2
 10
141.091365
 20
315.922595
 11
127.091367
 21
315.922595
  0
LINE
  8
C
  6
DOT
 62
     2
 10
141.091365
 20
314.922595
 11
141.091365
 21
305.922600
  0
LINE
  8
C
  6
DOT
 62
     2
 10
128.091367
 20
314.922595
 11
141.091365
 21
314.922595
  0
LINE
  8
C
  6
DOT
 62
     2
 10
141.091365
 20
315.922595
 11
141.091365
 21
314.922595
  0
LINE
  8
C
  6
DOT
 62
     2
 10
144.091365
 20
306.922600
 11
141.091365
 21
306.922600
  0
LINE
  8
C
  6
DOT
 62
     2
 10
127.091367
 20
305.922600
 11
141.091365
 21
305.922600
  0
LINE
  8
C
  6
DOT
 62
     2
 10
128.091367
 20
306.922600
 11
127.091367
 21
305.922600
  0
LINE
  8
C
  6
DOT
 62
     2
 10
127.091367
 20
315.922595
 11
128.091367
 21
314.922595
  0
LINE
  8
C
  6
DOT
 62
     2
 10
128.091367
 20
314.922595
 11
128.091367
 21
306.922600
  0
ENDBLK
  8
0
  0
BLOCK
  8
C
  2
B-18
 70
    66
 10
0.000000
 20
0.000000
 30
0.000000
  0
LINE
  8
C
  6
CONTINUOUS
 62
     7
 10
297.504165
 20
331.133015
 11
288.748128
 21
327.422599
  0
LINE
  8
C
  6
BORDER
 62
     3
 10
298.504165
 20
338.425295
 11
210.173549
 21
320.454229
  0
LINE
  8
C
  6
CONTINUOUS
 62
     7
 10
258.949428
 20
342.722599
 11
251.223549
 21
340.361906
  0
CIRCLE
  8
C
  6
CONTINUOUS
 62
     7
 10
238.591364
 20
326.235899
 40
2.550000
  0
LINE
  8
C
  6
CONTINUOUS
 62
     7
 10
289.418115
 20
342.234558
 11
266.029481
 21
342.158340
  0
ARC
  8
C
  6
CONTINUOUS
 62
     7
 10
289.420576
 20
339.734560
 40
2.500000
 50
11.499984
 51
90.056391
  0
LINE
  8
C
  6
CONTINUOUS
 62
     7
 10
265.300706
 20
342.049009
 11
251.591365
 21
337.865362
  0
ARC
  8
C
  6
CONTINUOUS
 62
     7
 10
266.031941
 20
339.658342
 40
2.500000
 50
90.056375
 51
107.007334
  0
LINE
  8
C
  6
CONTINUOUS
 62
     7
 10
282.307164
 20
327.422599
 11
291.628809
 21
331.368651
  0
ARC
  8
C
  6
CONTINUOUS
 62
     7
 10
290.654247
 20
333.670871
 40
2.500000
 50
292.943620
 51
11.500019
  0
LINE
  8
C
  6
CONTINUOUS
 62
     7
 10
293.104058
 20
334.169292
 11
291.870387
 21
340.232979
  0
CIRCLE
  8
C
  6
CONTINUOUS
 62
     7
 10
228.204162
 20
324.122599
 40
3.800000
  0
LINE
  8
C
  6
BORDER
 62
     3
 10
229.201002
 20
319.222977
 11
227.207323
 21
329.022222
  0
CIRCLE
  8
C
  6
CONTINUOUS
 62
     7
 10
217.816960
 20
322.009299
 40
2.550000
  0
LINE
  8
C
  6
BORDER
 62
     3
 10
218.614433
 20
318.089602
 11
217.019489
 21
325.928997
  0
LINE
  8
C
  6
CONTINUOUS
 62
     7
 10
297.504165
 20
331.119082
 11
288.796804
 21
327.422599
  0
ARC
  8
C
  6
CONTINUOUS
 62
     7
 10
217.816960
 20
322.009299
 40
3.000000
 50
7.918620
 51
172.081382
  0
ARC
  8
C
  6
CONTINUOUS
 62
     7
 10
217.816960
 20
322.009299
 40
3.000000
 50
203.556469
 51
336.443626
  0
ARC
  8
C
  6
CONTINUOUS
 62
     7
 10
238.591364
 20
326.235899
 40
3.000000
 50
14.834707
 51
165.165045
  0
ENDBLK
  8
0
  0
BLOCK
  8
C
  2
B-19
 70
    66
 10
0.000000
 20
0.000000
 30
0.000000
  0
LINE
  8
C
  6
CONTINUOUS
 62
     7
 10
292.004164
 20
342.722595
 11
292.004164
 21
341.722595
  0
LINE
  8
C
  6
CONTINUOUS
 62
     7
 10
292.004164
 20
341.722595
 11
296.504164
 21
341.722595
  0
LINE
  8
C
  6
CONTINUOUS
 62
     7
 10
297.504164
 20
340.722595
 11
297.504164
 21
329.222596
  0
ARC
  8
C
  6
CONTINUOUS
 62
     7
 10
296.504164
 20
340.722596
 40
1.000000
 50
359.999947
 51
89.999996
  0
LINE
  8
C
  6
CONTINUOUS
 62
     7
 10
298.504164
 20
328.222596
 11
333.204162
 21
328.222596
  0
ARC
  8
C
  6
CONTINUOUS
 62
     7
 10
333.204163
 20
329.222596
 40
1.000000
 50
269.999929
 51
0.000005
  0
ARC
  8
C
  6
CONTINUOUS
 62
     7
 10
298.504164
 20
329.222596
 40
1.000000
 50
179.999995
 51
269.999987
  0
LINE
  8
C
  6
CONTINUOUS
 62
     7
 10
334.204162
 20
329.222596
 11
334.204163
 21
342.722595
  0
LINE
  8
C
  6
CONTINUOUS
 62
     7
 10
334.204163
 20
342.722595
 11
333.204163
 21
342.722595
  0
LINE
  8
C
  6
CONTINUOUS
 62
     7
 10
333.204163
 20
342.722595
 11
333.204163
 21
329.222596
  0
LINE
  8
C
  6
CONTINUOUS
 62
     7
 10
292.004164
 20
342.722595
 11
296.504164
 21
342.722595
  0
ARC
  8
C
  6
CONTINUOUS
 62
     7
 10
296.504164
 20
340.722596
 40
2.000000
 50
359.999974
 51
89.999998
  0
LINE
  8
C
  6
CONTINUOUS
 62
     7
 10
298.504164
 20
341.922595
 11
298.504164
 21
329.222596
  0
ARC
  8
C
  6
CONTINUOUS
 62
     7
 10
299.004164
 20
341.922596
 40
0.500000
 50
90.000027
 51
180.000105
  0
LINE
  8
C
  6
CONTINUOUS
 62
     7
 10
296.504164
 20
342.722595
 11
296.604164
 21
342.722595
  0
LINE
  8
C
  6
CONTINUOUS
 62
     7
 10
299.004164
 20
342.422595
 11
332.704162
 21
342.422595
  0
ARC
  8
C
  6
CONTINUOUS
 62
     7
 10
332.704163
 20
341.922596
 40
0.500000
 50
359.999895
 51
90.000141
  0
ENDBLK
  8
0
  0
BLOCK
  8
C
  2
B-20
 70
    66
 10
0.000000
 20
0.000000
 30
0.000000
  0
ARC
  8
C
  6
CONTINUOUS
 62
     7
 10
177.204163
 20
308.522600
 40
5.000000
 50
257.319631
 51
282.680428
  0
LINE
  8
C
  6
CONTINUOUS
 62
     7
 10
172.648605
 20
304.422601
 11
176.106604
 21
303.644552
  0
LINE
  8
C
  6
CONTINUOUS
 62
     7
 10
217.204165
 20
314.447621
 11
220.566962
 21
314.447621
  0
LINE
  8
C
  6
CONTINUOUS
 62
     7
 10
204.091368
 20
311.497234
 11
206.116966
 21
311.952996
  0
LINE
  8
C
  6
CONTINUOUS
 62
     7
 10
215.067036
 20
313.966766
 11
217.204165
 21
314.447621
  0
LINE
  8
C
  6
CONTINUOUS
 62
     7
 10
178.301728
 20
303.644553
 11
181.759716
 21
304.422601
  0
LINE
  8
C
  6
CONTINUOUS
 62
     7
 10
204.091368
 20
309.447233
 11
206.116966
 21
309.902995
  0
LINE
  8
C
  6
CONTINUOUS
 62
     7
 10
215.225551
 20
311.952431
 11
217.204165
 21
312.397620
  0
LINE
  8
C
  6
CONTINUOUS
 62
     7
 10
220.525632
 20
312.397620
 11
217.204165
 21
312.397620
  0
ENDBLK
  8
0
  0
BLOCK
  8
C
  2
B-21
 70
    66
 10
0.000000
 20
0.000000
 30
0.000000
  0
LINE
  8
C
  6
CONTINUOUS
 62
     7
 10
206.116965
 20
322.422599
 11
215.066961
 21
322.422598
  0
LINE
  8
C
  6
CONTINUOUS
 62
     7
 10
220.566961
 20
322.422598
 11
222.879504
 21
322.422598
  0
LINE
  8
C
  6
CONTINUOUS
 62
     7
 10
234.240842
 20
322.422598
 11
252.116961
 21
322.422598
  0
LINE
  8
C
  6
CONTINUOUS
 62
     7
 10
252.116962
 20
327.422599
 11
252.116961
 21
322.422598
  0
LINE
  8
C
  6
CONTINUOUS
 62
     7
 10
252.116962
 20
327.422599
 11
307.616961
 21
327.422599
  0
LINE
  8
C
  6
CONTINUOUS
 62
     7
 10
307.616961
 20
327.422599
 11
307.616961
 21
303.522600
  0
LINE
  8
C
  6
CONTINUOUS
 62
     7
 10
206.116965
 20
322.422599
 11
206.116965
 21
306.022601
  0
ARC
  8
C
  6
CONTINUOUS
 62
     7
 10
208.616964
 20
306.022599
 40
2.500000
 50
179.999946
 51
270.000019
  0
LINE
  8
C
  6
CONTINUOUS
 62
     7
 10
307.616961
 20
303.522601
 11
208.616965
 21
303.522601
  0
LINE
  8
C
  6
BORDER
 62
     3
 10
217.816961
 20
324.422598
 11
217.816961
 21
308.122600
  0
LINE
  8
C
  6
CONTINUOUS
 62
     7
 10
220.566961
 20
312.872600
 11
220.566961
 21
322.422598
  0
LINE
  8
C
  6
CONTINUOUS
 62
     7
 10
215.066961
 20
312.872600
 11
215.066961
 21
322.422598
  0
ARC
  8
C
  6
CONTINUOUS
 62
     7
 10
217.816961
 20
312.872599
 40
2.750000
 50
179.999972
 51
0.000028
  0
LINE
  8
C
  6
BORDER
 62
     3
 10
222.566961
 20
312.872600
 11
213.066961
 21
312.872600
  0
CIRCLE
  8
C
  6
DOT
 62
     3
 10
304.016961
 20
310.022599
 40
2.100000
  0
CIRCLE
  8
C
  6
DOT
 62
     3
 10
296.016961
 20
310.022599
 40
2.100000
  0
LINE
  8
C
  6
BORDER
 62
     3
 10
307.516961
 20
310.022600
 11
292.116962
 21
310.022600
  0
LINE
  8
C
  6
BORDER
 62
     3
 10
304.016961
 20
306.522600
 11
304.016961
 21
313.522600
  0
LINE
  8
C
  6
BORDER
 62
     3
 10
296.016962
 20
306.522600
 11
296.016962
 21
313.522600
  0
LINE
  8
C
  6
CONTINUOUS
 62
     3
 10
235.835468
 20
322.422598
 11
235.824211
 21
322.300568
  0
LINE
  8
C
  6
CONTINUOUS
 62
     3
 10
235.824211
 20
322.300568
 11
235.819050
 21
322.269586
  0
LINE
  8
C
  6
CONTINUOUS
 62
     3
 10
235.819050
 20
322.269586
 11
235.813892
 21
322.233440
  0
LINE
  8
C
  6
CONTINUOUS
 62
     3
 10
235.813892
 20
322.233440
 11
235.803571
 21
322.202456
  0
LINE
  8
C
  6
CONTINUOUS
 62
     3
 10
235.803571
 20
322.202456
 11
235.790668
 21
322.168891
  0
LINE
  8
C
  6
CONTINUOUS
 62
     3
 10
235.790668
 20
322.168891
 11
235.764868
 21
322.096598
  0
LINE
  8
C
  6
CONTINUOUS
 62
     3
 10
235.764868
 20
322.096598
 11
235.733905
 21
322.024305
  0
LINE
  8
C
  6
CONTINUOUS
 62
     3
 10
235.733905
 20
322.024305
 11
235.713263
 21
321.985577
  0
LINE
  8
C
  6
CONTINUOUS
 62
     3
 10
235.713263
 20
321.985577
 11
235.692622
 21
321.949429
  0
LINE
  8
C
  6
CONTINUOUS
 62
     3
 10
235.692622
 20
321.949429
 11
235.669401
 21
321.913282
  0
LINE
  8
C
  6
CONTINUOUS
 62
     3
 10
235.669401
 20
321.913282
 11
235.646180
 21
321.882301
  0
LINE
  8
C
  6
CONTINUOUS
 62
     3
 10
235.646180
 20
321.882301
 11
235.625538
 21
321.853897
  0
LINE
  8
C
  6
CONTINUOUS
 62
     3
 10
235.625538
 20
321.853897
 11
235.607476
 21
321.825497
  0
LINE
  8
C
  6
CONTINUOUS
 62
     3
 10
235.607476
 20
321.825497
 11
235.591995
 21
321.802261
  0
LINE
  8
C
  6
CONTINUOUS
 62
     3
 10
235.591995
 20
321.802261
 11
235.571353
 21
321.776441
  0
LINE
  8
C
  6
CONTINUOUS
 62
     3
 10
235.571353
 20
321.776441
 11
235.545553
 21
321.750621
  0
LINE
  8
C
  6
CONTINUOUS
 62
     3
 10
235.545553
 20
321.750621
 11
235.514590
 21
321.722220
  0
LINE
  8
C
  6
CONTINUOUS
 62
     3
 10
235.514590
 20
321.722220
 11
235.473309
 21
321.691239
  0
LINE
  8
C
  6
CONTINUOUS
 62
     3
 10
235.473309
 20
321.691239
 11
235.439766
 21
321.662838
  0
LINE
  8
C
  6
CONTINUOUS
 62
     3
 10
235.439766
 20
321.662838
 11
235.408804
 21
321.634435
  0
LINE
  8
C
  6
CONTINUOUS
 62
     3
 10
235.408804
 20
321.634435
 11
235.372681
 21
321.606034
  0
LINE
  8
C
  6
CONTINUOUS
 62
     3
 10
235.372681
 20
321.606034
 11
235.336559
 21
321.575052
  0
LINE
  8
C
  6
CONTINUOUS
 62
     3
 10
235.336559
 20
321.575052
 11
235.300436
 21
321.536324
  0
LINE
  8
C
  6
CONTINUOUS
 62
     3
 10
235.300436
 20
321.536324
 11
235.269476
 21
321.497594
  0
LINE
  8
C
  6
CONTINUOUS
 62
     3
 10
235.269476
 20
321.497594
 11
235.223032
 21
321.438211
  0
LINE
  8
C
  6
CONTINUOUS
 62
     3
 10
235.223032
 20
321.438211
 11
235.199810
 21
321.409811
  0
LINE
  8
C
  6
CONTINUOUS
 62
     3
 10
235.199810
 20
321.409811
 11
235.168848
 21
321.371081
  0
LINE
  8
C
  6
CONTINUOUS
 62
     3
 10
235.168848
 20
321.371081
 11
235.143045
 21
321.332352
  0
LINE
  8
C
  6
CONTINUOUS
 62
     3
 10
235.143045
 20
321.332352
 11
235.119825
 21
321.291041
  0
LINE
  8
C
  6
CONTINUOUS
 62
     3
 10
235.119825
 20
321.291041
 11
235.099185
 21
321.260060
  0
LINE
  8
C
  6
CONTINUOUS
 62
     3
 10
235.099185
 20
321.260060
 11
235.081123
 21
321.234240
  0
LINE
  8
C
  6
CONTINUOUS
 62
     3
 10
235.081123
 20
321.234240
 11
235.047580
 21
321.190348
  0
LINE
  8
C
  6
CONTINUOUS
 62
     3
 10
235.047580
 20
321.190348
 11
235.026939
 21
321.164528
  0
LINE
  8
C
  6
CONTINUOUS
 62
     3
 10
235.026939
 20
321.164528
 11
235.006299
 21
321.141292
  0
LINE
  8
C
  6
CONTINUOUS
 62
     3
 10
235.006299
 20
321.141292
 11
234.959855
 21
321.094817
  0
LINE
  8
C
  6
CONTINUOUS
 62
     3
 10
234.959855
 20
321.094817
 11
234.944373
 21
321.074162
  0
LINE
  8
C
  6
CONTINUOUS
 62
     3
 10
234.944373
 20
321.074162
 11
234.923732
 21
321.045762
  0
LINE
  8
C
  6
CONTINUOUS
 62
     3
 10
234.923732
 20
321.045762
 11
234.915992
 21
321.030268
  0
LINE
  8
C
  6
CONTINUOUS
 62
     3
 10
234.915992
 20
321.030268
 11
234.908251
 21
321.012196
  0
LINE
  8
C
  6
CONTINUOUS
 62
     3
 10
234.908251
 20
321.012196
 11
234.897931
 21
320.991542
  0
LINE
  8
C
  6
CONTINUOUS
 62
     3
 10
234.897931
 20
320.991542
 11
234.885029
 21
320.973467
  0
LINE
  8
C
  6
CONTINUOUS
 62
     3
 10
234.885029
 20
320.973467
 11
234.859229
 21
320.932157
  0
LINE
  8
C
  6
CONTINUOUS
 62
     3
 10
234.859229
 20
320.932157
 11
234.838588
 21
320.906337
  0
LINE
  8
C
  6
CONTINUOUS
 62
     3
 10
234.838588
 20
320.906337
 11
234.807625
 21
320.859862
  0
LINE
  8
C
  6
CONTINUOUS
 62
     3
 10
234.807625
 20
320.859862
 11
234.761182
 21
320.764333
  0
LINE
  8
C
  6
CONTINUOUS
 62
     3
 10
234.761182
 20
320.764333
 11
234.688938
 21
320.619744
  0
LINE
  8
C
  6
CONTINUOUS
 62
     3
 10
234.688938
 20
320.619744
 11
234.632173
 21
320.511306
  0
LINE
  8
C
  6
CONTINUOUS
 62
     3
 10
234.632173
 20
320.511306
 11
234.585730
 21
320.397701
  0
LINE
  8
C
  6
CONTINUOUS
 62
     3
 10
234.585730
 20
320.397701
 11
234.539287
 21
320.253114
  0
LINE
  8
C
  6
CONTINUOUS
 62
     3
 10
234.539287
 20
320.253114
 11
234.503165
 21
320.160164
  0
LINE
  8
C
  6
CONTINUOUS
 62
     3
 10
234.503165
 20
320.160164
 11
234.472204
 21
320.038816
  0
LINE
  8
C
  6
CONTINUOUS
 62
     3
 10
234.472204
 20
320.038816
 11
234.443820
 21
319.966522
  0
LINE
  8
C
  6
CONTINUOUS
 62
     3
 10
234.443820
 20
319.966522
 11
234.397379
 21
319.816771
  0
LINE
  8
C
  6
CONTINUOUS
 62
     3
 10
234.397379
 20
319.816771
 11
234.371575
 21
319.757388
  0
LINE
  8
C
  6
CONTINUOUS
 62
     3
 10
234.371575
 20
319.757388
 11
234.340614
 21
319.700587
  0
LINE
  8
C
  6
CONTINUOUS
 62
     3
 10
234.340614
 20
319.700587
 11
234.301912
 21
319.633456
  0
LINE
  8
C
  6
CONTINUOUS
 62
     3
 10
234.301912
 20
319.633456
 11
234.258048
 21
319.571490
  0
LINE
  8
C
  6
CONTINUOUS
 62
     3
 10
234.258048
 20
319.571490
 11
234.196125
 21
319.494032
  0
LINE
  8
C
  6
CONTINUOUS
 62
     3
 10
234.196125
 20
319.494032
 11
234.134201
 21
319.432066
  0
LINE
  8
C
  6
CONTINUOUS
 62
     3
 10
234.134201
 20
319.432066
 11
234.072276
 21
319.364938
  0
LINE
  8
C
  6
CONTINUOUS
 62
     3
 10
234.072276
 20
319.364938
 11
234.002613
 21
319.284898
  0
LINE
  8
C
  6
CONTINUOUS
 62
     3
 10
234.002613
 20
319.284898
 11
233.899406
 21
319.132566
  0
LINE
  8
C
  6
CONTINUOUS
 62
     3
 10
233.899406
 20
319.132566
 11
233.855542
 21
319.073181
  0
LINE
  8
C
  6
CONTINUOUS
 62
     3
 10
233.855542
 20
319.073181
 11
233.814260
 21
319.011215
  0
LINE
  8
C
  6
CONTINUOUS
 62
     3
 10
233.814260
 20
319.011215
 11
233.765236
 21
318.944085
  0
LINE
  8
C
  6
CONTINUOUS
 62
     3
 10
233.765236
 20
318.944085
 11
233.721374
 21
318.892448
  0
LINE
  8
C
  6
CONTINUOUS
 62
     3
 10
233.721374
 20
318.892448
 11
233.674931
 21
318.843392
  0
LINE
  8
C
  6
CONTINUOUS
 62
     3
 10
233.674931
 20
318.843392
 11
233.618167
 21
318.786589
  0
LINE
  8
C
  6
CONTINUOUS
 62
     3
 10
233.618167
 20
318.786589
 11
233.558822
 21
318.745278
  0
LINE
  8
C
  6
CONTINUOUS
 62
     3
 10
233.558822
 20
318.745278
 11
233.486578
 21
318.706551
  0
LINE
  8
C
  6
CONTINUOUS
 62
     3
 10
233.486578
 20
318.706551
 11
233.419494
 21
318.672986
  0
LINE
  8
C
  6
CONTINUOUS
 62
     3
 10
233.419494
 20
318.672986
 11
233.354990
 21
318.642002
  0
LINE
  8
C
  6
CONTINUOUS
 62
     3
 10
233.354990
 20
318.642002
 11
233.272424
 21
318.611020
  0
LINE
  8
C
  6
CONTINUOUS
 62
     3
 10
233.272424
 20
318.611020
 11
233.195019
 21
318.585200
  0
LINE
  8
C
  6
CONTINUOUS
 62
     3
 10
233.195019
 20
318.585200
 11
233.096973
 21
318.556800
  0
LINE
  8
C
  6
CONTINUOUS
 62
     3
 10
233.096973
 20
318.556800
 11
233.014407
 21
318.523235
  0
LINE
  8
C
  6
CONTINUOUS
 62
     3
 10
233.014407
 20
318.523235
 11
232.926682
 21
318.494834
  0
LINE
  8
C
  6
CONTINUOUS
 62
     3
 10
232.926682
 20
318.494834
 11
232.826054
 21
318.469014
  0
LINE
  8
C
  6
CONTINUOUS
 62
     3
 10
232.826054
 20
318.469014
 11
232.743489
 21
318.448359
  0
LINE
  8
C
  6
CONTINUOUS
 62
     3
 10
232.743489
 20
318.448359
 11
232.648024
 21
318.425123
  0
LINE
  8
C
  6
CONTINUOUS
 62
     3
 10
232.648024
 20
318.425123
 11
232.570618
 21
318.407049
  0
LINE
  8
C
  6
CONTINUOUS
 62
     3
 10
232.570618
 20
318.407049
 11
232.493212
 21
318.391558
  0
LINE
  8
C
  6
CONTINUOUS
 62
     3
 10
232.493212
 20
318.391558
 11
232.410647
 21
318.376065
  0
LINE
  8
C
  6
CONTINUOUS
 62
     3
 10
232.410647
 20
318.376065
 11
232.333243
 21
318.363157
  0
LINE
  8
C
  6
CONTINUOUS
 62
     3
 10
232.333243
 20
318.363157
 11
232.235196
 21
318.352828
  0
LINE
  8
C
  6
CONTINUOUS
 62
     3
 10
232.235196
 20
318.352828
 11
232.088127
 21
318.342501
  0
LINE
  8
C
  6
CONTINUOUS
 62
     3
 10
232.088127
 20
318.342501
 11
231.977180
 21
318.329592
  0
LINE
  8
C
  6
CONTINUOUS
 62
     3
 10
231.977180
 20
318.329592
 11
231.781087
 21
318.314099
  0
LINE
  8
C
  6
CONTINUOUS
 62
     3
 10
231.781087
 20
318.314099
 11
231.659818
 21
318.293444
  0
LINE
  8
C
  6
CONTINUOUS
 62
     3
 10
231.659818
 20
318.293444
 11
231.494688
 21
318.272788
  0
LINE
  8
C
  6
CONTINUOUS
 62
     3
 10
231.494688
 20
318.272788
 11
231.308915
 21
318.252133
  0
LINE
  8
C
  6
CONTINUOUS
 62
     3
 10
231.308915
 20
318.252133
 11
231.182488
 21
318.231478
  0
LINE
  8
C
  6
CONTINUOUS
 62
     3
 10
231.182488
 20
318.231478
 11
230.983814
 21
318.203077
  0
LINE
  8
C
  6
CONTINUOUS
 62
     3
 10
230.983814
 20
318.203077
 11
230.826424
 21
318.177258
  0
LINE
  8
C
  6
CONTINUOUS
 62
     3
 10
230.826424
 20
318.177258
 11
230.661293
 21
318.146275
  0
LINE
  8
C
  6
CONTINUOUS
 62
     3
 10
230.661293
 20
318.146275
 11
230.470360
 21
318.102384
  0
LINE
  8
C
  6
CONTINUOUS
 62
     3
 10
230.470360
 20
318.102384
 11
230.336192
 21
318.063655
  0
LINE
  8
C
  6
CONTINUOUS
 62
     3
 10
230.336192
 20
318.063655
 11
230.171061
 21
318.027508
  0
LINE
  8
C
  6
CONTINUOUS
 62
     3
 10
230.171061
 20
318.027508
 11
229.972388
 21
317.981034
  0
LINE
  8
C
  6
CONTINUOUS
 62
     3
 10
229.972388
 20
317.981034
 11
229.845960
 21
317.939723
  0
LINE
  8
C
  6
CONTINUOUS
 62
     3
 10
229.845960
 20
317.939723
 11
229.670509
 21
317.893248
  0
LINE
  8
C
  6
CONTINUOUS
 62
     3
 10
229.670509
 20
317.893248
 11
229.533759
 21
317.862266
  0
LINE
  8
C
  6
CONTINUOUS
 62
     3
 10
229.533759
 20
317.862266
 11
229.211238
 21
317.797717
  0
LINE
  8
C
  6
CONTINUOUS
 62
     3
 10
229.211238
 20
317.797717
 11
229.084810
 21
317.771898
  0
LINE
  8
C
  6
CONTINUOUS
 62
     3
 10
229.084810
 20
317.771898
 11
228.935160
 21
317.751243
  0
LINE
  8
C
  6
CONTINUOUS
 62
     3
 10
228.935160
 20
317.751243
 11
228.736487
 21
317.730587
  0
LINE
  8
C
  6
CONTINUOUS
 62
     3
 10
228.736487
 20
317.730587
 11
228.617800
 21
317.717678
  0
LINE
  8
C
  6
CONTINUOUS
 62
     3
 10
228.617800
 20
317.717678
 11
228.310759
 21
317.699606
  0
LINE
  8
C
  6
CONTINUOUS
 62
     3
 10
228.310759
 20
317.699606
 11
228.153369
 21
317.694441
  0
LINE
  8
C
  6
CONTINUOUS
 62
     3
 10
228.153369
 20
317.694441
 11
227.967596
 21
317.691860
  0
LINE
  8
C
  6
CONTINUOUS
 62
     3
 10
227.967596
 20
317.691860
 11
227.838588
 21
317.689277
  0
LINE
  8
C
  6
CONTINUOUS
 62
     3
 10
227.838588
 20
317.689277
 11
227.547030
 21
317.689277
  0
LINE
  8
C
  6
CONTINUOUS
 62
     3
 10
227.547030
 20
317.689277
 11
227.363838
 21
317.697022
  0
LINE
  8
C
  6
CONTINUOUS
 62
     3
 10
227.363838
 20
317.697022
 11
227.263211
 21
317.707351
  0
LINE
  8
C
  6
CONTINUOUS
 62
     3
 10
227.263211
 20
317.707351
 11
227.113561
 21
317.725425
  0
LINE
  8
C
  6
CONTINUOUS
 62
     3
 10
227.113561
 20
317.725425
 11
227.002614
 21
317.753826
  0
LINE
  8
C
  6
CONTINUOUS
 62
     3
 10
227.002614
 20
317.753826
 11
226.883926
 21
317.782227
  0
LINE
  8
C
  6
CONTINUOUS
 62
     3
 10
226.883926
 20
317.782227
 11
226.744597
 21
317.818373
  0
LINE
  8
C
  6
CONTINUOUS
 62
     3
 10
226.744597
 20
317.818373
 11
226.651711
 21
317.854519
  0
LINE
  8
C
  6
CONTINUOUS
 62
     3
 10
226.651711
 20
317.854519
 11
226.543343
 21
317.895829
  0
LINE
  8
C
  6
CONTINUOUS
 62
     3
 10
226.543343
 20
317.895829
 11
226.367892
 21
317.988779
  0
LINE
  8
C
  6
CONTINUOUS
 62
     3
 10
226.367892
 20
317.988779
 11
226.259525
 21
318.042999
  0
LINE
  8
C
  6
CONTINUOUS
 62
     3
 10
226.259525
 20
318.042999
 11
226.169219
 21
318.089474
  0
LINE
  8
C
  6
CONTINUOUS
 62
     3
 10
226.169219
 20
318.089474
 11
226.066012
 21
318.135947
  0
LINE
  8
C
  6
CONTINUOUS
 62
     3
 10
226.066012
 20
318.135947
 11
225.986027
 21
318.174676
  0
LINE
  8
C
  6
CONTINUOUS
 62
     3
 10
225.986027
 20
318.174676
 11
225.906042
 21
318.218568
  0
LINE
  8
C
  6
CONTINUOUS
 62
     3
 10
225.906042
 20
318.218568
 11
225.823476
 21
318.267626
  0
LINE
  8
C
  6
CONTINUOUS
 62
     3
 10
225.823476
 20
318.267626
 11
225.743491
 21
318.314099
  0
LINE
  8
C
  6
CONTINUOUS
 62
     3
 10
225.743491
 20
318.314099
 11
225.660926
 21
318.368319
  0
LINE
  8
C
  6
CONTINUOUS
 62
     3
 10
225.660926
 20
318.368319
 11
225.562880
 21
318.422539
  0
LINE
  8
C
  6
CONTINUOUS
 62
     3
 10
225.562880
 20
318.422539
 11
225.475154
 21
318.474179
  0
LINE
  8
C
  6
CONTINUOUS
 62
     3
 10
225.475154
 20
318.474179
 11
225.379687
 21
318.525816
  0
LINE
  8
C
  6
CONTINUOUS
 62
     3
 10
225.379687
 20
318.525816
 11
225.299702
 21
318.572290
  0
LINE
  8
C
  6
CONTINUOUS
 62
     3
 10
225.299702
 20
318.572290
 11
225.230038
 21
318.618765
  0
LINE
  8
C
  6
CONTINUOUS
 62
     3
 10
225.230038
 20
318.618765
 11
225.147472
 21
318.678148
  0
LINE
  8
C
  6
CONTINUOUS
 62
     3
 10
225.147472
 20
318.678148
 11
225.067487
 21
318.729787
  0
LINE
  8
C
  6
CONTINUOUS
 62
     3
 10
225.067487
 20
318.729787
 11
224.977181
 21
318.786589
  0
LINE
  8
C
  6
CONTINUOUS
 62
     3
 10
224.977181
 20
318.786589
 11
224.902356
 21
318.845974
  0
LINE
  8
C
  6
CONTINUOUS
 62
     3
 10
224.902356
 20
318.845974
 11
224.837852
 21
318.905358
  0
LINE
  8
C
  6
CONTINUOUS
 62
     3
 10
224.837852
 20
318.905358
 11
224.765607
 21
318.975069
  0
LINE
  8
C
  6
CONTINUOUS
 62
     3
 10
224.765607
 20
318.975069
 11
224.708843
 21
319.037035
  0
LINE
  8
C
  6
CONTINUOUS
 62
     3
 10
224.708843
 20
319.037035
 11
224.649499
 21
319.111910
  0
LINE
  8
C
  6
CONTINUOUS
 62
     3
 10
224.649499
 20
319.111910
 11
224.597896
 21
319.181622
  0
LINE
  8
C
  6
CONTINUOUS
 62
     3
 10
224.597896
 20
319.181622
 11
224.546293
 21
319.246169
  0
LINE
  8
C
  6
CONTINUOUS
 62
     3
 10
224.546293
 20
319.246169
 11
224.486949
 21
319.326209
  0
LINE
  8
C
  6
CONTINUOUS
 62
     3
 10
224.486949
 20
319.326209
 11
224.430185
 21
319.390756
  0
LINE
  8
C
  6
CONTINUOUS
 62
     3
 10
224.430185
 20
319.390756
 11
224.355361
 21
319.463050
  0
LINE
  8
C
  6
CONTINUOUS
 62
     3
 10
224.355361
 20
319.463050
 11
224.283115
 21
319.522435
  0
LINE
  8
C
  6
CONTINUOUS
 62
     3
 10
224.283115
 20
319.522435
 11
224.205711
 21
319.576653
  0
LINE
  8
C
  6
CONTINUOUS
 62
     3
 10
224.205711
 20
319.576653
 11
224.110244
 21
319.646366
  0
LINE
  8
C
  6
CONTINUOUS
 62
     3
 10
224.110244
 20
319.646366
 11
224.048320
 21
319.700587
  0
LINE
  8
C
  6
CONTINUOUS
 62
     3
 10
224.048320
 20
319.700587
 11
223.981236
 21
319.765133
  0
LINE
  8
C
  6
CONTINUOUS
 62
     3
 10
223.981236
 20
319.765133
 11
223.927052
 21
319.821935
  0
LINE
  8
C
  6
CONTINUOUS
 62
     3
 10
223.927052
 20
319.821935
 11
223.880609
 21
319.876155
  0
LINE
  8
C
  6
CONTINUOUS
 62
     3
 10
223.880609
 20
319.876155
 11
223.823845
 21
319.951031
  0
LINE
  8
C
  6
CONTINUOUS
 62
     3
 10
223.823845
 20
319.951031
 11
223.782563
 21
320.010416
  0
LINE
  8
C
  6
CONTINUOUS
 62
     3
 10
223.782563
 20
320.010416
 11
223.741280
 21
320.087872
  0
LINE
  8
C
  6
CONTINUOUS
 62
     3
 10
223.741280
 20
320.087872
 11
223.702577
 21
320.147257
  0
LINE
  8
C
  6
CONTINUOUS
 62
     3
 10
223.702577
 20
320.147257
 11
223.666455
 21
320.206639
  0
LINE
  8
C
  6
CONTINUOUS
 62
     3
 10
223.666455
 20
320.206639
 11
223.625173
 21
320.271188
  0
LINE
  8
C
  6
CONTINUOUS
 62
     3
 10
223.625173
 20
320.271188
 11
223.591630
 21
320.325409
  0
LINE
  8
C
  6
CONTINUOUS
 62
     3
 10
223.591630
 20
320.325409
 11
223.560668
 21
320.387374
  0
LINE
  8
C
  6
CONTINUOUS
 62
     3
 10
223.560668
 20
320.387374
 11
223.532286
 21
320.441595
  0
LINE
  8
C
  6
CONTINUOUS
 62
     3
 10
223.532286
 20
320.441595
 11
223.478103
 21
320.565526
  0
LINE
  8
C
  6
CONTINUOUS
 62
     3
 10
223.478103
 20
320.565526
 11
223.447141
 21
320.619744
  0
LINE
  8
C
  6
CONTINUOUS
 62
     3
 10
223.447141
 20
320.619744
 11
223.418759
 21
320.673965
  0
LINE
  8
C
  6
CONTINUOUS
 62
     3
 10
223.418759
 20
320.673965
 11
223.390377
 21
320.735930
  0
LINE
  8
C
  6
CONTINUOUS
 62
     3
 10
223.390377
 20
320.735930
 11
223.338774
 21
320.834045
  0
LINE
  8
C
  6
CONTINUOUS
 62
     3
 10
223.338774
 20
320.834045
 11
223.312972
 21
320.880517
  0
LINE
  8
C
  6
CONTINUOUS
 62
     3
 10
223.312972
 20
320.880517
 11
223.297491
 21
320.934738
  0
LINE
  8
C
  6
CONTINUOUS
 62
     3
 10
223.297491
 20
320.934738
 11
223.274270
 21
321.038014
  0
LINE
  8
C
  6
CONTINUOUS
 62
     3
 10
223.274270
 20
321.038014
 11
223.261369
 21
321.084489
  0
LINE
  8
C
  6
CONTINUOUS
 62
     3
 10
223.261369
 20
321.084489
 11
223.245888
 21
321.128383
  0
LINE
  8
C
  6
CONTINUOUS
 62
     3
 10
223.245888
 20
321.128383
 11
223.230407
 21
321.180019
  0
LINE
  8
C
  6
CONTINUOUS
 62
     3
 10
223.230407
 20
321.180019
 11
223.217506
 21
321.226495
  0
LINE
  8
C
  6
CONTINUOUS
 62
     3
 10
223.217506
 20
321.226495
 11
223.207185
 21
321.267805
  0
LINE
  8
C
  6
CONTINUOUS
 62
     3
 10
223.207185
 20
321.267805
 11
223.194284
 21
321.314280
  0
LINE
  8
C
  6
CONTINUOUS
 62
     3
 10
223.194284
 20
321.314280
 11
223.173643
 21
321.391737
  0
LINE
  8
C
  6
CONTINUOUS
 62
     3
 10
223.173643
 20
321.391737
 11
223.160742
 21
321.425302
  0
LINE
  8
C
  6
CONTINUOUS
 62
     3
 10
223.160742
 20
321.425302
 11
223.047215
 21
321.637018
  0
LINE
  8
C
  6
CONTINUOUS
 62
     3
 10
223.047215
 20
321.637018
 11
223.013673
 21
321.709311
  0
LINE
  8
C
  6
CONTINUOUS
 62
     3
 10
223.013673
 20
321.709311
 11
222.998191
 21
321.748040
  0
LINE
  8
C
  6
CONTINUOUS
 62
     3
 10
222.998191
 20
321.748040
 11
222.982710
 21
321.776441
  0
LINE
  8
C
  6
CONTINUOUS
 62
     3
 10
222.982710
 20
321.776441
 11
222.956909
 21
321.833243
  0
LINE
  8
C
  6
CONTINUOUS
 62
     3
 10
222.956909
 20
321.833243
 11
222.931107
 21
321.884881
  0
LINE
  8
C
  6
CONTINUOUS
 62
     3
 10
222.931107
 20
321.884881
 11
222.920787
 21
321.908118
  0
LINE
  8
C
  6
CONTINUOUS
 62
     3
 10
222.920787
 20
321.908118
 11
222.913046
 21
321.928773
  0
LINE
  8
C
  6
CONTINUOUS
 62
     3
 10
222.913046
 20
321.928773
 11
222.902725
 21
321.975248
  0
LINE
  8
C
  6
CONTINUOUS
 62
     3
 10
222.902725
 20
321.975248
 11
222.897565
 21
322.001068
  0
LINE
  8
C
  6
CONTINUOUS
 62
     3
 10
222.897565
 20
322.001068
 11
222.894985
 21
322.021723
  0
LINE
  8
C
  6
CONTINUOUS
 62
     3
 10
222.894985
 20
322.021723
 11
222.889825
 21
322.070779
  0
LINE
  8
C
  6
CONTINUOUS
 62
     3
 10
222.889825
 20
322.070779
 11
222.882084
 21
322.137909
  0
LINE
  8
C
  6
CONTINUOUS
 62
     3
 10
222.882084
 20
322.137909
 11
222.882084
 21
322.155982
  0
LINE
  8
C
  6
CONTINUOUS
 62
     3
 10
222.882084
 20
322.155982
 11
222.879504
 21
322.176636
  0
LINE
  8
C
  6
CONTINUOUS
 62
     3
 10
222.879504
 20
322.176636
 11
222.879504
 21
322.558760
  0
LINE
  8
C
  6
BORDER
 62
     3
 10
287.416963
 20
315.822608
 11
253.416965
 21
315.822608
  0
LINE
  8
C
  6
BORDER
 62
     3
 10
259.416967
 20
309.822610
 11
259.416967
 21
321.822608
  0
LINE
  8
C
  6
BORDER
 62
     3
 10
281.416963
 20
309.822610
 11
281.416963
 21
321.822608
  0
LINE
  8
C
  6
CONTINUOUS
 62
     7
 10
259.416968
 20
320.172608
 11
273.926450
 21
320.172608
  0
LINE
  8
C
  6
DOT
 62
     3
 10
273.926450
 20
320.172608
 11
281.416966
 21
320.172608
  0
LINE
  8
C
  6
CONTINUOUS
 62
     7
 10
259.416968
 20
311.472608
 11
274.056044
 21
311.472609
  0
LINE
  8
C
  6
DOT
 62
     3
 10
274.056044
 20
311.472609
 11
281.416965
 21
311.472608
  0
ARC
  8
C
  6
CONTINUOUS
 62
     7
 10
259.416968
 20
315.822608
 40
4.350000
 50
89.999987
 51
270.000000
  0
ARC
  8
C
  6
DOT
 62
     3
 10
281.416964
 20
315.822608
 40
4.350000
 50
270.000000
 51
89.999987
  0
ENDBLK
  8
0
  0
BLOCK
  8
C
  2
B-22
 70
    66
 10
0.000000
 20
0.000000
 30
0.000000
  0
CIRCLE
  8
C
  6
DOT
 62
     1
 10
175.704164
 20
315.922600
 40
4.200000
  0
CIRCLE
  8
C
  6
CONTINUOUS
 62
     7
 10
175.704164
 20
315.922600
 40
3.500000
  0
LINE
  8
C
  6
BORDER
 62
     3
 10
175.704164
 20
324.922595
 11
175.704164
 21
306.922604
  0
ARC
  8
C
  6
CONTINUOUS
 62
     7
 10
175.704165
 20
315.922599
 40
8.000001
 50
179.684889
 51
213.796798
  0
ARC
  8
C
  6
CONTINUOUS
 62
     7
 10
175.704165
 20
315.922599
 40
8.000001
 50
269.999996
 51
84.176520
  0
ARC
  8
C
  6
CONTINUOUS
 62
     7
 10
175.704165
 20
315.922599
 40
8.000001
 50
213.796798
 51
269.999996
  0
ENDBLK
  8
0
  0
BLOCK
  8
C
  2
B-23
 70
    66
 10
0.000000
 20
0.000000
 30
0.000000
  0
CIRCLE
  8
C
  6
DOT
 62
     1
 10
280.704163
 20
315.922601
 40
4.200000
  0
CIRCLE
  8
C
  6
CONTINUOUS
 62
     7
 10
280.704163
 20
315.922601
 40
3.500000
  0
LINE
  8
C
  6
BORDER
 62
     3
 10
280.704164
 20
324.922596
 11
280.704164
 21
306.922605
  0
ARC
  8
C
  6
CONTINUOUS
 62
     7
 10
280.704164
 20
315.922600
 40
8.000001
 50
270.000000
 51
213.796797
  0
ARC
  8
C
  6
CONTINUOUS
 62
     7
 10
280.704164
 20
315.922600
 40
8.000001
 50
213.796797
 51
270.000000
  0
ENDBLK
  8
0
  0
BLOCK
  8
C
  2
B-24
 70
    66
 10
0.000000
 20
0.000000
 30
0.000000
  0
LINE
  8
C
  6
CONTINUOUS
 62
     7
 10
208.204164
 20
342.722600
 11
208.204164
 21
337.722600
  0
LINE
  8
C
  6
CONTINUOUS
 62
     7
 10
208.204164
 20
337.722600
 11
208.204164
 21
337.722600
  0
LINE
  8
C
  6
CONTINUOUS
 62
     7
 10
208.204164
 20
337.722600
 11
248.204164
 21
337.722600
  0
LINE
  8
C
  6
CONTINUOUS
 62
     7
 10
248.204164
 20
337.722600
 11
248.204164
 21
337.722600
  0
LINE
  8
C
  6
CONTINUOUS
 62
     7
 10
248.204164
 20
337.722600
 11
248.204164
 21
342.722600
  0
LINE
  8
C
  6
CONTINUOUS
 62
     7
 10
208.204164
 20
342.722600
 11
248.204164
 21
342.722600
  0
ARC
  8
C
  6
CONTINUOUS
 62
     7
 10
240.704165
 20
345.486662
 40
3.564063
 50
230.853710
 51
309.146226
  0
ARC
  8
C
  6
CONTINUOUS
 62
     7
 10
215.704165
 20
345.486661
 40
3.564062
 50
230.853719
 51
309.146236
  0
ENDBLK
  8
0
  0
BLOCK
  8
C
  2
B-25
 70
    66
 10
0.000000
 20
0.000000
 30
0.000000
  0
LINE
  8
C
  6
CONTINUOUS
 62
     7
 10
165.704166
 20
314.026741
 11
165.704166
 21
341.722601
  0
ARC
  8
C
  6
CONTINUOUS
 62
     7
 10
166.704165
 20
341.722603
 40
1.000000
 50
89.999943
 51
180.000115
  0
LINE
  8
C
  6
CONTINUOUS
 62
     7
 10
166.704166
 20
342.722601
 11
185.437422
 21
342.722601
  0
LINE
  8
C
  6
CONTINUOUS
 62
     3
 10
188.524130
 20
327.147200
 11
188.426379
 21
327.012700
  0
LINE
  8
C
  6
CONTINUOUS
 62
     3
 10
188.426379
 20
327.012700
 11
188.328624
 21
326.890431
  0
LINE
  8
C
  6
CONTINUOUS
 62
     3
 10
188.328624
 20
326.890431
 11
188.206434
 21
326.768154
  0
LINE
  8
C
  6
CONTINUOUS
 62
     3
 10
188.206434
 20
326.768154
 11
188.084237
 21
326.682560
  0
LINE
  8
C
  6
CONTINUOUS
 62
     3
 10
188.084237
 20
326.682560
 11
187.998705
 21
326.609198
  0
LINE
  8
C
  6
CONTINUOUS
 62
     3
 10
187.998705
 20
326.609198
 11
187.815419
 21
326.474698
  0
LINE
  8
C
  6
CONTINUOUS
 62
     3
 10
187.815419
 20
326.474698
 11
187.681006
 21
326.376879
  0
LINE
  8
C
  6
CONTINUOUS
 62
     3
 10
187.681006
 20
326.376879
 11
187.558816
 21
326.291286
  0
LINE
  8
C
  6
CONTINUOUS
 62
     3
 10
187.558816
 20
326.291286
 11
187.412184
 21
326.193464
  0
LINE
  8
C
  6
CONTINUOUS
 62
     3
 10
187.412184
 20
326.193464
 11
187.277775
 21
326.095645
  0
LINE
  8
C
  6
CONTINUOUS
 62
     3
 10
187.277775
 20
326.095645
 11
187.131143
 21
326.010052
  0
LINE
  8
C
  6
CONTINUOUS
 62
     3
 10
187.131143
 20
326.010052
 11
186.960080
 21
325.912230
  0
LINE
  8
C
  6
CONTINUOUS
 62
     3
 10
186.960080
 20
325.912230
 11
186.789009
 21
325.814412
  0
LINE
  8
C
  6
CONTINUOUS
 62
     3
 10
186.789009
 20
325.814412
 11
186.593503
 21
325.692146
  0
LINE
  8
C
  6
CONTINUOUS
 62
     3
 10
186.593503
 20
325.692146
 11
186.422436
 21
325.582090
  0
LINE
  8
C
  6
CONTINUOUS
 62
     3
 10
186.422436
 20
325.582090
 11
186.251365
 21
325.459815
  0
LINE
  8
C
  6
CONTINUOUS
 62
     3
 10
186.251365
 20
325.459815
 11
186.080298
 21
325.337549
  0
LINE
  8
C
  6
CONTINUOUS
 62
     3
 10
186.080298
 20
325.337549
 11
185.909227
 21
325.239728
  0
LINE
  8
C
  6
CONTINUOUS
 62
     3
 10
185.909227
 20
325.239728
 11
185.738164
 21
325.154134
  0
LINE
  8
C
  6
CONTINUOUS
 62
     3
 10
185.738164
 20
325.154134
 11
185.603747
 21
325.080772
  0
LINE
  8
C
  6
CONTINUOUS
 62
     3
 10
185.603747
 20
325.080772
 11
185.469338
 21
325.019634
  0
LINE
  8
C
  6
CONTINUOUS
 62
     3
 10
185.469338
 20
325.019634
 11
185.322710
 21
324.958494
  0
LINE
  8
C
  6
CONTINUOUS
 62
     3
 10
185.322710
 20
324.958494
 11
185.176082
 21
324.909588
  0
LINE
  8
C
  6
CONTINUOUS
 62
     3
 10
185.176082
 20
324.909588
 11
185.029449
 21
324.860675
  0
LINE
  8
C
  6
CONTINUOUS
 62
     3
 10
185.029449
 20
324.860675
 11
184.895040
 21
324.811772
  0
LINE
  8
C
  6
CONTINUOUS
 62
     3
 10
184.895040
 20
324.811772
 11
184.772847
 21
324.762860
  0
LINE
  8
C
  6
CONTINUOUS
 62
     3
 10
184.772847
 20
324.762860
 11
184.638438
 21
324.713953
  0
LINE
  8
C
  6
CONTINUOUS
 62
     3
 10
184.638438
 20
324.713953
 11
184.504029
 21
324.665038
  0
LINE
  8
C
  6
CONTINUOUS
 62
     3
 10
184.504029
 20
324.665038
 11
184.369612
 21
324.616132
  0
LINE
  8
C
  6
CONTINUOUS
 62
     3
 10
184.369612
 20
324.616132
 11
184.235203
 21
324.567220
  0
LINE
  8
C
  6
CONTINUOUS
 62
     3
 10
184.235203
 20
324.567220
 11
184.100794
 21
324.530538
  0
LINE
  8
C
  6
CONTINUOUS
 62
     3
 10
184.100794
 20
324.530538
 11
183.966381
 21
324.481626
  0
LINE
  8
C
  6
CONTINUOUS
 62
     3
 10
183.966381
 20
324.481626
 11
183.831972
 21
324.432720
  0
LINE
  8
C
  6
CONTINUOUS
 62
     3
 10
183.831972
 20
324.432720
 11
183.685340
 21
324.383804
  0
LINE
  8
C
  6
CONTINUOUS
 62
     3
 10
183.685340
 20
324.383804
 11
183.538711
 21
324.334898
  0
LINE
  8
C
  6
CONTINUOUS
 62
     3
 10
183.538711
 20
324.334898
 11
183.392083
 21
324.285986
  0
LINE
  8
C
  6
CONTINUOUS
 62
     3
 10
183.392083
 20
324.285986
 11
183.245451
 21
324.249305
  0
LINE
  8
C
  6
CONTINUOUS
 62
     3
 10
183.245451
 20
324.249305
 11
183.111042
 21
324.212623
  0
LINE
  8
C
  6
CONTINUOUS
 62
     3
 10
183.111042
 20
324.212623
 11
182.988848
 21
324.175942
  0
LINE
  8
C
  6
CONTINUOUS
 62
     3
 10
182.988848
 20
324.175942
 11
182.842216
 21
324.139264
  0
LINE
  8
C
  6
CONTINUOUS
 62
     3
 10
182.842216
 20
324.139264
 11
182.707807
 21
324.114802
  0
LINE
  8
C
  6
CONTINUOUS
 62
     3
 10
182.707807
 20
324.114802
 11
182.561179
 21
324.090346
  0
LINE
  8
C
  6
CONTINUOUS
 62
     3
 10
182.561179
 20
324.090346
 11
182.451204
 21
324.078123
  0
LINE
  8
C
  6
CONTINUOUS
 62
     3
 10
182.451204
 20
324.078123
 11
182.353450
 21
324.065898
  0
LINE
  8
C
  6
CONTINUOUS
 62
     3
 10
182.353450
 20
324.065898
 11
182.219041
 21
324.053664
  0
LINE
  8
C
  6
CONTINUOUS
 62
     3
 10
182.219041
 20
324.053664
 11
182.096847
 21
324.053664
  0
LINE
  8
C
  6
CONTINUOUS
 62
     3
 10
182.096847
 20
324.053664
 11
181.950219
 21
324.053664
  0
LINE
  8
C
  6
CONTINUOUS
 62
     3
 10
181.950219
 20
324.053664
 11
181.803591
 21
324.053664
  0
LINE
  8
C
  6
CONTINUOUS
 62
     3
 10
181.803591
 20
324.053664
 11
181.656958
 21
324.053664
  0
LINE
  8
C
  6
CONTINUOUS
 62
     3
 10
181.656958
 20
324.053664
 11
181.510330
 21
324.053664
  0
LINE
  8
C
  6
CONTINUOUS
 62
     3
 10
181.510330
 20
324.053664
 11
181.363702
 21
324.053664
  0
LINE
  8
C
  6
CONTINUOUS
 62
     3
 10
181.363702
 20
324.053664
 11
181.204850
 21
324.053664
  0
LINE
  8
C
  6
CONTINUOUS
 62
     3
 10
181.204850
 20
324.053664
 11
181.070441
 21
324.053664
  0
LINE
  8
C
  6
CONTINUOUS
 62
     3
 10
181.070441
 20
324.053664
 11
180.936032
 21
324.053664
  0
LINE
  8
C
  6
CONTINUOUS
 62
     3
 10
180.936032
 20
324.053664
 11
180.801615
 21
324.053664
  0
LINE
  8
C
  6
CONTINUOUS
 62
     3
 10
180.801615
 20
324.053664
 11
180.667206
 21
324.053664
  0
LINE
  8
C
  6
CONTINUOUS
 62
     3
 10
180.667206
 20
324.053664
 11
180.532797
 21
324.053664
  0
LINE
  8
C
  6
CONTINUOUS
 62
     3
 10
180.532797
 20
324.053664
 11
180.410604
 21
324.053664
  0
LINE
  8
C
  6
CONTINUOUS
 62
     3
 10
180.410604
 20
324.053664
 11
180.312849
 21
324.053664
  0
LINE
  8
C
  6
CONTINUOUS
 62
     3
 10
180.312849
 20
324.053664
 11
180.202883
 21
324.053664
  0
LINE
  8
C
  6
CONTINUOUS
 62
     3
 10
180.202883
 20
324.053664
 11
180.105128
 21
324.053664
  0
LINE
  8
C
  6
CONTINUOUS
 62
     3
 10
180.105128
 20
324.053664
 11
179.982934
 21
324.053664
  0
LINE
  8
C
  6
CONTINUOUS
 62
     3
 10
179.982934
 20
324.053664
 11
179.885183
 21
324.053664
  0
LINE
  8
C
  6
CONTINUOUS
 62
     3
 10
179.885183
 20
324.053664
 11
179.787428
 21
324.053664
  0
LINE
  8
C
  6
CONTINUOUS
 62
     3
 10
179.787428
 20
324.053664
 11
179.665235
 21
324.053664
  0
LINE
  8
C
  6
CONTINUOUS
 62
     3
 10
179.665235
 20
324.053664
 11
179.567484
 21
324.053664
  0
LINE
  8
C
  6
CONTINUOUS
 62
     3
 10
179.567484
 20
324.053664
 11
179.445294
 21
324.053664
  0
LINE
  8
C
  6
CONTINUOUS
 62
     3
 10
179.445294
 20
324.053664
 11
179.323097
 21
324.053664
  0
LINE
  8
C
  6
CONTINUOUS
 62
     3
 10
179.323097
 20
324.053664
 11
179.225346
 21
324.053664
  0
LINE
  8
C
  6
CONTINUOUS
 62
     3
 10
179.225346
 20
324.053664
 11
179.115376
 21
324.053664
  0
LINE
  8
C
  6
CONTINUOUS
 62
     3
 10
179.115376
 20
324.053664
 11
178.993182
 21
324.053664
  0
LINE
  8
C
  6
CONTINUOUS
 62
     3
 10
178.993182
 20
324.053664
 11
178.870993
 21
324.053664
  0
LINE
  8
C
  6
CONTINUOUS
 62
     3
 10
178.870993
 20
324.053664
 11
178.748799
 21
324.053664
  0
LINE
  8
C
  6
CONTINUOUS
 62
     3
 10
178.748799
 20
324.053664
 11
178.638829
 21
324.053664
  0
LINE
  8
C
  6
CONTINUOUS
 62
     3
 10
178.638829
 20
324.053664
 11
178.516635
 21
324.053664
  0
LINE
  8
C
  6
CONTINUOUS
 62
     3
 10
178.516635
 20
324.053664
 11
178.418884
 21
324.053664
  0
LINE
  8
C
  6
CONTINUOUS
 62
     3
 10
178.418884
 20
324.053664
 11
178.321129
 21
324.053664
  0
LINE
  8
C
  6
CONTINUOUS
 62
     3
 10
178.321129
 20
324.053664
 11
178.223379
 21
324.053664
  0
LINE
  8
C
  6
CONTINUOUS
 62
     3
 10
178.223379
 20
324.053664
 11
178.137839
 21
324.053664
  0
LINE
  8
C
  6
CONTINUOUS
 62
     3
 10
178.137839
 20
324.053664
 11
178.040084
 21
324.053664
  0
LINE
  8
C
  6
CONTINUOUS
 62
     3
 10
178.040084
 20
324.053664
 11
177.942333
 21
324.053664
  0
LINE
  8
C
  6
CONTINUOUS
 62
     3
 10
177.942333
 20
324.053664
 11
177.856798
 21
324.053664
  0
LINE
  8
C
  6
CONTINUOUS
 62
     3
 10
177.856798
 20
324.053664
 11
177.771266
 21
324.053664
  0
LINE
  8
C
  6
CONTINUOUS
 62
     3
 10
177.771266
 20
324.053664
 11
177.685735
 21
324.053664
  0
LINE
  8
C
  6
CONTINUOUS
 62
     3
 10
177.685735
 20
324.053664
 11
177.563541
 21
324.053664
  0
LINE
  8
C
  6
CONTINUOUS
 62
     3
 10
177.563541
 20
324.053664
 11
177.453567
 21
324.053664
  0
LINE
  8
C
  6
CONTINUOUS
 62
     3
 10
177.453567
 20
324.053664
 11
177.331377
 21
324.041442
  0
LINE
  8
C
  6
CONTINUOUS
 62
     3
 10
177.331377
 20
324.041442
 11
177.209184
 21
324.029208
  0
LINE
  8
C
  6
CONTINUOUS
 62
     3
 10
177.209184
 20
324.029208
 11
177.086998
 21
324.016986
  0
LINE
  8
C
  6
CONTINUOUS
 62
     3
 10
177.086998
 20
324.016986
 11
176.940366
 21
323.992530
  0
LINE
  8
C
  6
CONTINUOUS
 62
     3
 10
176.940366
 20
323.992530
 11
176.805953
 21
323.968080
  0
LINE
  8
C
  6
CONTINUOUS
 62
     3
 10
176.805953
 20
323.968080
 11
176.683763
 21
323.931390
  0
LINE
  8
C
  6
CONTINUOUS
 62
     3
 10
176.683763
 20
323.931390
 11
176.549355
 21
323.894708
  0
LINE
  8
C
  6
CONTINUOUS
 62
     3
 10
176.549355
 20
323.894708
 11
176.427157
 21
323.845802
  0
LINE
  8
C
  6
CONTINUOUS
 62
     3
 10
176.427157
 20
323.845802
 11
176.317187
 21
323.796890
  0
LINE
  8
C
  6
CONTINUOUS
 62
     3
 10
176.317187
 20
323.796890
 11
176.219432
 21
323.735752
  0
LINE
  8
C
  6
CONTINUOUS
 62
     3
 10
176.219432
 20
323.735752
 11
176.133900
 21
323.686846
  0
LINE
  8
C
  6
CONTINUOUS
 62
     3
 10
176.133900
 20
323.686846
 11
176.048365
 21
323.637934
  0
LINE
  8
C
  6
CONTINUOUS
 62
     3
 10
176.048365
 20
323.637934
 11
175.975049
 21
323.589027
  0
LINE
  8
C
  6
CONTINUOUS
 62
     3
 10
175.975049
 20
323.589027
 11
175.889517
 21
323.527890
  0
LINE
  8
C
  6
CONTINUOUS
 62
     3
 10
175.889517
 20
323.527890
 11
175.828420
 21
323.478984
  0
LINE
  8
C
  6
CONTINUOUS
 62
     3
 10
175.828420
 20
323.478984
 11
175.767319
 21
323.430068
  0
LINE
  8
C
  6
CONTINUOUS
 62
     3
 10
175.767319
 20
323.430068
 11
175.694011
 21
323.368934
  0
LINE
  8
C
  6
CONTINUOUS
 62
     3
 10
175.694011
 20
323.368934
 11
175.620695
 21
323.307794
  0
LINE
  8
C
  6
CONTINUOUS
 62
     3
 10
175.620695
 20
323.307794
 11
175.547379
 21
323.234431
  0
LINE
  8
C
  6
CONTINUOUS
 62
     3
 10
175.547379
 20
323.234431
 11
175.461848
 21
323.173294
  0
LINE
  8
C
  6
CONTINUOUS
 62
     3
 10
175.461848
 20
323.173294
 11
175.376308
 21
323.112156
  0
LINE
  8
C
  6
CONTINUOUS
 62
     3
 10
175.376308
 20
323.112156
 11
175.290777
 21
323.063250
  0
LINE
  8
C
  6
CONTINUOUS
 62
     3
 10
175.290777
 20
323.063250
 11
175.193022
 21
323.014338
  0
LINE
  8
C
  6
CONTINUOUS
 62
     3
 10
175.193022
 20
323.014338
 11
175.095267
 21
322.953197
  0
LINE
  8
C
  6
CONTINUOUS
 62
     3
 10
175.095267
 20
322.953197
 11
174.985297
 21
322.892060
  0
LINE
  8
C
  6
CONTINUOUS
 62
     3
 10
174.985297
 20
322.892060
 11
174.875322
 21
322.830932
  0
LINE
  8
C
  6
CONTINUOUS
 62
     3
 10
174.875322
 20
322.830932
 11
174.740913
 21
322.757560
  0
LINE
  8
C
  6
CONTINUOUS
 62
     3
 10
174.740913
 20
322.757560
 11
174.630939
 21
322.696420
  0
LINE
  8
C
  6
CONTINUOUS
 62
     3
 10
174.630939
 20
322.696420
 11
174.508754
 21
322.623060
  0
LINE
  8
C
  6
CONTINUOUS
 62
     3
 10
174.508754
 20
322.623060
 11
174.362121
 21
322.525242
  0
LINE
  8
C
  6
CONTINUOUS
 62
     3
 10
174.362121
 20
322.525242
 11
174.215489
 21
322.427420
  0
LINE
  8
C
  6
CONTINUOUS
 62
     3
 10
174.215489
 20
322.427420
 11
174.068861
 21
322.329601
  0
LINE
  8
C
  6
CONTINUOUS
 62
     3
 10
174.068861
 20
322.329601
 11
173.922232
 21
322.231783
  0
LINE
  8
C
  6
CONTINUOUS
 62
     3
 10
173.922232
 20
322.231783
 11
173.787819
 21
322.170642
  0
LINE
  8
C
  6
CONTINUOUS
 62
     3
 10
173.787819
 20
322.170642
 11
173.641187
 21
322.097280
  0
LINE
  8
C
  6
CONTINUOUS
 62
     3
 10
173.641187
 20
322.097280
 11
173.494559
 21
322.036146
  0
LINE
  8
C
  6
CONTINUOUS
 62
     3
 10
173.494559
 20
322.036146
 11
173.347931
 21
321.987239
  0
LINE
  8
C
  6
CONTINUOUS
 62
     3
 10
173.347931
 20
321.987239
 11
173.225737
 21
321.938324
  0
LINE
  8
C
  6
CONTINUOUS
 62
     3
 10
173.225737
 20
321.938324
 11
173.103543
 21
321.889421
  0
LINE
  8
C
  6
CONTINUOUS
 62
     3
 10
173.103543
 20
321.889421
 11
172.993573
 21
321.840505
  0
LINE
  8
C
  6
CONTINUOUS
 62
     3
 10
172.993573
 20
321.840505
 11
172.895818
 21
321.803824
  0
LINE
  8
C
  6
CONTINUOUS
 62
     3
 10
172.895818
 20
321.803824
 11
172.798063
 21
321.779368
  0
LINE
  8
C
  6
CONTINUOUS
 62
     3
 10
172.798063
 20
321.779368
 11
172.688097
 21
321.742687
  0
LINE
  8
C
  6
CONTINUOUS
 62
     3
 10
172.688097
 20
321.742687
 11
172.590347
 21
321.706005
  0
LINE
  8
C
  6
CONTINUOUS
 62
     3
 10
172.590347
 20
321.706005
 11
172.492592
 21
321.681546
  0
LINE
  8
C
  6
CONTINUOUS
 62
     3
 10
172.492592
 20
321.681546
 11
172.394837
 21
321.657090
  0
LINE
  8
C
  6
CONTINUOUS
 62
     3
 10
172.394837
 20
321.657090
 11
172.297082
 21
321.620412
  0
LINE
  8
C
  6
CONTINUOUS
 62
     3
 10
172.297082
 20
321.620412
 11
172.199331
 21
321.595962
  0
LINE
  8
C
  6
CONTINUOUS
 62
     3
 10
172.199331
 20
321.595962
 11
172.126011
 21
321.571506
  0
LINE
  8
C
  6
CONTINUOUS
 62
     3
 10
172.126011
 20
321.571506
 11
172.040479
 21
321.534824
  0
LINE
  8
C
  6
CONTINUOUS
 62
     3
 10
172.040479
 20
321.534824
 11
171.954948
 21
321.498140
  0
LINE
  8
C
  6
CONTINUOUS
 62
     3
 10
171.954948
 20
321.498140
 11
171.881632
 21
321.461453
  0
LINE
  8
C
  6
CONTINUOUS
 62
     3
 10
171.881632
 20
321.461453
 11
171.747223
 21
321.388090
  0
LINE
  8
C
  6
CONTINUOUS
 62
     3
 10
171.747223
 20
321.388090
 11
171.673902
 21
321.351412
  0
LINE
  8
C
  6
CONTINUOUS
 62
     3
 10
171.673902
 20
321.351412
 11
171.600590
 21
321.302506
  0
LINE
  8
C
  6
CONTINUOUS
 62
     3
 10
171.600590
 20
321.302506
 11
171.515055
 21
321.241366
  0
LINE
  8
C
  6
CONTINUOUS
 62
     3
 10
171.515055
 20
321.241366
 11
171.441743
 21
321.192450
  0
LINE
  8
C
  6
CONTINUOUS
 62
     3
 10
171.441743
 20
321.192450
 11
171.368422
 21
321.143550
  0
LINE
  8
C
  6
CONTINUOUS
 62
     3
 10
171.368422
 20
321.143550
 11
171.295110
 21
321.094635
  0
LINE
  8
C
  6
CONTINUOUS
 62
     3
 10
171.295110
 20
321.094635
 11
171.221794
 21
321.045728
  0
LINE
  8
C
  6
CONTINUOUS
 62
     3
 10
171.221794
 20
321.045728
 11
171.136259
 21
320.996816
  0
LINE
  8
C
  6
CONTINUOUS
 62
     3
 10
171.136259
 20
320.996816
 11
171.062947
 21
320.947910
  0
LINE
  8
C
  6
CONTINUOUS
 62
     3
 10
171.062947
 20
320.947910
 11
171.001850
 21
320.886772
  0
LINE
  8
C
  6
CONTINUOUS
 62
     3
 10
171.001850
 20
320.886772
 11
170.928533
 21
320.825632
  0
LINE
  8
C
  6
CONTINUOUS
 62
     3
 10
170.928533
 20
320.825632
 11
170.855221
 21
320.752272
  0
LINE
  8
C
  6
CONTINUOUS
 62
     3
 10
170.855221
 20
320.752272
 11
170.781901
 21
320.678898
  0
LINE
  8
C
  6
CONTINUOUS
 62
     3
 10
170.781901
 20
320.678898
 11
170.720808
 21
320.605539
  0
LINE
  8
C
  6
CONTINUOUS
 62
     3
 10
170.720808
 20
320.605539
 11
170.647492
 21
320.532176
  0
LINE
  8
C
  6
CONTINUOUS
 62
     3
 10
170.647492
 20
320.532176
 11
170.586400
 21
320.458814
  0
LINE
  8
C
  6
CONTINUOUS
 62
     3
 10
170.586400
 20
320.458814
 11
170.525299
 21
320.397676
  0
LINE
  8
C
  6
CONTINUOUS
 62
     3
 10
170.525299
 20
320.397676
 11
170.476425
 21
320.336536
  0
LINE
  8
C
  6
CONTINUOUS
 62
     3
 10
170.476425
 20
320.336536
 11
170.427548
 21
320.287621
  0
LINE
  8
C
  6
CONTINUOUS
 62
     3
 10
170.427548
 20
320.287621
 11
170.378675
 21
320.238720
  0
LINE
  8
C
  6
CONTINUOUS
 62
     3
 10
170.378675
 20
320.238720
 11
170.329797
 21
320.177580
  0
LINE
  8
C
  6
CONTINUOUS
 62
     3
 10
170.329797
 20
320.177580
 11
170.293135
 21
320.128665
  0
LINE
  8
C
  6
CONTINUOUS
 62
     3
 10
170.293135
 20
320.128665
 11
170.256481
 21
320.079758
  0
LINE
  8
C
  6
CONTINUOUS
 62
     3
 10
170.256481
 20
320.079758
 11
170.207603
 21
320.006399
  0
LINE
  8
C
  6
CONTINUOUS
 62
     3
 10
170.207603
 20
320.006399
 11
170.158726
 21
319.933030
  0
LINE
  8
C
  6
CONTINUOUS
 62
     3
 10
170.158726
 20
319.933030
 11
170.109853
 21
319.859665
  0
LINE
  8
C
  6
CONTINUOUS
 62
     3
 10
170.109853
 20
319.859665
 11
170.060979
 21
319.774068
  0
LINE
  8
C
  6
CONTINUOUS
 62
     3
 10
170.060979
 20
319.774068
 11
169.999878
 21
319.688484
  0
LINE
  8
C
  6
CONTINUOUS
 62
     3
 10
169.999878
 20
319.688484
 11
169.938781
 21
319.590665
  0
LINE
  8
C
  6
CONTINUOUS
 62
     3
 10
169.938781
 20
319.590665
 11
169.877689
 21
319.505069
  0
LINE
  8
C
  6
CONTINUOUS
 62
     3
 10
169.877689
 20
319.505069
 11
169.804373
 21
319.407250
  0
LINE
  8
C
  6
CONTINUOUS
 62
     3
 10
169.804373
 20
319.407250
 11
169.731061
 21
319.309428
  0
LINE
  8
C
  6
CONTINUOUS
 62
     3
 10
169.731061
 20
319.309428
 11
169.669960
 21
319.236069
  0
LINE
  8
C
  6
CONTINUOUS
 62
     3
 10
169.669960
 20
319.236069
 11
169.608867
 21
319.150472
  0
LINE
  8
C
  6
CONTINUOUS
 62
     3
 10
169.608867
 20
319.150472
 11
169.559989
 21
319.064888
  0
LINE
  8
C
  6
CONTINUOUS
 62
     3
 10
169.559989
 20
319.064888
 11
169.498893
 21
318.967066
  0
LINE
  8
C
  6
CONTINUOUS
 62
     3
 10
169.498893
 20
318.967066
 11
169.437796
 21
318.869250
  0
LINE
  8
C
  6
CONTINUOUS
 62
     3
 10
169.437796
 20
318.869250
 11
169.376703
 21
318.771432
  0
LINE
  8
C
  6
CONTINUOUS
 62
     3
 10
169.376703
 20
318.771432
 11
169.303387
 21
318.673610
  0
LINE
  8
C
  6
CONTINUOUS
 62
     3
 10
169.303387
 20
318.673610
 11
169.230071
 21
318.575792
  0
LINE
  8
C
  6
CONTINUOUS
 62
     3
 10
169.230071
 20
318.575792
 11
169.156755
 21
318.453517
  0
LINE
  8
C
  6
CONTINUOUS
 62
     3
 10
169.156755
 20
318.453517
 11
169.083447
 21
318.355698
  0
LINE
  8
C
  6
CONTINUOUS
 62
     3
 10
169.083447
 20
318.355698
 11
169.022346
 21
318.282333
  0
LINE
  8
C
  6
CONTINUOUS
 62
     3
 10
169.022346
 20
318.282333
 11
168.961249
 21
318.208964
  0
LINE
  8
C
  6
CONTINUOUS
 62
     3
 10
168.961249
 20
318.208964
 11
168.900152
 21
318.147824
  0
LINE
  8
C
  6
CONTINUOUS
 62
     3
 10
168.900152
 20
318.147824
 11
168.839059
 21
318.074464
  0
LINE
  8
C
  6
CONTINUOUS
 62
     3
 10
168.839059
 20
318.074464
 11
168.790182
 21
317.988877
  0
LINE
  8
C
  6
CONTINUOUS
 62
     3
 10
168.790182
 20
317.988877
 11
168.741304
 21
317.903280
  0
LINE
  8
C
  6
CONTINUOUS
 62
     3
 10
168.741304
 20
317.903280
 11
168.692431
 21
317.805462
  0
LINE
  8
C
  6
CONTINUOUS
 62
     3
 10
168.692431
 20
317.805462
 11
168.643554
 21
317.707643
  0
LINE
  8
C
  6
CONTINUOUS
 62
     3
 10
168.643554
 20
317.707643
 11
168.594680
 21
317.609825
  0
LINE
  8
C
  6
CONTINUOUS
 62
     3
 10
168.594680
 20
317.609825
 11
168.545803
 21
317.499772
  0
LINE
  8
C
  6
CONTINUOUS
 62
     3
 10
168.545803
 20
317.499772
 11
168.496925
 21
317.401953
  0
LINE
  8
C
  6
CONTINUOUS
 62
     3
 10
168.496925
 20
317.401953
 11
168.448048
 21
317.291907
  0
LINE
  8
C
  6
CONTINUOUS
 62
     3
 10
168.448048
 20
317.291907
 11
168.411390
 21
317.194091
  0
LINE
  8
C
  6
CONTINUOUS
 62
     3
 10
168.411390
 20
317.194091
 11
168.362512
 21
317.108494
  0
LINE
  8
C
  6
CONTINUOUS
 62
     3
 10
168.362512
 20
317.108494
 11
168.325854
 21
317.010673
  0
LINE
  8
C
  6
CONTINUOUS
 62
     3
 10
168.325854
 20
317.010673
 11
168.289196
 21
316.925088
  0
LINE
  8
C
  6
CONTINUOUS
 62
     3
 10
168.289196
 20
316.925088
 11
168.264757
 21
316.851729
  0
LINE
  8
C
  6
CONTINUOUS
 62
     3
 10
168.264757
 20
316.851729
 11
168.240319
 21
316.790588
  0
LINE
  8
C
  6
CONTINUOUS
 62
     3
 10
168.240319
 20
316.790588
 11
168.203661
 21
316.729451
  0
LINE
  8
C
  6
CONTINUOUS
 62
     3
 10
168.203661
 20
316.729451
 11
168.167002
 21
316.668311
  0
LINE
  8
C
  6
CONTINUOUS
 62
     3
 10
168.167002
 20
316.668311
 11
168.130349
 21
316.607176
  0
LINE
  8
C
  6
CONTINUOUS
 62
     3
 10
168.130349
 20
316.607176
 11
168.093690
 21
316.546039
  0
LINE
  8
C
  6
CONTINUOUS
 62
     3
 10
168.093690
 20
316.546039
 11
168.044813
 21
316.484898
  0
LINE
  8
C
  6
CONTINUOUS
 62
     3
 10
168.044813
 20
316.484898
 11
167.995936
 21
316.411536
  0
LINE
  8
C
  6
CONTINUOUS
 62
     3
 10
167.995936
 20
316.411536
 11
167.947058
 21
316.325942
  0
LINE
  8
C
  6
CONTINUOUS
 62
     3
 10
167.947058
 20
316.325942
 11
167.898181
 21
316.240355
  0
LINE
  8
C
  6
CONTINUOUS
 62
     3
 10
167.898181
 20
316.240355
 11
167.837088
 21
316.154758
  0
LINE
  8
C
  6
CONTINUOUS
 62
     3
 10
167.837088
 20
316.154758
 11
167.775991
 21
316.069165
  0
LINE
  8
C
  6
CONTINUOUS
 62
     3
 10
167.775991
 20
316.069165
 11
167.714894
 21
315.983580
  0
LINE
  8
C
  6
CONTINUOUS
 62
     3
 10
167.714894
 20
315.983580
 11
167.653802
 21
315.885759
  0
LINE
  8
C
  6
CONTINUOUS
 62
     3
 10
167.653802
 20
315.885759
 11
167.604924
 21
315.800165
  0
LINE
  8
C
  6
CONTINUOUS
 62
     3
 10
167.604924
 20
315.800165
 11
167.543827
 21
315.714580
  0
LINE
  8
C
  6
CONTINUOUS
 62
     3
 10
167.543827
 20
315.714580
 11
167.494950
 21
315.641209
  0
LINE
  8
C
  6
CONTINUOUS
 62
     3
 10
167.494950
 20
315.641209
 11
167.446072
 21
315.580069
  0
LINE
  8
C
  6
CONTINUOUS
 62
     3
 10
167.446072
 20
315.580069
 11
167.397199
 21
315.506706
  0
LINE
  8
C
  6
CONTINUOUS
 62
     3
 10
167.397199
 20
315.506706
 11
167.360537
 21
315.445569
  0
LINE
  8
C
  6
CONTINUOUS
 62
     3
 10
167.360537
 20
315.445569
 11
167.323879
 21
315.396663
  0
LINE
  8
C
  6
CONTINUOUS
 62
     3
 10
167.323879
 20
315.396663
 11
167.299444
 21
315.359984
  0
LINE
  8
C
  6
CONTINUOUS
 62
     3
 10
167.299444
 20
315.359984
 11
167.275005
 21
315.335525
  0
LINE
  8
C
  6
CONTINUOUS
 62
     3
 10
167.275005
 20
315.335525
 11
167.250567
 21
315.298844
  0
LINE
  8
C
  6
CONTINUOUS
 62
     3
 10
167.250567
 20
315.298844
 11
167.226130
 21
315.262163
  0
LINE
  8
C
  6
CONTINUOUS
 62
     3
 10
167.226130
 20
315.262163
 11
167.201689
 21
315.225473
  0
LINE
  8
C
  6
CONTINUOUS
 62
     3
 10
167.201689
 20
315.225473
 11
167.177253
 21
315.188791
  0
LINE
  8
C
  6
CONTINUOUS
 62
     3
 10
167.177253
 20
315.188791
 11
167.140594
 21
315.164344
  0
LINE
  8
C
  6
CONTINUOUS
 62
     3
 10
167.140594
 20
315.164344
 11
167.103934
 21
315.127657
  0
LINE
  8
C
  6
CONTINUOUS
 62
     3
 10
167.103934
 20
315.127657
 11
167.067280
 21
315.078751
  0
LINE
  8
C
  6
CONTINUOUS
 62
     3
 10
167.067280
 20
315.078751
 11
167.018403
 21
315.017610
  0
LINE
  8
C
  6
CONTINUOUS
 62
     3
 10
167.018403
 20
315.017610
 11
166.969525
 21
314.956473
  0
LINE
  8
C
  6
CONTINUOUS
 62
     3
 10
166.969525
 20
314.956473
 11
166.920650
 21
314.907566
  0
LINE
  8
C
  6
CONTINUOUS
 62
     3
 10
166.920650
 20
314.907566
 11
166.871777
 21
314.858654
  0
LINE
  8
C
  6
CONTINUOUS
 62
     3
 10
166.871777
 20
314.858654
 11
166.822899
 21
314.821973
  0
LINE
  8
C
  6
CONTINUOUS
 62
     3
 10
166.822899
 20
314.821973
 11
166.774022
 21
314.773067
  0
LINE
  8
C
  6
CONTINUOUS
 62
     3
 10
166.774022
 20
314.773067
 11
166.725144
 21
314.724154
  0
LINE
  8
C
  6
CONTINUOUS
 62
     3
 10
166.725144
 20
314.724154
 11
166.676267
 21
314.687473
  0
LINE
  8
C
  6
CONTINUOUS
 62
     3
 10
166.676267
 20
314.687473
 11
166.627391
 21
314.638561
  0
LINE
  8
C
  6
CONTINUOUS
 62
     3
 10
166.627391
 20
314.638561
 11
166.566295
 21
314.601877
  0
LINE
  8
C
  6
CONTINUOUS
 62
     3
 10
166.566295
 20
314.601877
 11
166.505200
 21
314.552973
  0
LINE
  8
C
  6
CONTINUOUS
 62
     3
 10
166.505200
 20
314.552973
 11
166.444101
 21
314.504061
  0
LINE
  8
C
  6
CONTINUOUS
 62
     3
 10
166.444101
 20
314.504061
 11
166.383010
 21
314.455155
  0
LINE
  8
C
  6
CONTINUOUS
 62
     3
 10
166.383010
 20
314.455155
 11
166.297473
 21
314.406239
  0
LINE
  8
C
  6
CONTINUOUS
 62
     3
 10
166.297473
 20
314.406239
 11
166.224157
 21
314.357333
  0
LINE
  8
C
  6
CONTINUOUS
 62
     3
 10
166.224157
 20
314.357333
 11
166.138625
 21
314.308421
  0
LINE
  8
C
  6
CONTINUOUS
 62
     3
 10
166.138625
 20
314.308421
 11
166.053090
 21
314.259514
  0
LINE
  8
C
  6
CONTINUOUS
 62
     3
 10
166.053090
 20
314.259514
 11
165.967554
 21
314.210599
  0
LINE
  8
C
  6
CONTINUOUS
 62
     3
 10
165.967554
 20
314.210599
 11
165.882021
 21
314.149465
  0
LINE
  8
C
  6
CONTINUOUS
 62
     3
 10
165.882021
 20
314.149465
 11
165.796485
 21
314.088324
  0
LINE
  8
C
  6
CONTINUOUS
 62
     3
 10
165.796485
 20
314.088324
 11
165.723171
 21
314.039421
  0
LINE
  8
C
  6
CONTINUOUS
 62
     3
 10
165.723171
 20
314.039421
 11
165.704166
 21
314.026741
  0
LINE
  8
C
  6
CONTINUOUS
 62
     3
 10
188.524130
 20
327.147200
 11
193.173679
 21
330.137234
  0
LINE
  8
C
  6
CONTINUOUS
 62
     3
 10
193.173679
 20
330.137234
 11
205.505105
 21
334.272565
  0
LINE
  8
C
  6
CONTINUOUS
 62
     3
 10
205.505105
 20
334.272565
 11
212.683096
 21
335.111616
  0
LINE
  8
C
  6
CONTINUOUS
 62
     3
 10
212.683096
 20
335.111616
 11
226.364225
 21
334.811955
  0
LINE
  8
C
  6
CONTINUOUS
 62
     3
 10
226.364225
 20
334.811955
 11
247.755456
 21
335.903173
  0
ARC
  8
C
  6
CONTINUOUS
 62
     3
 10
247.602618
 20
338.899277
 40
3.000000
 50
272.920258
 51
343.127136
  0
LINE
  8
C
  6
CONTINUOUS
 62
     3
 10
250.473471
 20
338.028530
 11
251.897211
 21
342.722600
  0
ENDBLK
  8
0
  0
BLOCK
  8
DIMENSION
  2
*D0
 70
    65
 10
0.000000
 20
0.000000
 30
0.000000
  3
*D
  0
LINE
  8
DIMENSION
  6
BYBLOCK
 62
     3
 10
122.204164
 20
329.212602
 11
122.204164
 21
269.200000
  0
LINE
  8
DIMENSION
  6
BYBLOCK
 62
     3
 10
122.204164
 20
270.000000
 11
334.204162
 21
270.000000
  0
LINE
  8
DIMENSION
  6
BYBLOCK
 62
     3
 10
125.904164
 20
269.550000
 11
122.204164
 21
270.000000
  0
LINE
  8
DIMENSION
  6
BYBLOCK
 62
     3
 10
122.204164
 20
270.000000
 11
125.904164
 21
270.450000
  0
LINE
  8
DIMENSION
  6
BYBLOCK
 62
     3
 10
125.904164
 20
270.450000
 11
125.904164
 21
269.550000
  0
LINE
  8
DIMENSION
  6
BYBLOCK
 62
     3
 10
330.504162
 20
270.450000
 11
334.204162
 21
270.000000
  0
LINE
  8
DIMENSION
  6
BYBLOCK
 62
     3
 10
334.204162
 20
270.000000
 11
330.504162
 21
269.550000
  0
LINE
  8
DIMENSION
  6
BYBLOCK
 62
     3
 10
330.504162
 20
269.550000
 11
330.504162
 21
270.450000
  0
LINE
  8
DIMENSION
  6
BYBLOCK
 62
     3
 10
334.204162
 20
269.200000
 11
334.204162
 21
329.212596
  0
TEXT
  8
DIMENSION
 62
     4
 10
223.129163
 20
271.750000
 40
3.500000
  1
212
 50
0.000000
 41
0.854701
 51
0.000000
  7
STANDARD
 72
     5
 11
230.129163
 21
271.750000
 73
     0
  0
POINT
  8
DIMENSION
  6
BYBLOCK
 62
     9
 10
122.204164
 20
329.222602
  0
POINT
  8
DIMENSION
  6
BYBLOCK
 62
     9
 10
334.204162
 20
329.222596
  0
ENDBLK
  8
0
  0
BLOCK
  8
C
  2
B-26
 70
    66
 10
0.000000
 20
0.000000
 30
0.000000
  0
LINE
  8
C
  6
CONTINUOUS
 62
     7
 10
164.404162
 20
342.722601
 11
164.404162
 21
341.722601
  0
LINE
  8
C
  6
CONTINUOUS
 62
     7
 10
164.404162
 20
341.722601
 11
159.904162
 21
341.722601
  0
LINE
  8
C
  6
CONTINUOUS
 62
     7
 10
158.904162
 20
340.722601
 11
158.904162
 21
329.222602
  0
ARC
  8
C
  6
CONTINUOUS
 62
     7
 10
159.904163
 20
340.722602
 40
1.000000
 50
90.000030
 51
180.000036
  0
LINE
  8
C
  6
CONTINUOUS
 62
     7
 10
157.904162
 20
328.222602
 11
123.204164
 21
328.222602
  0
ARC
  8
C
  6
CONTINUOUS
 62
     7
 10
123.204163
 20
329.222602
 40
1.000000
 50
179.999979
 51
270.000045
  0
ARC
  8
C
  6
CONTINUOUS
 62
     7
 10
157.904162
 20
329.222602
 40
1.000000
 50
269.999988
 51
0.000021
  0
LINE
  8
C
  6
CONTINUOUS
 62
     7
 10
122.204164
 20
329.222602
 11
122.204163
 21
342.722601
  0
LINE
  8
C
  6
CONTINUOUS
 62
     7
 10
122.204163
 20
342.722601
 11
123.204163
 21
342.722601
  0
LINE
  8
C
  6
CONTINUOUS
 62
     7
 10
123.204163
 20
342.722601
 11
123.204163
 21
329.222602
  0
LINE
  8
C
  6
CONTINUOUS
 62
     7
 10
164.404162
 20
342.722601
 11
159.904162
 21
342.722601
  0
ARC
  8
C
  6
CONTINUOUS
 62
     7
 10
159.904163
 20
340.722602
 40
2.000000
 50
90.000015
 51
180.000018
  0
LINE
  8
C
  6
CONTINUOUS
 62
     7
 10
157.904162
 20
341.922601
 11
157.904162
 21
329.222602
  0
ARC
  8
C
  6
CONTINUOUS
 62
     7
 10
157.404162
 20
341.922602
 40
0.500000
 50
359.999928
 51
90.000024
  0
LINE
  8
C
  6
CONTINUOUS
 62
     7
 10
159.904162
 20
342.722601
 11
159.804162
 21
342.722601
  0
LINE
  8
C
  6
CONTINUOUS
 62
     7
 10
157.404162
 20
342.422601
 11
123.704164
 21
342.422601
  0
ARC
  8
C
  6
CONTINUOUS
 62
     7
 10
123.704163
 20
341.922602
 40
0.500000
 50
89.999909
 51
180.000072
  0
ENDBLK
  8
0
  0
BLOCK
  8
C
  2
B-27
 70
    66
 10
0.000000
 20
0.000000
 30
0.000000
  0
LINE
  8
C
  6
CONTINUOUS
 62
     7
 10
85.704163
 20
342.722602
 11
370.704163
 21
342.722594
  0
LINE
  8
C
  6
CONTINUOUS
 62
     7
 10
370.704163
 20
345.472594
 11
85.704163
 21
345.472602
  0
LINE
  8
C
  6
CONTINUOUS
 62
     7
 10
110.704164
 20
342.722601
 11
110.704164
 21
342.722601
  0
LINE
  8
C
  6
CONTINUOUS
 62
     7
 10
85.704163
 20
342.722602
 11
85.704163
 21
345.472602
  0
LINE
  8
C
  6
CONTINUOUS
 62
     7
 10
370.704163
 20
342.722594
 11
370.704163
 21
345.472594
  0
LINE
  8
C
  6
BORDER
 62
     3
 10
360.704163
 20
340.722594
 11
360.704163
 21
347.472594
  0
LINE
  8
C
  6
BORDER
 62
     3
 10
95.704164
 20
340.722602
 11
95.704164
 21
347.472602
  0
ENDBLK
  8
0
  0
BLOCK
  8
C
  2
B-28
 70
    66
 10
0.000000
 20
0.000000
 30
0.000000
  0
CIRCLE
  8
C
  6
DOT
 62
     3
 10
158.691366
 20
310.922599
 40
2.050000
  0
LINE
  8
C
  6
BORDER
 62
     3
 10
158.691365
 20
307.422599
 11
158.691365
 21
316.922599
  0
CIRCLE
  8
C
  6
DOT
 62
     3
 10
150.691366
 20
310.922599
 40
2.050000
  0
LINE
  8
C
  6
BORDER
 62
     3
 10
150.691366
 20
307.422599
 11
150.691366
 21
316.922599
  0
LINE
  8
C
  6
CONTINUOUS
 62
     7
 10
251.591366
 20
338.922600
 11
251.591366
 21
322.422600
  0
ARC
  8
C
  6
CONTINUOUS
 62
     7
 10
248.591366
 20
338.922599
 40
3.000000
 50
0.000015
 51
29.744953
  0
LINE
  8
C
  6
CONTINUOUS
 62
     7
 10
251.591366
 20
322.422600
 11
234.240844
 21
322.422600
  0
LINE
  8
C
  6
CONTINUOUS
 62
     7
 10
211.591365
 20
322.422600
 11
204.091367
 21
322.422600
  0
LINE
  8
C
  6
CONTINUOUS
 62
     7
 10
204.091367
 20
322.422600
 11
204.091368
 21
304.422600
  0
LINE
  8
C
  6
CONTINUOUS
 62
     7
 10
204.091368
 20
304.422600
 11
163.591366
 21
304.422600
  0
LINE
  8
C
  6
CONTINUOUS
 62
     7
 10
163.591366
 20
304.422600
 11
163.591365
 21
304.422599
  0
LINE
  8
C
  6
CONTINUOUS
 62
     7
 10
163.591365
 20
304.422599
 11
147.091365
 21
304.422598
  0
LINE
  8
C
  6
CONTINUOUS
 62
     7
 10
147.091365
 20
304.422599
 11
147.091365
 21
327.422600
  0
LINE
  8
C
  6
CONTINUOUS
 62
     7
 10
147.091365
 20
327.422600
 11
163.591365
 21
327.422600
  0
LINE
  8
C
  6
CONTINUOUS
 62
     7
 10
163.591365
 20
327.422600
 11
165.704165
 21
327.422600
  0
ARC
  8
C
  6
CONTINUOUS
 62
     7
 10
217.591366
 20
316.472599
 40
8.450000
 50
64.763018
 51
135.239732
  0
LINE
  8
C
  6
CONTINUOUS
 62
     7
 10
235.691366
 20
326.322600
 11
235.691366
 21
334.522600
  0
LINE
  8
C
  6
CONTINUOUS
 62
     7
 10
241.491366
 20
326.322600
 11
241.491366
 21
334.522600
  0
ARC
  8
C
  6
CONTINUOUS
 62
     7
 10
238.591366
 20
326.322599
 40
2.900000
 50
179.999984
 51
0.000016
  0
ARC
  8
C
  6
CONTINUOUS
 62
     7
 10
238.591366
 20
334.522599
 40
2.900000
 50
164.592625
 51
179.999984
  0
ARC
  8
C
  6
CONTINUOUS
 62
     7
 10
238.591366
 20
334.522599
 40
2.900000
 50
0.000016
 51
21.247906
  0
LINE
  8
C
  6
BORDER
 62
     3
 10
238.591366
 20
339.922600
 11
238.591366
 21
321.422598
  0
LINE
  8
C
  6
BORDER
 62
     3
 10
243.491366
 20
326.322600
 11
233.691366
 21
326.322600
  0
LINE
  8
C
  6
BORDER
 62
     3
 10
243.491366
 20
334.522600
 11
233.691366
 21
334.522600
  0
LINE
  8
C
  6
BORDER
 62
     3
 10
162.891365
 20
310.922599
 11
147.891365
 21
310.922599
  0
LINE
  8
C
  6
BORDER
 62
     3
 10
198.091364
 20
343.922600
 11
198.091364
 21
339.922600
  0
ARC
  8
C
  6
CONTINUOUS
 62
     7
 10
196.991367
 20
315.922602
 40
4.250000
 50
269.999997
 51
90.000017
  0
LINE
  8
C
  6
DOT
 62
     3
 10
174.991367
 20
311.672601
 11
182.481884
 21
311.672600
  0
LINE
  8
C
  6
CONTINUOUS
 62
     7
 10
182.481884
 20
311.672600
 11
196.991367
 21
311.672601
  0
LINE
  8
C
  6
CONTINUOUS
 62
     7
 10
196.991366
 20
320.172601
 11
182.481883
 21
320.172600
  0
LINE
  8
C
  6
DOT
 62
     3
 10
182.481883
 20
320.172600
 11
174.991367
 21
320.172601
  0
ARC
  8
C
  6
DOT
 62
     3
 10
174.991367
 20
315.922602
 40
4.250000
 50
90.000003
 51
269.999997
  0
LINE
  8
C
  6
BORDER
 62
     3
 10
202.241367
 20
315.922602
 11
169.741366
 21
315.922602
  0
LINE
  8
C
  6
BORDER
 62
     3
 10
174.991366
 20
310.672601
 11
174.991366
 21
321.172600
  0
LINE
  8
C
  6
BORDER
 62
     3
 10
196.991365
 20
310.672602
 11
196.991365
 21
321.172601
  0
LINE
  8
C
  6
BORDER
 62
     3
 10
217.591366
 20
321.422598
 11
217.591366
 21
325.922600
  0
LINE
  8
C
  6
CONTINUOUS
 62
     3
 10
221.194135
 20
324.116065
 11
221.491153
 21
324.513880
  0
LINE
  8
C
  6
CONTINUOUS
 62
     3
 10
221.491153
 20
324.513880
 11
221.608721
 21
324.742644
  0
LINE
  8
C
  6
CONTINUOUS
 62
     3
 10
221.674037
 20
324.873361
 11
221.726290
 21
324.984476
  0
LINE
  8
C
  6
CONTINUOUS
 62
     3
 10
221.608721
 20
324.742644
 11
221.674037
 21
324.873361
  0
LINE
  8
C
  6
CONTINUOUS
 62
     3
 10
221.765480
 20
325.056370
 11
221.798137
 21
325.115194
  0
LINE
  8
C
  6
CONTINUOUS
 62
     3
 10
221.726290
 20
324.984476
 11
221.765480
 21
325.056370
  0
LINE
  8
C
  6
CONTINUOUS
 62
     3
 10
221.798137
 20
325.115194
 11
221.824263
 21
325.160949
  0
LINE
  8
C
  6
CONTINUOUS
 62
     3
 10
221.824263
 20
325.160949
 11
221.850390
 21
325.200164
  0
LINE
  8
C
  6
CONTINUOUS
 62
     3
 10
221.850390
 20
325.200164
 11
221.902643
 21
325.252451
  0
LINE
  8
C
  6
CONTINUOUS
 62
     3
 10
221.928769
 20
325.285130
 11
221.961428
 21
325.324345
  0
LINE
  8
C
  6
CONTINUOUS
 62
     3
 10
221.902643
 20
325.252451
 11
221.928769
 21
325.285130
  0
LINE
  8
C
  6
CONTINUOUS
 62
     3
 10
222.007149
 20
325.383172
 11
222.059401
 21
325.448530
  0
LINE
  8
C
  6
CONTINUOUS
 62
     3
 10
221.961428
 20
325.324345
 11
222.007149
 21
325.383172
  0
LINE
  8
C
  6
CONTINUOUS
 62
     3
 10
222.059401
 20
325.448530
 11
222.105124
 21
325.513890
  0
LINE
  8
C
  6
CONTINUOUS
 62
     3
 10
222.105124
 20
325.513890
 11
222.150845
 21
325.585787
  0
LINE
  8
C
  6
CONTINUOUS
 62
     3
 10
222.150845
 20
325.585787
 11
222.190034
 21
325.651148
  0
LINE
  8
C
  6
CONTINUOUS
 62
     3
 10
222.190034
 20
325.651148
 11
222.229224
 21
325.716508
  0
LINE
  8
C
  6
CONTINUOUS
 62
     3
 10
222.229224
 20
325.716508
 11
222.268414
 21
325.775329
  0
LINE
  8
C
  6
CONTINUOUS
 62
     3
 10
222.268414
 20
325.775329
 11
222.314134
 21
325.840693
  0
LINE
  8
C
  6
CONTINUOUS
 62
     3
 10
222.314134
 20
325.840693
 11
222.353324
 21
325.899513
  0
LINE
  8
C
  6
CONTINUOUS
 62
     3
 10
222.353324
 20
325.899513
 11
222.392512
 21
325.958341
  0
LINE
  8
C
  6
CONTINUOUS
 62
     3
 10
222.392512
 20
325.958341
 11
222.438234
 21
326.023698
  0
LINE
  8
C
  6
CONTINUOUS
 62
     3
 10
222.438234
 20
326.023698
 11
222.490488
 21
326.089059
  0
LINE
  8
C
  6
CONTINUOUS
 62
     3
 10
222.490488
 20
326.089059
 11
222.549271
 21
326.174028
  0
LINE
  8
C
  6
CONTINUOUS
 62
     3
 10
222.549271
 20
326.174028
 11
222.608057
 21
326.258994
  0
LINE
  8
C
  6
CONTINUOUS
 62
     3
 10
222.608057
 20
326.258994
 11
222.660309
 21
326.330891
  0
LINE
  8
C
  6
CONTINUOUS
 62
     3
 10
222.660309
 20
326.330891
 11
222.712562
 21
326.402788
  0
LINE
  8
C
  6
CONTINUOUS
 62
     3
 10
222.712562
 20
326.402788
 11
222.764814
 21
326.468149
  0
LINE
  8
C
  6
CONTINUOUS
 62
     3
 10
222.764814
 20
326.468149
 11
222.843194
 21
326.579257
  0
LINE
  8
C
  6
CONTINUOUS
 62
     3
 10
222.843194
 20
326.579257
 11
222.888916
 21
326.625012
  0
LINE
  8
C
  6
CONTINUOUS
 62
     3
 10
222.888916
 20
326.625012
 11
222.947700
 21
326.683836
  0
LINE
  8
C
  6
CONTINUOUS
 62
     3
 10
222.947700
 20
326.683836
 11
222.999952
 21
326.749196
  0
LINE
  8
C
  6
CONTINUOUS
 62
     3
 10
222.999952
 20
326.749196
 11
223.052205
 21
326.814557
  0
LINE
  8
C
  6
CONTINUOUS
 62
     3
 10
223.052205
 20
326.814557
 11
223.104458
 21
326.873381
  0
LINE
  8
C
  6
CONTINUOUS
 62
     3
 10
223.150180
 20
326.925669
 11
223.208964
 21
326.984496
  0
LINE
  8
C
  6
CONTINUOUS
 62
     3
 10
223.104458
 20
326.873381
 11
223.150180
 21
326.925669
  0
LINE
  8
C
  6
CONTINUOUS
 62
     3
 10
223.208964
 20
326.984496
 11
223.267748
 21
327.049857
  0
LINE
  8
C
  6
CONTINUOUS
 62
     3
 10
223.267748
 20
327.049857
 11
223.320001
 21
327.115211
  0
LINE
  8
C
  6
CONTINUOUS
 62
     3
 10
223.320001
 20
327.115211
 11
223.365722
 21
327.160968
  0
LINE
  8
C
  6
CONTINUOUS
 62
     3
 10
223.365722
 20
327.160968
 11
223.424507
 21
327.232862
  0
LINE
  8
C
  6
CONTINUOUS
 62
     3
 10
223.424507
 20
327.232862
 11
223.476759
 21
327.304756
  0
LINE
  8
C
  6
CONTINUOUS
 62
     3
 10
223.476759
 20
327.304756
 11
223.515949
 21
327.376653
  0
LINE
  8
C
  6
CONTINUOUS
 62
     3
 10
223.515949
 20
327.376653
 11
223.555139
 21
327.435480
  0
LINE
  8
C
  6
CONTINUOUS
 62
     3
 10
223.555139
 20
327.435480
 11
223.587798
 21
327.494304
  0
LINE
  8
C
  6
CONTINUOUS
 62
     3
 10
223.587798
 20
327.494304
 11
223.620454
 21
327.553125
  0
LINE
  8
C
  6
CONTINUOUS
 62
     3
 10
223.620454
 20
327.553125
 11
223.653113
 21
327.598876
  0
LINE
  8
C
  6
CONTINUOUS
 62
     3
 10
223.653113
 20
327.598876
 11
223.685771
 21
327.638091
  0
LINE
  8
C
  6
CONTINUOUS
 62
     3
 10
223.685771
 20
327.638091
 11
223.724959
 21
327.683849
  0
LINE
  8
C
  6
CONTINUOUS
 62
     3
 10
223.724959
 20
327.683849
 11
223.757619
 21
327.723061
  0
LINE
  8
C
  6
CONTINUOUS
 62
     3
 10
223.757619
 20
327.723061
 11
223.790276
 21
327.755743
  0
LINE
  8
C
  6
CONTINUOUS
 62
     3
 10
223.822935
 20
327.781888
 11
223.849061
 21
327.808030
  0
LINE
  8
C
  6
CONTINUOUS
 62
     3
 10
223.790276
 20
327.755743
 11
223.822935
 21
327.781888
  0
LINE
  8
C
  6
CONTINUOUS
 62
     3
 10
223.907846
 20
327.860318
 11
223.940504
 21
327.893000
  0
LINE
  8
C
  6
CONTINUOUS
 62
     3
 10
223.881718
 20
327.834179
 11
223.907846
 21
327.860318
  0
LINE
  8
C
  6
CONTINUOUS
 62
     3
 10
223.849061
 20
327.808030
 11
223.881718
 21
327.834179
  0
LINE
  8
C
  6
CONTINUOUS
 62
     3
 10
223.940504
 20
327.893000
 11
223.979693
 21
327.925679
  0
LINE
  8
C
  6
CONTINUOUS
 62
     3
 10
223.979693
 20
327.925679
 11
224.018883
 21
327.964894
  0
LINE
  8
C
  6
CONTINUOUS
 62
     3
 10
224.018883
 20
327.964894
 11
224.064605
 21
328.017185
  0
LINE
  8
C
  6
CONTINUOUS
 62
     3
 10
224.064605
 20
328.017185
 11
224.103793
 21
328.056396
  0
LINE
  8
C
  6
CONTINUOUS
 62
     3
 10
224.103793
 20
328.056396
 11
224.136452
 21
328.102151
  0
LINE
  8
C
  6
CONTINUOUS
 62
     3
 10
224.136452
 20
328.102151
 11
224.169110
 21
328.147905
  0
LINE
  8
C
  6
CONTINUOUS
 62
     3
 10
224.169110
 20
328.147905
 11
224.201766
 21
328.180587
  0
LINE
  8
C
  6
CONTINUOUS
 62
     3
 10
224.201766
 20
328.180587
 11
224.234425
 21
328.213266
  0
LINE
  8
C
  6
CONTINUOUS
 62
     3
 10
224.234425
 20
328.213266
 11
224.260552
 21
328.245941
  0
LINE
  8
C
  6
CONTINUOUS
 62
     3
 10
224.260552
 20
328.245941
 11
224.293209
 21
328.278623
  0
LINE
  8
C
  6
CONTINUOUS
 62
     3
 10
224.293209
 20
328.278623
 11
224.325869
 21
328.311302
  0
LINE
  8
C
  6
CONTINUOUS
 62
     3
 10
224.325869
 20
328.311302
 11
224.358525
 21
328.343984
  0
LINE
  8
C
  6
CONTINUOUS
 62
     3
 10
224.358525
 20
328.343984
 11
224.391184
 21
328.376666
  0
LINE
  8
C
  6
CONTINUOUS
 62
     3
 10
224.423841
 20
328.415877
 11
224.463030
 21
328.455092
  0
LINE
  8
C
  6
CONTINUOUS
 62
     3
 10
224.391184
 20
328.376666
 11
224.423841
 21
328.415877
  0
LINE
  8
C
  6
CONTINUOUS
 62
     3
 10
224.508752
 20
328.494314
 11
224.547943
 21
328.526996
  0
LINE
  8
C
  6
CONTINUOUS
 62
     3
 10
224.463030
 20
328.455092
 11
224.508752
 21
328.494314
  0
LINE
  8
C
  6
CONTINUOUS
 62
     3
 10
224.547943
 20
328.526996
 11
224.587132
 21
328.559671
  0
LINE
  8
C
  6
CONTINUOUS
 62
     3
 10
224.587132
 20
328.559671
 11
224.632854
 21
328.592350
  0
LINE
  8
C
  6
CONTINUOUS
 62
     3
 10
224.632854
 20
328.592350
 11
224.678575
 21
328.638104
  0
LINE
  8
C
  6
CONTINUOUS
 62
     3
 10
224.678575
 20
328.638104
 11
224.730827
 21
328.677319
  0
LINE
  8
C
  6
CONTINUOUS
 62
     3
 10
224.730827
 20
328.677319
 11
224.789613
 21
328.729607
  0
LINE
  8
C
  6
CONTINUOUS
 62
     3
 10
224.789613
 20
328.729607
 11
224.861459
 21
328.788434
  0
LINE
  8
C
  6
CONTINUOUS
 62
     3
 10
224.861459
 20
328.788434
 11
224.933308
 21
328.840722
  0
LINE
  8
C
  6
CONTINUOUS
 62
     3
 10
224.933308
 20
328.840722
 11
224.992091
 21
328.886473
  0
LINE
  8
C
  6
CONTINUOUS
 62
     3
 10
224.992091
 20
328.886473
 11
225.090065
 21
328.951831
  0
LINE
  8
C
  6
CONTINUOUS
 62
     3
 10
225.090065
 20
328.951831
 11
225.155382
 21
328.991049
  0
LINE
  8
C
  6
CONTINUOUS
 62
     3
 10
225.214166
 20
329.030267
 11
225.272951
 21
329.062943
  0
LINE
  8
C
  6
CONTINUOUS
 62
     3
 10
225.155382
 20
328.991049
 11
225.214166
 21
329.030267
  0
LINE
  8
C
  6
CONTINUOUS
 62
     3
 10
225.272951
 20
329.062943
 11
225.331736
 21
329.102161
  0
LINE
  8
C
  6
CONTINUOUS
 62
     3
 10
225.331736
 20
329.102161
 11
225.390518
 21
329.141379
  0
LINE
  8
C
  6
CONTINUOUS
 62
     3
 10
225.390518
 20
329.141379
 11
225.462367
 21
329.187133
  0
LINE
  8
C
  6
CONTINUOUS
 62
     3
 10
225.462367
 20
329.187133
 11
225.534213
 21
329.226345
  0
LINE
  8
C
  6
CONTINUOUS
 62
     3
 10
225.534213
 20
329.226345
 11
225.606062
 21
329.272094
  0
LINE
  8
C
  6
CONTINUOUS
 62
     3
 10
225.606062
 20
329.272094
 11
225.671378
 21
329.317848
  0
LINE
  8
C
  6
CONTINUOUS
 62
     3
 10
225.671378
 20
329.317848
 11
225.743226
 21
329.370139
  0
LINE
  8
C
  6
CONTINUOUS
 62
     3
 10
225.743226
 20
329.370139
 11
225.815073
 21
329.422424
  0
LINE
  8
C
  6
CONTINUOUS
 62
     3
 10
225.815073
 20
329.422424
 11
225.886921
 21
329.468178
  0
LINE
  8
C
  6
CONTINUOUS
 62
     3
 10
225.886921
 20
329.468178
 11
225.958768
 21
329.513930
  0
LINE
  8
C
  6
CONTINUOUS
 62
     3
 10
225.958768
 20
329.513930
 11
226.017552
 21
329.553148
  0
LINE
  8
C
  6
CONTINUOUS
 62
     3
 10
226.017552
 20
329.553148
 11
226.069806
 21
329.579290
  0
LINE
  8
C
  6
CONTINUOUS
 62
     3
 10
226.069806
 20
329.579290
 11
226.128590
 21
329.605435
  0
LINE
  8
C
  6
CONTINUOUS
 62
     3
 10
226.128590
 20
329.605435
 11
226.180844
 21
329.631578
  0
LINE
  8
C
  6
CONTINUOUS
 62
     3
 10
226.233094
 20
329.651184
 11
226.298413
 21
329.683865
  0
LINE
  8
C
  6
CONTINUOUS
 62
     3
 10
226.180844
 20
329.631578
 11
226.233094
 21
329.651184
  0
LINE
  8
C
  6
CONTINUOUS
 62
     3
 10
226.298413
 20
329.683865
 11
226.350665
 21
329.710011
  0
LINE
  8
C
  6
CONTINUOUS
 62
     3
 10
226.350665
 20
329.710011
 11
226.409449
 21
329.729620
  0
LINE
  8
C
  6
CONTINUOUS
 62
     3
 10
226.409449
 20
329.729620
 11
226.461701
 21
329.749226
  0
LINE
  8
C
  6
CONTINUOUS
 62
     3
 10
226.461701
 20
329.749226
 11
226.513955
 21
329.768832
  0
LINE
  8
C
  6
CONTINUOUS
 62
     3
 10
226.513955
 20
329.768832
 11
226.579270
 21
329.794980
  0
LINE
  8
C
  6
CONTINUOUS
 62
     3
 10
226.579270
 20
329.794980
 11
226.644588
 21
329.821123
  0
LINE
  8
C
  6
CONTINUOUS
 62
     3
 10
226.644588
 20
329.821123
 11
226.742560
 21
329.853805
  0
LINE
  8
C
  6
CONTINUOUS
 62
     3
 10
226.742560
 20
329.853805
 11
226.827471
 21
329.893016
  0
LINE
  8
C
  6
CONTINUOUS
 62
     3
 10
226.827471
 20
329.893016
 11
226.899320
 21
329.932231
  0
LINE
  8
C
  6
CONTINUOUS
 62
     3
 10
226.899320
 20
329.932231
 11
226.984231
 21
329.991059
  0
LINE
  8
C
  6
CONTINUOUS
 62
     3
 10
226.984231
 20
329.991059
 11
227.049547
 21
330.043346
  0
LINE
  8
C
  6
CONTINUOUS
 62
     3
 10
227.049547
 20
330.043346
 11
227.121394
 21
330.089101
  0
LINE
  8
C
  6
CONTINUOUS
 62
     3
 10
227.121394
 20
330.089101
 11
227.193242
 21
330.134849
  0
LINE
  8
C
  6
CONTINUOUS
 62
     3
 10
227.193242
 20
330.134849
 11
227.258558
 21
330.174067
  0
LINE
  8
C
  6
CONTINUOUS
 62
     3
 10
227.258558
 20
330.174067
 11
227.323874
 21
330.213286
  0
LINE
  8
C
  6
CONTINUOUS
 62
     3
 10
227.389191
 20
330.245964
 11
227.434910
 21
330.272107
  0
LINE
  8
C
  6
CONTINUOUS
 62
     3
 10
227.323874
 20
330.213286
 11
227.389191
 21
330.245964
  0
LINE
  8
C
  6
CONTINUOUS
 62
     3
 10
227.434910
 20
330.272107
 11
227.513290
 21
330.304788
  0
LINE
  8
C
  6
CONTINUOUS
 62
     3
 10
227.611263
 20
330.337470
 11
227.663517
 21
330.350543
  0
LINE
  8
C
  6
CONTINUOUS
 62
     3
 10
227.513290
 20
330.304788
 11
227.559010
 21
330.317861
  0
LINE
  8
C
  6
CONTINUOUS
 62
     3
 10
227.559010
 20
330.317861
 11
227.611263
 21
330.337470
  0
LINE
  8
C
  6
CONTINUOUS
 62
     3
 10
227.663517
 20
330.350543
 11
227.722300
 21
330.363609
  0
LINE
  8
C
  6
CONTINUOUS
 62
     3
 10
227.722300
 20
330.363609
 11
227.781086
 21
330.376682
  0
LINE
  8
C
  6
CONTINUOUS
 62
     3
 10
227.781086
 20
330.376682
 11
227.833339
 21
330.389758
  0
LINE
  8
C
  6
CONTINUOUS
 62
     3
 10
227.833339
 20
330.389758
 11
227.872527
 21
330.402831
  0
LINE
  8
C
  6
CONTINUOUS
 62
     3
 10
227.872527
 20
330.402831
 11
227.924781
 21
330.415897
  0
LINE
  8
C
  6
CONTINUOUS
 62
     3
 10
227.924781
 20
330.415897
 11
227.957440
 21
330.422437
  0
LINE
  8
C
  6
CONTINUOUS
 62
     3
 10
227.957440
 20
330.422437
 11
228.016223
 21
330.435506
  0
LINE
  8
C
  6
CONTINUOUS
 62
     3
 10
228.016223
 20
330.435506
 11
228.075008
 21
330.442042
  0
LINE
  8
C
  6
CONTINUOUS
 62
     3
 10
228.075008
 20
330.442042
 11
228.140325
 21
330.455118
  0
LINE
  8
C
  6
BORDER
 62
     3
 10
228.204165
 20
345.462740
 11
228.204165
 21
299.082025
  0
LINE
  8
C
  6
CONTINUOUS
 62
     3
 10
228.140325
 20
330.455118
 11
228.199106
 21
330.461652
  0
LINE
  8
C
  6
CONTINUOUS
 62
     3
 10
228.199106
 20
330.461652
 11
228.264426
 21
330.468185
  0
LINE
  8
C
  6
CONTINUOUS
 62
     3
 10
228.329740
 20
330.474724
 11
228.388524
 21
330.481261
  0
LINE
  8
C
  6
CONTINUOUS
 62
     3
 10
228.264426
 20
330.468185
 11
228.329740
 21
330.474724
  0
LINE
  8
C
  6
CONTINUOUS
 62
     3
 10
228.388524
 20
330.481261
 11
228.460372
 21
330.487794
  0
LINE
  8
C
  6
CONTINUOUS
 62
     3
 10
228.460372
 20
330.487794
 11
228.545283
 21
330.494333
  0
LINE
  8
C
  6
CONTINUOUS
 62
     3
 10
228.545283
 20
330.494333
 11
228.610600
 21
330.507406
  0
LINE
  8
C
  6
CONTINUOUS
 62
     3
 10
228.610600
 20
330.507406
 11
228.669383
 21
330.513939
  0
LINE
  8
C
  6
CONTINUOUS
 62
     3
 10
228.669383
 20
330.513939
 11
228.734700
 21
330.527012
  0
LINE
  8
C
  6
CONTINUOUS
 62
     3
 10
228.734700
 20
330.527012
 11
228.806547
 21
330.533548
  0
LINE
  8
C
  6
CONTINUOUS
 62
     3
 10
228.806547
 20
330.533548
 11
228.871864
 21
330.540082
  0
LINE
  8
C
  6
CONTINUOUS
 62
     3
 10
228.871864
 20
330.540082
 11
228.924117
 21
330.546621
  0
LINE
  8
C
  6
CONTINUOUS
 62
     3
 10
228.924117
 20
330.546621
 11
228.976371
 21
330.546621
  0
LINE
  8
C
  6
CONTINUOUS
 62
     3
 10
228.976371
 20
330.546621
 11
229.022091
 21
330.546621
  0
LINE
  8
C
  6
CONTINUOUS
 62
     3
 10
229.022091
 20
330.546621
 11
229.061281
 21
330.546621
  0
LINE
  8
C
  6
CONTINUOUS
 62
     3
 10
229.061281
 20
330.546621
 11
229.113535
 21
330.546621
  0
LINE
  8
C
  6
CONTINUOUS
 62
     3
 10
229.159255
 20
330.546621
 11
229.198443
 21
330.546621
  0
LINE
  8
C
  6
CONTINUOUS
 62
     3
 10
229.113535
 20
330.546621
 11
229.159255
 21
330.546621
  0
LINE
  8
C
  6
CONTINUOUS
 62
     3
 10
229.244165
 20
330.546621
 11
229.296418
 21
330.546621
  0
LINE
  8
C
  6
CONTINUOUS
 62
     3
 10
229.198443
 20
330.546621
 11
229.244165
 21
330.546621
  0
LINE
  8
C
  6
CONTINUOUS
 62
     3
 10
229.296418
 20
330.546621
 11
229.355201
 21
330.540082
  0
LINE
  8
C
  6
CONTINUOUS
 62
     3
 10
229.355201
 20
330.540082
 11
229.407457
 21
330.533548
  0
LINE
  8
C
  6
CONTINUOUS
 62
     3
 10
229.407457
 20
330.533548
 11
229.459709
 21
330.527012
  0
LINE
  8
C
  6
CONTINUOUS
 62
     3
 10
229.459709
 20
330.527012
 11
229.511960
 21
330.520476
  0
LINE
  8
C
  6
CONTINUOUS
 62
     3
 10
229.511960
 20
330.520476
 11
229.564214
 21
330.507406
  0
LINE
  8
C
  6
CONTINUOUS
 62
     3
 10
229.564214
 20
330.507406
 11
229.622997
 21
330.494333
  0
LINE
  8
C
  6
CONTINUOUS
 62
     3
 10
229.622997
 20
330.494333
 11
229.681783
 21
330.481261
  0
LINE
  8
C
  6
CONTINUOUS
 62
     3
 10
229.681783
 20
330.481261
 11
229.753629
 21
330.468185
  0
LINE
  8
C
  6
CONTINUOUS
 62
     3
 10
229.753629
 20
330.468185
 11
229.825478
 21
330.455118
  0
LINE
  8
C
  6
CONTINUOUS
 62
     3
 10
229.825478
 20
330.455118
 11
229.884261
 21
330.442042
  0
LINE
  8
C
  6
CONTINUOUS
 62
     3
 10
229.884261
 20
330.442042
 11
229.949578
 21
330.428970
  0
LINE
  8
C
  6
CONTINUOUS
 62
     3
 10
229.949578
 20
330.428970
 11
230.014895
 21
330.415897
  0
LINE
  8
C
  6
CONTINUOUS
 62
     3
 10
230.080210
 20
330.396291
 11
230.158589
 21
330.376682
  0
LINE
  8
C
  6
CONTINUOUS
 62
     3
 10
230.014895
 20
330.415897
 11
230.080210
 21
330.396291
  0
LINE
  8
C
  6
CONTINUOUS
 62
     3
 10
230.158589
 20
330.376682
 11
230.243499
 21
330.350543
  0
LINE
  8
C
  6
CONTINUOUS
 62
     3
 10
230.243499
 20
330.350543
 11
230.328413
 21
330.324394
  0
LINE
  8
C
  6
CONTINUOUS
 62
     3
 10
230.328413
 20
330.324394
 11
230.413321
 21
330.298252
  0
LINE
  8
C
  6
CONTINUOUS
 62
     3
 10
230.413321
 20
330.298252
 11
230.485170
 21
330.265573
  0
LINE
  8
C
  6
CONTINUOUS
 62
     3
 10
230.485170
 20
330.265573
 11
230.557016
 21
330.226352
  0
LINE
  8
C
  6
CONTINUOUS
 62
     3
 10
230.557016
 20
330.226352
 11
230.622334
 21
330.193677
  0
LINE
  8
C
  6
CONTINUOUS
 62
     3
 10
230.622334
 20
330.193677
 11
230.687651
 21
330.154458
  0
LINE
  8
C
  6
CONTINUOUS
 62
     3
 10
230.687651
 20
330.154458
 11
230.759497
 21
330.108707
  0
LINE
  8
C
  6
CONTINUOUS
 62
     3
 10
230.759497
 20
330.108707
 11
230.837876
 21
330.062956
  0
LINE
  8
C
  6
CONTINUOUS
 62
     3
 10
230.837876
 20
330.062956
 11
230.929320
 21
330.017201
  0
LINE
  8
C
  6
CONTINUOUS
 62
     3
 10
230.929320
 20
330.017201
 11
231.020761
 21
329.971453
  0
LINE
  8
C
  6
CONTINUOUS
 62
     3
 10
231.020761
 20
329.971453
 11
231.118737
 21
329.912626
  0
LINE
  8
C
  6
CONTINUOUS
 62
     3
 10
231.118737
 20
329.912626
 11
231.216708
 21
329.860338
  0
LINE
  8
C
  6
CONTINUOUS
 62
     3
 10
231.216708
 20
329.860338
 11
231.301620
 21
329.808050
  0
LINE
  8
C
  6
CONTINUOUS
 62
     3
 10
231.301620
 20
329.808050
 11
231.393062
 21
329.755759
  0
LINE
  8
C
  6
CONTINUOUS
 62
     3
 10
231.393062
 20
329.755759
 11
231.464911
 21
329.703475
  0
LINE
  8
C
  6
CONTINUOUS
 62
     3
 10
231.464911
 20
329.703475
 11
231.543292
 21
329.638117
  0
LINE
  8
C
  6
CONTINUOUS
 62
     3
 10
231.543292
 20
329.638117
 11
231.608604
 21
329.585826
  0
LINE
  8
C
  6
CONTINUOUS
 62
     3
 10
231.608604
 20
329.585826
 11
231.673921
 21
329.533542
  0
LINE
  8
C
  6
CONTINUOUS
 62
     3
 10
231.673921
 20
329.533542
 11
231.732704
 21
329.481254
  0
LINE
  8
C
  6
CONTINUOUS
 62
     3
 10
231.732704
 20
329.481254
 11
231.784958
 21
329.428963
  0
LINE
  8
C
  6
CONTINUOUS
 62
     3
 10
231.784958
 20
329.428963
 11
231.837212
 21
329.363603
  0
LINE
  8
C
  6
CONTINUOUS
 62
     3
 10
231.837212
 20
329.363603
 11
231.882932
 21
329.304775
  0
LINE
  8
C
  6
CONTINUOUS
 62
     3
 10
231.882932
 20
329.304775
 11
231.922122
 21
329.245954
  0
LINE
  8
C
  6
CONTINUOUS
 62
     3
 10
231.922122
 20
329.245954
 11
231.967844
 21
329.193667
  0
LINE
  8
C
  6
CONTINUOUS
 62
     3
 10
231.967844
 20
329.193667
 11
232.013566
 21
329.141379
  0
LINE
  8
C
  6
CONTINUOUS
 62
     3
 10
232.013566
 20
329.141379
 11
232.052752
 21
329.089088
  0
LINE
  8
C
  6
CONTINUOUS
 62
     3
 10
232.052752
 20
329.089088
 11
232.098476
 21
329.017194
  0
LINE
  8
C
  6
CONTINUOUS
 62
     3
 10
232.098476
 20
329.017194
 11
232.137666
 21
328.958367
  0
LINE
  8
C
  6
CONTINUOUS
 62
     3
 10
232.137666
 20
328.958367
 11
232.176856
 21
328.899546
  0
LINE
  8
C
  6
CONTINUOUS
 62
     3
 10
232.176856
 20
328.899546
 11
232.216044
 21
328.847258
  0
LINE
  8
C
  6
CONTINUOUS
 62
     3
 10
232.216044
 20
328.847258
 11
232.261766
 21
328.794967
  0
LINE
  8
C
  6
CONTINUOUS
 62
     3
 10
232.261766
 20
328.794967
 11
232.307488
 21
328.723074
  0
LINE
  8
C
  6
CONTINUOUS
 62
     3
 10
232.307488
 20
328.723074
 11
232.340143
 21
328.651177
  0
LINE
  8
C
  6
CONTINUOUS
 62
     3
 10
232.340143
 20
328.651177
 11
232.366269
 21
328.559671
  0
LINE
  8
C
  6
CONTINUOUS
 62
     3
 10
232.366269
 20
328.559671
 11
232.398928
 21
328.494314
  0
LINE
  8
C
  6
CONTINUOUS
 62
     3
 10
232.398928
 20
328.494314
 11
232.425055
 21
328.428953
  0
LINE
  8
C
  6
CONTINUOUS
 62
     3
 10
232.425055
 20
328.428953
 11
232.451182
 21
328.350520
  0
LINE
  8
C
  6
CONTINUOUS
 62
     3
 10
232.451181
 20
328.350519
 11
232.477308
 21
328.285159
  0
LINE
  8
C
  6
CONTINUOUS
 62
     3
 10
232.477308
 20
328.285159
 11
232.496905
 21
328.226335
  0
LINE
  8
C
  6
CONTINUOUS
 62
     3
 10
232.496905
 20
328.226335
 11
232.516498
 21
328.174047
  0
LINE
  8
C
  6
CONTINUOUS
 62
     3
 10
232.516498
 20
328.174047
 11
232.529559
 21
328.115223
  0
LINE
  8
C
  6
CONTINUOUS
 62
     3
 10
232.529559
 20
328.115223
 11
232.549154
 21
328.043329
  0
LINE
  8
C
  6
CONTINUOUS
 62
     3
 10
232.549154
 20
328.043329
 11
232.568751
 21
327.971432
  0
LINE
  8
C
  6
CONTINUOUS
 62
     3
 10
232.568751
 20
327.971432
 11
232.588344
 21
327.906072
  0
LINE
  8
C
  6
CONTINUOUS
 62
     3
 10
232.588344
 20
327.906072
 11
232.607940
 21
327.840711
  0
LINE
  8
C
  6
CONTINUOUS
 62
     3
 10
232.607940
 20
327.840711
 11
232.627535
 21
327.775348
  0
LINE
  8
C
  6
CONTINUOUS
 62
     3
 10
232.627535
 20
327.775348
 11
232.647130
 21
327.683848
  0
LINE
  8
C
  6
CONTINUOUS
 62
     3
 10
232.647130
 20
327.683848
 11
232.666723
 21
327.598875
  0
LINE
  8
C
  6
CONTINUOUS
 62
     3
 10
232.666723
 20
327.598875
 11
232.692850
 21
327.520448
  0
LINE
  8
C
  6
CONTINUOUS
 62
     3
 10
232.692850
 20
327.520448
 11
232.712445
 21
327.455085
  0
LINE
  8
C
  6
CONTINUOUS
 62
     3
 10
232.712445
 20
327.455085
 11
232.738572
 21
327.383191
  0
LINE
  8
C
  6
CONTINUOUS
 62
     3
 10
232.738572
 20
327.383191
 11
232.771228
 21
327.272076
  0
LINE
  8
C
  6
CONTINUOUS
 62
     3
 10
232.771228
 20
327.272076
 11
232.797355
 21
327.160967
  0
LINE
  8
C
  6
CONTINUOUS
 62
     3
 10
232.797355
 20
327.160967
 11
232.830016
 21
327.043316
  0
LINE
  8
C
  6
CONTINUOUS
 62
     3
 10
232.830016
 20
327.043316
 11
232.862672
 21
326.951813
  0
LINE
  8
C
  6
CONTINUOUS
 62
     3
 10
232.862672
 20
326.951813
 11
232.888799
 21
326.873380
  0
LINE
  8
C
  6
CONTINUOUS
 62
     3
 10
232.888799
 20
326.873380
 11
232.921455
 21
326.729586
  0
LINE
  8
C
  6
CONTINUOUS
 62
     3
 10
232.921455
 20
326.729586
 11
232.947582
 21
326.592329
  0
LINE
  8
C
  6
CONTINUOUS
 62
     3
 10
232.947582
 20
326.592329
 11
232.967179
 21
326.448539
  0
LINE
  8
C
  6
CONTINUOUS
 62
     3
 10
232.967179
 20
326.448539
 11
232.999836
 21
326.304748
  0
LINE
  8
C
  6
CONTINUOUS
 62
     3
 10
232.999836
 20
326.304748
 11
233.025962
 21
326.206709
  0
LINE
  8
C
  6
CONTINUOUS
 62
     3
 10
233.025962
 20
326.206709
 11
233.052089
 21
326.102130
  0
LINE
  8
C
  6
CONTINUOUS
 62
     3
 10
233.052089
 20
326.102130
 11
233.078216
 21
325.984482
  0
LINE
  8
C
  6
CONTINUOUS
 62
     3
 10
233.078216
 20
325.984482
 11
233.097809
 21
325.892979
  0
LINE
  8
C
  6
CONTINUOUS
 62
     3
 10
233.097809
 20
325.892979
 11
233.123936
 21
325.788404
  0
LINE
  8
C
  6
CONTINUOUS
 62
     3
 10
233.123936
 20
325.788404
 11
233.150063
 21
325.696901
  0
LINE
  8
C
  6
CONTINUOUS
 62
     3
 10
233.150063
 20
325.696901
 11
233.182721
 21
325.618465
  0
LINE
  8
C
  6
CONTINUOUS
 62
     3
 10
233.182721
 20
325.618465
 11
233.208848
 21
325.553104
  0
LINE
  8
C
  6
CONTINUOUS
 62
     3
 10
233.208848
 20
325.553104
 11
233.234975
 21
325.487747
  0
LINE
  8
C
  6
CONTINUOUS
 62
     3
 10
233.234975
 20
325.487747
 11
233.261100
 21
325.409314
  0
LINE
  8
C
  6
CONTINUOUS
 62
     3
 10
233.261100
 20
325.409314
 11
233.287226
 21
325.350493
  0
LINE
  8
C
  6
CONTINUOUS
 62
     3
 10
233.287226
 20
325.350493
 11
233.313353
 21
325.278596
  0
LINE
  8
C
  6
CONTINUOUS
 62
     3
 10
233.313353
 20
325.278596
 11
233.332946
 21
325.206696
  0
LINE
  8
C
  6
CONTINUOUS
 62
     3
 10
233.332946
 20
325.206696
 11
233.346010
 21
325.141339
  0
LINE
  8
C
  6
CONTINUOUS
 62
     3
 10
233.346010
 20
325.141339
 11
233.372136
 21
325.043296
  0
LINE
  8
C
  6
CONTINUOUS
 62
     3
 10
233.372136
 20
325.043296
 11
233.391734
 21
324.991009
  0
LINE
  8
C
  6
CONTINUOUS
 62
     3
 10
233.391734
 20
324.991009
 11
233.411327
 21
324.945254
  0
LINE
  8
C
  6
CONTINUOUS
 62
     3
 10
233.411327
 20
324.945254
 11
233.437454
 21
324.873360
  0
LINE
  8
C
  6
CONTINUOUS
 62
     3
 10
233.437454
 20
324.873360
 11
233.463580
 21
324.801464
  0
LINE
  8
C
  6
CONTINUOUS
 62
     3
 10
233.463580
 20
324.801464
 11
233.483173
 21
324.742643
  0
LINE
  8
C
  6
CONTINUOUS
 62
     3
 10
233.483173
 20
324.742643
 11
233.502766
 21
324.696888
  0
LINE
  8
C
  6
CONTINUOUS
 62
     3
 10
233.502766
 20
324.696888
 11
233.522364
 21
324.651134
  0
LINE
  8
C
  6
CONTINUOUS
 62
     3
 10
233.522364
 20
324.651134
 11
233.541959
 21
324.605385
  0
LINE
  8
C
  6
CONTINUOUS
 62
     3
 10
233.541959
 20
324.605385
 11
233.561554
 21
324.559631
  0
LINE
  8
C
  6
CONTINUOUS
 62
     3
 10
233.561554
 20
324.559631
 11
233.581147
 21
324.520419
  0
LINE
  8
C
  6
CONTINUOUS
 62
     3
 10
233.581147
 20
324.520419
 11
233.600744
 21
324.474661
  0
LINE
  8
C
  6
CONTINUOUS
 62
     3
 10
233.600744
 20
324.474661
 11
233.620337
 21
324.428913
  0
LINE
  8
C
  6
CONTINUOUS
 62
     3
 10
233.620337
 20
324.428913
 11
233.639932
 21
324.370087
  0
LINE
  8
C
  6
CONTINUOUS
 62
     3
 10
233.639932
 20
324.370087
 11
233.659530
 21
324.317800
  0
LINE
  8
C
  6
CONTINUOUS
 62
     3
 10
233.659530
 20
324.317800
 11
233.679122
 21
324.272050
  0
LINE
  8
C
  6
CONTINUOUS
 62
     3
 10
233.679122
 20
324.272050
 11
233.698718
 21
324.219762
  0
LINE
  8
C
  6
CONTINUOUS
 62
     3
 10
233.698718
 20
324.219762
 11
233.718310
 21
324.180542
  0
LINE
  8
C
  6
CONTINUOUS
 62
     3
 10
233.718310
 20
324.180542
 11
233.737908
 21
324.128255
  0
LINE
  8
C
  6
CONTINUOUS
 62
     3
 10
233.737908
 20
324.128255
 11
233.757503
 21
324.082506
  0
LINE
  8
C
  6
CONTINUOUS
 62
     3
 10
233.757503
 20
324.082506
 11
233.770564
 21
324.030218
  0
LINE
  8
C
  6
CONTINUOUS
 62
     3
 10
233.770564
 20
324.030218
 11
233.783628
 21
323.964856
  0
LINE
  8
C
  6
CONTINUOUS
 62
     3
 10
233.783628
 20
323.964856
 11
233.796691
 21
323.906030
  0
LINE
  8
C
  6
CONTINUOUS
 62
     3
 10
233.796691
 20
323.906030
 11
233.809754
 21
323.860280
  0
LINE
  8
C
  6
CONTINUOUS
 62
     3
 10
233.809754
 20
323.860280
 11
233.816286
 21
323.807993
  0
LINE
  8
C
  6
CONTINUOUS
 62
     3
 10
233.816286
 20
323.807993
 11
233.829350
 21
323.768778
  0
LINE
  8
C
  6
CONTINUOUS
 62
     3
 10
233.829350
 20
323.768778
 11
233.835881
 21
323.716491
  0
LINE
  8
C
  6
CONTINUOUS
 62
     3
 10
233.835881
 20
323.716491
 11
233.848943
 21
323.670735
  0
LINE
  8
C
  6
CONTINUOUS
 62
     3
 10
233.848943
 20
323.670735
 11
233.855476
 21
323.618448
  0
LINE
  8
C
  6
CONTINUOUS
 62
     3
 10
233.855476
 20
323.618448
 11
233.862008
 21
323.566161
  0
LINE
  8
C
  6
CONTINUOUS
 62
     3
 10
233.862008
 20
323.566161
 11
233.868540
 21
323.526945
  0
LINE
  8
C
  6
CONTINUOUS
 62
     3
 10
233.868540
 20
323.526945
 11
233.875069
 21
323.474657
  0
LINE
  8
C
  6
CONTINUOUS
 62
     3
 10
233.875069
 20
323.474657
 11
233.881601
 21
323.422368
  0
LINE
  8
C
  6
CONTINUOUS
 62
     3
 10
233.881601
 20
323.422368
 11
233.888133
 21
323.370080
  0
LINE
  8
C
  6
CONTINUOUS
 62
     3
 10
233.888133
 20
323.370080
 11
233.888133
 21
323.317794
  0
LINE
  8
C
  6
CONTINUOUS
 62
     3
 10
233.888133
 20
323.317794
 11
233.888133
 21
323.278574
  0
LINE
  8
C
  6
CONTINUOUS
 62
     3
 10
233.888133
 20
323.278574
 11
233.894667
 21
323.232823
  0
LINE
  8
C
  6
CONTINUOUS
 62
     3
 10
233.894667
 20
323.232823
 11
233.901196
 21
323.200144
  0
LINE
  8
C
  6
CONTINUOUS
 62
     3
 10
233.901196
 20
323.200144
 11
233.901196
 21
323.167464
  0
LINE
  8
C
  6
CONTINUOUS
 62
     3
 10
233.901196
 20
323.167464
 11
233.907728
 21
323.134782
  0
LINE
  8
C
  6
CONTINUOUS
 62
     3
 10
233.907728
 20
323.134782
 11
233.914260
 21
323.108641
  0
LINE
  8
C
  6
CONTINUOUS
 62
     3
 10
233.914260
 20
323.108641
 11
233.920794
 21
323.089029
  0
LINE
  8
C
  6
CONTINUOUS
 62
     3
 10
233.920794
 20
323.089029
 11
233.927323
 21
323.069420
  0
LINE
  8
C
  6
CONTINUOUS
 62
     3
 10
233.927323
 20
323.069420
 11
233.933855
 21
323.056354
  0
LINE
  8
C
  6
CONTINUOUS
 62
     3
 10
233.933855
 20
323.056354
 11
233.940386
 21
323.043279
  0
LINE
  8
C
  6
CONTINUOUS
 62
     3
 10
233.940386
 20
323.043279
 11
233.940386
 21
323.023672
  0
LINE
  8
C
  6
CONTINUOUS
 62
     3
 10
233.940386
 20
323.023672
 11
233.946920
 21
323.010599
  0
LINE
  8
C
  6
CONTINUOUS
 62
     3
 10
233.946920
 20
323.010599
 11
233.953448
 21
322.997525
  0
LINE
  8
C
  6
CONTINUOUS
 62
     3
 10
233.953448
 20
322.997525
 11
233.953448
 21
322.984452
  0
LINE
  8
C
  6
CONTINUOUS
 62
     3
 10
233.953448
 20
322.984452
 11
233.959982
 21
322.964846
  0
LINE
  8
C
  6
CONTINUOUS
 62
     3
 10
233.959982
 20
322.964846
 11
233.966513
 21
322.951777
  0
LINE
  8
C
  6
CONTINUOUS
 62
     3
 10
233.966513
 20
322.951777
 11
233.973045
 21
322.938704
  0
LINE
  8
C
  6
CONTINUOUS
 62
     3
 10
233.973045
 20
322.938704
 11
233.979575
 21
322.919096
  0
LINE
  8
C
  6
CONTINUOUS
 62
     3
 10
233.979575
 20
322.919096
 11
233.986106
 21
322.906024
  0
LINE
  8
C
  6
CONTINUOUS
 62
     3
 10
233.986106
 20
322.906024
 11
233.992640
 21
322.892951
  0
LINE
  8
C
  6
CONTINUOUS
 62
     3
 10
233.992640
 20
322.892951
 11
234.005701
 21
322.879876
  0
LINE
  8
C
  6
CONTINUOUS
 62
     3
 10
234.005701
 20
322.879876
 11
234.012233
 21
322.866809
  0
LINE
  8
C
  6
CONTINUOUS
 62
     3
 10
234.012233
 20
322.866809
 11
234.025297
 21
322.853734
  0
LINE
  8
C
  6
CONTINUOUS
 62
     3
 10
234.025297
 20
322.853734
 11
234.038360
 21
322.840661
  0
LINE
  8
C
  6
CONTINUOUS
 62
     3
 10
234.038360
 20
322.840661
 11
234.044892
 21
322.827589
  0
LINE
  8
C
  6
CONTINUOUS
 62
     3
 10
234.044892
 20
322.827589
 11
234.057955
 21
322.807981
  0
LINE
  8
C
  6
CONTINUOUS
 62
     3
 10
234.057955
 20
322.807981
 11
234.071018
 21
322.781839
  0
LINE
  8
C
  6
CONTINUOUS
 62
     3
 10
234.071018
 20
322.781839
 11
234.084082
 21
322.762231
  0
LINE
  8
C
  6
CONTINUOUS
 62
     3
 10
234.084082
 20
322.762231
 11
234.097145
 21
322.749157
  0
LINE
  8
C
  6
CONTINUOUS
 62
     3
 10
234.097145
 20
322.749157
 11
234.110207
 21
322.736084
  0
LINE
  8
C
  6
CONTINUOUS
 62
     3
 10
234.110207
 20
322.736084
 11
234.116740
 21
322.723012
  0
LINE
  8
C
  6
CONTINUOUS
 62
     3
 10
234.116740
 20
322.723012
 11
234.123270
 21
322.709944
  0
LINE
  8
C
  6
CONTINUOUS
 62
     3
 10
234.123270
 20
322.709944
 11
234.129804
 21
322.696871
  0
LINE
  8
C
  6
CONTINUOUS
 62
     3
 10
234.129804
 20
322.696871
 11
234.136333
 21
322.683798
  0
LINE
  8
C
  6
CONTINUOUS
 62
     3
 10
234.136333
 20
322.683798
 11
234.142865
 21
322.670726
  0
LINE
  8
C
  6
CONTINUOUS
 62
     3
 10
234.142865
 20
322.670726
 11
234.149397
 21
322.657656
  0
LINE
  8
C
  6
CONTINUOUS
 62
     3
 10
234.149397
 20
322.657656
 11
234.155931
 21
322.644583
  0
LINE
  8
C
  6
CONTINUOUS
 62
     3
 10
234.155931
 20
322.644583
 11
234.162460
 21
322.631511
  0
LINE
  8
C
  6
CONTINUOUS
 62
     3
 10
234.162460
 20
322.631511
 11
234.168992
 21
322.618436
  0
LINE
  8
C
  6
CONTINUOUS
 62
     3
 10
234.168992
 20
322.618436
 11
234.182058
 21
322.598829
  0
LINE
  8
C
  6
CONTINUOUS
 62
     3
 10
234.182058
 20
322.598829
 11
234.195119
 21
322.579221
  0
LINE
  8
C
  6
CONTINUOUS
 62
     3
 10
234.195119
 20
322.579221
 11
234.208184
 21
322.566148
  0
LINE
  8
C
  6
CONTINUOUS
 62
     3
 10
234.208184
 20
322.566148
 11
234.214712
 21
322.553079
  0
LINE
  8
C
  6
CONTINUOUS
 62
     3
 10
234.214712
 20
322.553079
 11
234.227777
 21
322.540006
  0
LINE
  8
C
  6
CONTINUOUS
 62
     3
 10
234.227777
 20
322.540006
 11
234.227777
 21
322.526933
  0
LINE
  8
C
  6
CONTINUOUS
 62
     3
 10
234.227777
 20
322.526933
 11
234.227777
 21
322.513859
  0
LINE
  8
C
  6
CONTINUOUS
 62
     3
 10
234.227777
 20
322.513859
 11
234.227777
 21
322.500793
  0
LINE
  8
C
  6
CONTINUOUS
 62
     3
 10
234.227777
 20
322.500793
 11
234.227777
 21
322.481180
  0
LINE
  8
C
  6
CONTINUOUS
 62
     3
 10
234.227777
 20
322.481180
 11
234.227777
 21
322.468111
  0
LINE
  8
C
  6
CONTINUOUS
 62
     3
 10
234.227777
 20
322.468111
 11
234.227777
 21
322.455038
  0
LINE
  8
C
  6
CONTINUOUS
 62
     3
 10
234.227777
 20
322.455038
 11
234.234309
 21
322.441964
  0
LINE
  8
C
  6
CONTINUOUS
 62
     3
 10
234.234309
 20
322.441964
 11
234.240841
 21
322.428891
  0
LINE
  8
C
  6
CONTINUOUS
 62
     3
 10
234.240841
 20
322.428891
 11
234.240843
 21
322.422600
  0
ENDBLK
  8
0
  0
BLOCK
  8
C
  2
B-29
 70
    66
 10
0.000000
 20
0.000000
 30
0.000000
  0
LINE
  8
C
  6
CONTINUOUS
 62
     7
 10
165.704163
 20
342.722601
 11
165.704163
 21
331.193882
  0
LINE
  8
C
  6
CONTINUOUS
 62
     7
 10
165.704163
 20
304.422599
 11
165.704163
 21
301.922600
  0
LINE
  8
C
  6
CONTINUOUS
 62
     7
 10
165.704163
 20
301.922600
 11
290.704164
 21
301.922600
  0
LINE
  8
C
  6
CONTINUOUS
 62
     7
 10
290.704164
 20
301.922600
 11
290.704166
 21
303.522599
  0
LINE
  8
C
  6
CONTINUOUS
 62
     7
 10
290.704164
 20
342.722601
 11
165.704163
 21
342.722601
  0
LINE
  8
C
  6
CONTINUOUS
 62
     7
 10
165.704163
 20
303.522600
 11
290.704164
 21
303.522600
  0
LINE
  8
C
  6
CONTINUOUS
 62
     7
 10
167.304163
 20
303.522600
 11
167.304163
 21
304.422599
  0
LINE
  8
C
  6
CONTINUOUS
 62
     7
 10
269.304164
 20
301.922600
 11
269.304164
 21
303.522600
  0
LINE
  8
C
  6
CONTINUOUS
 62
     7
 10
259.304164
 20
301.922600
 11
259.304164
 21
303.522600
  0
LINE
  8
C
  6
CONTINUOUS
 62
     7
 10
197.104164
 20
301.922600
 11
197.104164
 21
303.522600
  0
LINE
  8
C
  6
CONTINUOUS
 62
     7
 10
187.104164
 20
301.922600
 11
187.104164
 21
303.522600
  0
ENDBLK
  8
0
  0
BLOCK
  8
DIMENSION
  2
*D1
 70
    65
 10
0.000000
 20
0.000000
 30
0.000000
  3
*D
  0
LINE
  8
DIMENSION
  6
BYBLOCK
 62
     3
 10
324.714162
 20
134.092287
 11
344.273682
 21
134.092287
  0
LINE
  8
DIMENSION
  6
BYBLOCK
 62
     3
 10
343.473682
 20
134.092287
 11
343.473682
 21
151.092287
  0
LINE
  8
DIMENSION
  6
BYBLOCK
 62
     3
 10
343.923682
 20
137.792287
 11
343.473682
 21
134.092287
  0
LINE
  8
DIMENSION
  6
BYBLOCK
 62
     3
 10
343.473682
 20
134.092287
 11
343.023682
 21
137.792287
  0
LINE
  8
DIMENSION
  6
BYBLOCK
 62
     3
 10
343.023682
 20
137.792287
 11
343.923682
 21
137.792287
  0
LINE
  8
DIMENSION
  6
BYBLOCK
 62
     3
 10
343.023682
 20
147.392287
 11
343.473682
 21
151.092287
  0
LINE
  8
DIMENSION
  6
BYBLOCK
 62
     3
 10
343.473682
 20
151.092287
 11
343.923682
 21
147.392287
  0
LINE
  8
DIMENSION
  6
BYBLOCK
 62
     3
 10
343.923682
 20
147.392287
 11
343.023682
 21
147.392287
  0
LINE
  8
DIMENSION
  6
BYBLOCK
 62
     3
 10
344.273682
 20
151.092287
 11
324.714162
 21
151.092287
  0
TEXT
  8
DIMENSION
 62
     4
 10
341.723682
 20
140.404787
 40
3.500000
  1
17
 50
90.000000
 41
0.932836
 51
0.000000
  7
STANDARD
 72
     5
 11
341.723682
 21
144.779787
 73
     0
  0
POINT
  8
DIMENSION
  6
BYBLOCK
 62
     9
 10
324.704162
 20
134.092287
  0
POINT
  8
DIMENSION
  6
BYBLOCK
 62
     9
 10
324.704162
 20
151.092287
  0
ENDBLK
  8
0
  0
BLOCK
  8
DIMENSION
  2
*D2
 70
    65
 10
0.000000
 20
0.000000
 30
0.000000
  3
*D
  0
LINE
  8
DIMENSION
  6
BYBLOCK
 62
     3
 10
85.694163
 20
131.592285
 11
67.100000
 21
131.592285
  0
LINE
  8
DIMENSION
  6
BYBLOCK
 62
     3
 10
67.900000
 20
131.592285
 11
67.900000
 21
153.592287
  0
LINE
  8
DIMENSION
  6
BYBLOCK
 62
     3
 10
68.350000
 20
135.292285
 11
67.900000
 21
131.592285
  0
LINE
  8
DIMENSION
  6
BYBLOCK
 62
     3
 10
67.900000
 20
131.592285
 11
67.450000
 21
135.292285
  0
LINE
  8
DIMENSION
  6
BYBLOCK
 62
     3
 10
67.450000
 20
135.292285
 11
68.350000
 21
135.292285
  0
LINE
  8
DIMENSION
  6
BYBLOCK
 62
     3
 10
67.450000
 20
149.892287
 11
67.900000
 21
153.592287
  0
LINE
  8
DIMENSION
  6
BYBLOCK
 62
     3
 10
67.900000
 20
153.592287
 11
68.350000
 21
149.892287
  0
LINE
  8
DIMENSION
  6
BYBLOCK
 62
     3
 10
68.350000
 20
149.892287
 11
67.450000
 21
149.892287
  0
LINE
  8
DIMENSION
  6
BYBLOCK
 62
     3
 10
67.100000
 20
153.592287
 11
85.694163
 21
153.592287
  0
TEXT
  8
DIMENSION
 62
     4
 10
66.150000
 20
140.404786
 40
3.500000
  1
22
 50
90.000000
 41
0.748503
 51
0.000000
  7
STANDARD
 72
     5
 11
66.150000
 21
144.779786
 73
     0
  0
POINT
  8
DIMENSION
  6
BYBLOCK
 62
     9
 10
85.704163
 20
131.592285
  0
POINT
  8
DIMENSION
  6
BYBLOCK
 62
     9
 10
85.704163
 20
153.592287
  0
ENDBLK
  8
0
  0
BLOCK
  8
DIMENSION
  2
*D3
 70
    65
 10
0.000000
 20
0.000000
 30
0.000000
  3
*D
  0
LINE
  8
DIMENSION
  6
BYBLOCK
 62
     3
 10
85.704163
 20
131.582286
 11
85.704163
 21
104.200000
  0
LINE
  8
DIMENSION
  6
BYBLOCK
 62
     3
 10
85.704163
 20
105.000000
 11
370.704163
 21
105.000000
  0
LINE
  8
DIMENSION
  6
BYBLOCK
 62
     3
 10
89.404163
 20
104.550000
 11
85.704163
 21
105.000000
  0
LINE
  8
DIMENSION
  6
BYBLOCK
 62
     3
 10
85.704163
 20
105.000000
 11
89.404163
 21
105.450000
  0
LINE
  8
DIMENSION
  6
BYBLOCK
 62
     3
 10
89.404163
 20
105.450000
 11
89.404163
 21
104.550000
  0
LINE
  8
DIMENSION
  6
BYBLOCK
 62
     3
 10
367.004163
 20
105.450000
 11
370.704163
 21
105.000000
  0
LINE
  8
DIMENSION
  6
BYBLOCK
 62
     3
 10
370.704163
 20
105.000000
 11
367.004163
 21
104.550000
  0
LINE
  8
DIMENSION
  6
BYBLOCK
 62
     3
 10
367.004163
 20
104.550000
 11
367.004163
 21
105.450000
  0
LINE
  8
DIMENSION
  6
BYBLOCK
 62
     3
 10
370.704163
 20
104.200000
 11
370.704163
 21
131.582286
  0
TEXT
  8
DIMENSION
 62
     4
 10
224.704163
 20
106.750000
 40
3.500000
  1
285
 50
0.000000
 41
0.749064
 51
0.000000
  7
STANDARD
 72
     5
 11
231.704163
 21
106.750000
 73
     0
  0
POINT
  8
DIMENSION
  6
BYBLOCK
 62
     9
 10
85.704163
 20
131.592286
  0
POINT
  8
DIMENSION
  6
BYBLOCK
 62
     9
 10
370.704163
 20
131.592286
  0
ENDBLK
  8
0
  0
BLOCK
  8
DIMENSION
  2
*D4
 70
    65
 10
0.000000
 20
0.000000
 30
0.000000
  3
*D
  0
LINE
  8
DIMENSION
  6
BYBLOCK
 62
     3
 10
95.704164
 20
135.832287
 11
95.704164
 21
114.200000
  0
LINE
  8
DIMENSION
  6
BYBLOCK
 62
     3
 10
95.704164
 20
115.000000
 11
360.704163
 21
115.000000
  0
LINE
  8
DIMENSION
  6
BYBLOCK
 62
     3
 10
99.404164
 20
114.550000
 11
95.704164
 21
115.000000
  0
LINE
  8
DIMENSION
  6
BYBLOCK
 62
     3
 10
95.704164
 20
115.000000
 11
99.404164
 21
115.450000
  0
LINE
  8
DIMENSION
  6
BYBLOCK
 62
     3
 10
99.404164
 20
115.450000
 11
99.404164
 21
114.550000
  0
LINE
  8
DIMENSION
  6
BYBLOCK
 62
     3
 10
357.004163
 20
115.450000
 11
360.704163
 21
115.000000
  0
LINE
  8
DIMENSION
  6
BYBLOCK
 62
     3
 10
360.704163
 20
115.000000
 11
357.004163
 21
114.550000
  0
LINE
  8
DIMENSION
  6
BYBLOCK
 62
     3
 10
357.004163
 20
114.550000
 11
357.004163
 21
115.450000
  0
LINE
  8
DIMENSION
  6
BYBLOCK
 62
     3
 10
360.704163
 20
114.200000
 11
360.704163
 21
135.832287
  0
TEXT
  8
DIMENSION
 62
     4
 10
224.704164
 20
116.750000
 40
3.500000
  1
265
 50
0.000000
 41
0.749064
 51
0.000000
  7
STANDARD
 72
     5
 11
231.704164
 21
116.750000
 73
     0
  0
POINT
  8
DIMENSION
  6
BYBLOCK
 62
     9
 10
95.704164
 20
135.842287
  0
POINT
  8
DIMENSION
  6
BYBLOCK
 62
     9
 10
360.704163
 20
135.842287
  0
ENDBLK
  8
0
  0
BLOCK
  8
C
  2
B-30
 70
    66
 10
0.000000
 20
0.000000
 30
0.000000
  0
LINE
  8
C
  6
BORDER
 62
     3
 10
78.862029
 20
142.592286
 11
336.586185
 21
142.592286
  0
LINE
  8
C
  6
BORDER
 62
     3
 10
345.254136
 20
142.592286
 11
377.202856
 21
142.592286
  0
LINE
  8
C
  6
CONTINUOUS
 62
     7
 10
131.704164
 20
151.092284
 11
148.704164
 21
151.092284
  0
LINE
  8
C
  6
CONTINUOUS
 62
     7
 10
131.704164
 20
134.092289
 11
148.704164
 21
134.092289
  0
LINE
  8
C
  6
CONTINUOUS
 62
     7
 10
307.704163
 20
151.092284
 11
324.704163
 21
151.092284
  0
LINE
  8
C
  6
CONTINUOUS
 62
     7
 10
307.704163
 20
134.092289
 11
324.704163
 21
134.092289
  0
ARC
  8
C
  6
CONTINUOUS
 62
     7
 10
131.704163
 20
142.592287
 40
8.500000
 50
89.999995
 51
270.000005
  0
ARC
  8
C
  6
CONTINUOUS
 62
     7
 10
148.704163
 20
142.592287
 40
8.500000
 50
19.590405
 51
89.999995
  0
ARC
  8
C
  6
CONTINUOUS
 62
     7
 10
148.704163
 20
142.592287
 40
8.500000
 50
270.000005
 51
340.409593
  0
ARC
  8
C
  6
CONTINUOUS
 62
     7
 10
307.704163
 20
142.592287
 40
8.500000
 50
199.590408
 51
269.999998
  0
ARC
  8
C
  6
CONTINUOUS
 62
     7
 10
307.704163
 20
142.592287
 40
8.500000
 50
90.000002
 51
160.409594
  0
ARC
  8
C
  6
CONTINUOUS
 62
     7
 10
324.704163
 20
142.592287
 40
8.500000
 50
269.999998
 51
90.000002
  0
LINE
  8
C
  6
CONTINUOUS
 62
     7
 10
156.712129
 20
139.742289
 11
299.696198
 21
139.742289
  0
LINE
  8
C
  6
CONTINUOUS
 62
     7
 10
156.712129
 20
145.442284
 11
299.696198
 21
145.442284
  0
LINE
  8
C
  6
BORDER
 62
     3
 10
131.704164
 20
128.592289
 11
131.704164
 21
156.592284
  0
LINE
  8
C
  6
BORDER
 62
     3
 10
148.704164
 20
128.592289
 11
148.704164
 21
156.592284
  0
LINE
  8
C
  6
BORDER
 62
     3
 10
307.704163
 20
128.592289
 11
307.704163
 21
156.592284
  0
LINE
  8
C
  6
BORDER
 62
     3
 10
324.704163
 20
128.592289
 11
324.704163
 21
156.592284
  0
LINE
  8
C
  6
CONTINUOUS
 62
     7
 10
85.704161
 20
153.592286
 11
370.704165
 21
153.592286
  0
LINE
  8
C
  6
CONTINUOUS
 62
     7
 10
370.704165
 20
131.592286
 11
85.704161
 21
131.592286
  0
LINE
  8
C
  6
CONTINUOUS
 62
     7
 10
370.704165
 20
131.592286
 11
370.704165
 21
153.592286
  0
LINE
  8
C
  6
CONTINUOUS
 62
     7
 10
85.704161
 20
131.592286
 11
85.704161
 21
153.592286
  0
CIRCLE
  8
C
  6
CONTINUOUS
 62
     7
 10
95.704163
 20
142.592286
 40
2.750000
  0
LINE
  8
C
  6
BORDER
 62
     3
 10
95.704163
 20
135.842287
 11
95.704163
 21
149.342285
  0
CIRCLE
  8
C
  6
CONTINUOUS
 62
     7
 10
360.704163
 20
142.592286
 40
2.750000
  0
LINE
  8
C
  6
BORDER
 62
     3
 10
360.704164
 20
135.842287
 11
360.704164
 21
149.342285
  0
CIRCLE
  8
C
  6
CONTINUOUS
 62
     7
 10
95.704163
 20
142.592286
 40
5.200000
  0
CIRCLE
  8
C
  6
CONTINUOUS
 62
     7
 10
360.704164
 20
142.592286
 40
5.200000
  0
ENDBLK
  8
0
  0
BLOCK
  8
C
  2
RAHMEN
 70
    66
 10
0.000000
 20
0.000000
 30
0.000000
  0
LINE
  8
C
  6
CONTINUOUS
 62
     3
 10
-0.100000
 20
0.000000
 11
-0.100000
 21
420.000000
  0
LINE
  8
C
  6
CONTINUOUS
 62
     3
 10
-0.100000
 20
420.000000
 11
593.900000
 21
420.000000
  0
LINE
  8
C
  6
CONTINUOUS
 62
     3
 10
593.900000
 20
420.000000
 11
593.900000
 21
0.000000
  0
LINE
  8
C
  6
CONTINUOUS
 62
     3
 10
593.900000
 20
0.000000
 11
-0.100000
 21
0.000000
  0
LINE
  8
C
  6
CONTINUOUS
 62
     7
 10
19.900000
 20
5.000000
 11
19.900000
 21
415.000000
  0
LINE
  8
C
  6
CONTINUOUS
 62
     7
 10
0.400003
 20
415.000000
 11
588.900000
 21
415.000000
  0
LINE
  8
C
  6
CONTINUOUS
 62
     7
 10
588.900000
 20
415.000000
 11
588.900000
 21
5.000000
  0
LINE
  8
C
  6
CONTINUOUS
 62
     7
 10
588.900000
 20
5.000000
 11
19.900000
 21
5.000000
  0
LINE
  8
C
  6
CONTINUOUS
 62
     3
 10
209.900000
 20
415.000000
 11
209.900000
 21
419.000000
  0
LINE
  8
C
  6
CONTINUOUS
 62
     3
 10
403.900000
 20
415.000000
 11
403.900000
 21
419.000000
  0
LINE
  8
C
  6
CONTINUOUS
 62
     3
 10
588.900000
 20
297.000000
 11
592.900000
 21
297.000000
  0
LINE
  8
C
  6
CONTINUOUS
 62
     3
 10
403.900000
 20
5.000000
 11
403.900000
 21
1.000000
  0
LINE
  8
C
  6
CONTINUOUS
 62
     3
 10
209.900000
 20
5.000000
 11
209.900000
 21
1.000000
  0
LINE
  8
C
  6
CONTINUOUS
 62
     3
 10
-0.100000
 20
148.500000
 11
9.100000
 21
148.500000
  0
LINE
  8
C
  6
CONTINUOUS
 62
     3
 10
19.900000
 20
297.000000
 11
15.100000
 21
297.000000
  0
TEXT
  8
TEXT
 62
     3
 10
3.379999
 20
5.209109
 40
2.000000
  1
Diese Unterlagen sind und bleiben ausschlie%%225liches Eigentum der Firma Carl Fuhr GmbH & Co.. Alle
 50
89.999999
 41
0.788699
 51
0.000000
  7
STANDARD
 72
     5
 11
3.380001
 21
139.209109
 73
     0
  0
TEXT
  8
TEXT
 62
     3
 10
7.139999
 20
5.209109
 40
2.000000
  1
Rechte an dem Inhalt dieser Unterlagen stehen ausschlie%%225lich der Firma Carl Fuhr GmbH & Co. zu. Die
 50
89.999999
 41
0.766670
 51
0.000000
  7
STANDARD
 72
     5
 11
7.140001
 21
143.409109
 73
     0
  0
TEXT
  8
TEXT
 62
     3
 10
10.899999
 20
5.209109
 40
2.000000
  1
Weitergabe dieser Unterlagen und/oder des Inhaltes dieser Unterlagen an Dritte ist untersagt. Eine
 50
89.999999
 41
0.760422
 51
0.000000
  7
STANDARD
 72
     5
 11
10.900001
 21
142.009109
 73
     0
  0
TEXT
  8
TEXT
 62
     3
 10
14.659999
 20
5.209109
 40
2.000000
  1
Benutzung dieser Unterlagen ist nur auf Grund einer ausdr%%129cklichen schriftlichen Gestattung seitens
 50
89.999999
 41
0.762609
 51
0.000000
  7
STANDARD
 72
     5
 11
14.660001
 21
143.409109
 73
     0
  0
TEXT
  8
TEXT
 62
     3
 10
18.419999
 20
5.209109
 40
2.000000
  1
der Firma Carl Fuhr GmbH & Co. erlaubt. Zuwiderhandlungen werden zivil- und strafrechtlich verfolgt.
 50
89.999999
 41
0.771612
 51
0.000000
  7
STANDARD
 72
     5
 11
18.420001
 21
144.809109
 73
     0
  0
ENDBLK
  8
0
  0
BLOCK
  8
DIMENSION
  2
*D5
 70
    65
 10
0.000000
 20
0.000000
 30
0.000000
  3
*D
  0
LINE
  8
DIMENSION
  6
BYBLOCK
 62
     3
 10
522.420932
 20
310.922617
 11
542.700000
 21
310.922617
  0
LINE
  8
DIMENSION
  6
BYBLOCK
 62
     3
 10
541.900000
 20
310.922617
 11
541.900000
 21
345.472588
  0
LINE
  8
DIMENSION
  6
BYBLOCK
 62
     3
 10
542.350000
 20
314.622617
 11
541.900000
 21
310.922617
  0
LINE
  8
DIMENSION
  6
BYBLOCK
 62
     3
 10
541.900000
 20
310.922617
 11
541.450000
 21
314.622617
  0
LINE
  8
DIMENSION
  6
BYBLOCK
 62
     3
 10
541.450000
 20
314.622617
 11
542.350000
 21
314.622617
  0
LINE
  8
DIMENSION
  6
BYBLOCK
 62
     3
 10
541.450000
 20
341.772588
 11
541.900000
 21
345.472588
  0
LINE
  8
DIMENSION
  6
BYBLOCK
 62
     3
 10
541.900000
 20
345.472588
 11
542.350000
 21
341.772588
  0
LINE
  8
DIMENSION
  6
BYBLOCK
 62
     3
 10
542.350000
 20
341.772588
 11
541.450000
 21
341.772588
  0
LINE
  8
DIMENSION
  6
BYBLOCK
 62
     3
 10
542.700000
 20
345.472588
 11
525.467081
 21
345.472588
  0
TEXT
  8
DIMENSION
 62
     4
 10
540.150000
 20
326.010102
 40
3.500000
  1
35
 50
90.000000
 41
0.748503
 51
0.000000
  7
STANDARD
 72
     5
 11
540.150000
 21
330.385102
 73
     0
  0
POINT
  8
DIMENSION
  6
BYBLOCK
 62
     9
 10
522.410932
 20
310.922617
  0
POINT
  8
DIMENSION
  6
BYBLOCK
 62
     9
 10
526.467081
 20
345.472588
  0
ENDBLK
  8
0
  0
BLOCK
  8
DIMENSION
  2
*D6
 70
    65
 10
0.000000
 20
0.000000
 30
0.000000
  3
*D
  0
LINE
  8
DIMENSION
  6
BYBLOCK
 62
     3
 10
521.227079
 20
301.922591
 11
552.700000
 21
301.922591
  0
LINE
  8
DIMENSION
  6
BYBLOCK
 62
     3
 10
551.900000
 20
301.922591
 11
551.900000
 21
345.472588
  0
LINE
  8
DIMENSION
  6
BYBLOCK
 62
     3
 10
552.350000
 20
305.622591
 11
551.900000
 21
301.922591
  0
LINE
  8
DIMENSION
  6
BYBLOCK
 62
     3
 10
551.900000
 20
301.922591
 11
551.450000
 21
305.622591
  0
LINE
  8
DIMENSION
  6
BYBLOCK
 62
     3
 10
551.450000
 20
305.622591
 11
552.350000
 21
305.622591
  0
LINE
  8
DIMENSION
  6
BYBLOCK
 62
     3
 10
551.450000
 20
341.772588
 11
551.900000
 21
345.472588
  0
LINE
  8
DIMENSION
  6
BYBLOCK
 62
     3
 10
551.900000
 20
345.472588
 11
552.350000
 21
341.772588
  0
LINE
  8
DIMENSION
  6
BYBLOCK
 62
     3
 10
552.350000
 20
341.772588
 11
551.450000
 21
341.772588
  0
LINE
  8
DIMENSION
  6
BYBLOCK
 62
     3
 10
552.700000
 20
345.472588
 11
525.467081
 21
345.472588
  0
TEXT
  8
DIMENSION
 62
     4
 10
550.150000
 20
321.510089
 40
3.500000
  1
43
 50
90.000000
 41
0.748503
 51
0.000000
  7
STANDARD
 72
     5
 11
550.150000
 21
325.885089
 73
     0
  0
POINT
  8
DIMENSION
  6
BYBLOCK
 62
     9
 10
521.217079
 20
301.922591
  0
POINT
  8
DIMENSION
  6
BYBLOCK
 62
     9
 10
526.467081
 20
345.472588
  0
ENDBLK
  8
0
  0
BLOCK
  8
DIMENSION
  2
*D7
 70
    65
 10
0.000000
 20
0.000000
 30
0.000000
  3
*D
  0
LINE
  8
DIMENSION
  6
BYBLOCK
 62
     3
 10
510.717082
 20
303.412587
 11
510.717082
 21
284.200000
  0
LINE
  8
DIMENSION
  6
BYBLOCK
 62
     3
 10
510.717082
 20
285.000000
 11
522.717079
 21
285.000000
  0
LINE
  8
DIMENSION
  6
BYBLOCK
 62
     3
 10
514.417082
 20
284.550000
 11
510.717082
 21
285.000000
  0
LINE
  8
DIMENSION
  6
BYBLOCK
 62
     3
 10
510.717082
 20
285.000000
 11
514.417082
 21
285.450000
  0
LINE
  8
DIMENSION
  6
BYBLOCK
 62
     3
 10
514.417082
 20
285.450000
 11
514.417082
 21
284.550000
  0
LINE
  8
DIMENSION
  6
BYBLOCK
 62
     3
 10
519.017079
 20
285.450000
 11
522.717079
 21
285.000000
  0
LINE
  8
DIMENSION
  6
BYBLOCK
 62
     3
 10
522.717079
 20
285.000000
 11
519.017079
 21
284.550000
  0
LINE
  8
DIMENSION
  6
BYBLOCK
 62
     3
 10
519.017079
 20
284.550000
 11
519.017079
 21
285.450000
  0
LINE
  8
DIMENSION
  6
BYBLOCK
 62
     3
 10
522.717079
 20
284.200000
 11
522.717079
 21
301.912591
  0
TEXT
  8
DIMENSION
 62
     4
 10
514.529580
 20
286.750000
 40
3.500000
  1
12
 50
0.000000
 41
0.932836
 51
0.000000
  7
STANDARD
 72
     5
 11
518.904580
 21
286.750000
 73
     0
  0
POINT
  8
DIMENSION
  6
BYBLOCK
 62
     9
 10
510.717082
 20
303.422587
  0
POINT
  8
DIMENSION
  6
BYBLOCK
 62
     9
 10
522.717079
 20
301.922591
  0
ENDBLK
  8
0
  0
BLOCK
  8
C
  2
S
 70
    66
 10
0.000000
 20
0.000000
 30
0.000000
  0
LINE
  8
C
  6
CONTINUOUS
 62
     7
 10
507.717081
 20
307.422621
 11
507.717081
 21
314.422618
  0
ARC
  8
C
  6
CONTINUOUS
 62
     7
 10
510.717079
 20
307.422619
 40
3.000000
 50
179.999960
 51
270.000031
  0
LINE
  8
C
  6
CONTINUOUS
 62
     7
 10
510.717081
 20
317.422618
 11
517.717078
 21
317.422618
  0
ARC
  8
C
  6
CONTINUOUS
 62
     7
 10
510.717079
 20
314.422619
 40
3.000000
 50
89.999969
 51
180.000018
  0
LINE
  8
C
  6
CONTINUOUS
 62
     7
 10
520.717078
 20
314.422618
 11
520.717078
 21
307.422621
  0
ARC
  8
C
  6
CONTINUOUS
 62
     7
 10
517.717079
 20
314.422619
 40
3.000000
 50
359.999982
 51
90.000026
  0
LINE
  8
C
  6
CONTINUOUS
 62
     7
 10
517.717078
 20
304.422621
 11
510.717081
 21
304.422621
  0
ARC
  8
C
  6
CONTINUOUS
 62
     7
 10
517.717079
 20
307.422619
 40
3.000000
 50
269.999974
 51
0.000040
  0
CIRCLE
  8
C
  6
CONTINUOUS
 62
     7
 10
514.217079
 20
310.922619
 40
4.000000
  0
ARC
  8
C
  6
CONTINUOUS
 62
     3
 10
514.217079
 20
310.922619
 40
5.000000
 50
260.000016
 51
170.000007
  0
LINE
  8
C
  6
BORDER
 62
     3
 10
508.217081
 20
310.922618
 11
520.217078
 21
310.922618
  0
LINE
  8
C
  6
BORDER
 62
     3
 10
514.217078
 20
316.922618
 11
514.217078
 21
304.922621
  0
LINE
  8
C
  6
BORDER
 62
     3
 10
508.217081
 20
310.922618
 11
505.778937
 21
310.922618
  0
LINE
  8
C
  6
BORDER
 62
     3
 10
514.217078
 20
304.922621
 11
514.217078
 21
302.256364
  0
LINE
  8
C
  6
BORDER
 62
     3
 10
520.217078
 20
310.922618
 11
522.410932
 21
310.922618
  0
LINE
  8
C
  6
BORDER
 62
     3
 10
514.217078
 20
316.922618
 11
514.217078
 21
318.983808
  0
LINE
  8
DIMENSION
  6
CONTINUOUS
 62
     3
 10
508.875660
 20
306.827171
 11
488.527178
 21
297.695223
  0
TEXT
  8
TEXT
 62
     4
 10
477.669696
 20
295.945223
 40
3.500000
  1
M 10
 50
0.000000
 41
0.867508
 51
0.000000
  7
STANDARD
 72
     5
 11
487.294696
 21
295.945223
 73
     0
  0
ENDBLK
  8
0
  0
BLOCK
  8
DIMENSION
  2
*D8
 70
    65
 10
0.000000
 20
0.000000
 30
0.000000
  3
*D
  0
LINE
  8
DIMENSION
  6
BYBLOCK
 62
     3
 10
503.467081
 20
345.482590
 11
503.467081
 21
360.800000
  0
LINE
  8
DIMENSION
  6
BYBLOCK
 62
     3
 10
503.467081
 20
360.000000
 11
514.467081
 21
360.000000
  0
LINE
  8
DIMENSION
  6
BYBLOCK
 62
     3
 10
507.167081
 20
359.550000
 11
503.467081
 21
360.000000
  0
LINE
  8
DIMENSION
  6
BYBLOCK
 62
     3
 10
503.467081
 20
360.000000
 11
507.167081
 21
360.450000
  0
LINE
  8
DIMENSION
  6
BYBLOCK
 62
     3
 10
507.167081
 20
360.450000
 11
507.167081
 21
359.550000
  0
LINE
  8
DIMENSION
  6
BYBLOCK
 62
     3
 10
510.767081
 20
360.450000
 11
514.467081
 21
360.000000
  0
LINE
  8
DIMENSION
  6
BYBLOCK
 62
     3
 10
514.467081
 20
360.000000
 11
510.767081
 21
359.550000
  0
LINE
  8
DIMENSION
  6
BYBLOCK
 62
     3
 10
510.767081
 20
359.550000
 11
510.767081
 21
360.450000
  0
LINE
  8
DIMENSION
  6
BYBLOCK
 62
     3
 10
514.467081
 20
360.800000
 11
514.467081
 21
347.482592
  0
TEXT
  8
DIMENSION
 62
     4
 10
508.092081
 20
361.137500
 40
3.500000
  1
=
 50
0.000000
 41
0.500583
 51
0.000000
  7
STANDARD
 72
     5
 11
509.842081
 21
361.137500
 73
     0
  0
POINT
  8
DIMENSION
  6
BYBLOCK
 62
     9
 10
503.467081
 20
345.472590
  0
POINT
  8
DIMENSION
  6
BYBLOCK
 62
     9
 10
514.467081
 20
347.472592
  0
ENDBLK
  8
0
  0
BLOCK
  8
DIMENSION
  2
*D9
 70
    65
 10
0.000000
 20
0.000000
 30
0.000000
  3
*D
  0
LINE
  8
DIMENSION
  6
BYBLOCK
 62
     3
 10
514.467081
 20
347.482592
 11
514.467081
 21
360.800000
  0
LINE
  8
DIMENSION
  6
BYBLOCK
 62
     3
 10
514.467081
 20
360.000000
 11
525.467081
 21
360.000000
  0
LINE
  8
DIMENSION
  6
BYBLOCK
 62
     3
 10
518.167081
 20
359.550000
 11
514.467081
 21
360.000000
  0
LINE
  8
DIMENSION
  6
BYBLOCK
 62
     3
 10
514.467081
 20
360.000000
 11
518.167081
 21
360.450000
  0
LINE
  8
DIMENSION
  6
BYBLOCK
 62
     3
 10
518.167081
 20
360.450000
 11
518.167081
 21
359.550000
  0
LINE
  8
DIMENSION
  6
BYBLOCK
 62
     3
 10
521.767081
 20
360.450000
 11
525.467081
 21
360.000000
  0
LINE
  8
DIMENSION
  6
BYBLOCK
 62
     3
 10
525.467081
 20
360.000000
 11
521.767081
 21
359.550000
  0
LINE
  8
DIMENSION
  6
BYBLOCK
 62
     3
 10
521.767081
 20
359.550000
 11
521.767081
 21
360.450000
  0
LINE
  8
DIMENSION
  6
BYBLOCK
 62
     3
 10
525.467081
 20
360.800000
 11
525.467081
 21
345.482589
  0
TEXT
  8
DIMENSION
 62
     4
 10
519.092081
 20
361.137500
 40
3.500000
  1
=
 50
0.000000
 41
0.500583
 51
0.000000
  7
STANDARD
 72
     5
 11
520.842081
 21
361.137500
 73
     0
  0
POINT
  8
DIMENSION
  6
BYBLOCK
 62
     9
 10
514.467081
 20
347.472592
  0
POINT
  8
DIMENSION
  6
BYBLOCK
 62
     9
 10
525.467081
 20
345.472589
  0
ENDBLK
  8
0
  0
BLOCK
  8
C
  2
B-32
 70
    66
 10
0.000000
 20
0.000000
 30
0.000000
  0
LINE
  8
C
  6
CONTINUOUS
 62
     7
 10
503.467081
 20
345.472591
 11
525.467081
 21
345.472590
  0
LINE
  8
C
  6
CONTINUOUS
 62
     7
 10
525.467081
 20
345.472590
 11
525.467081
 21
342.722588
  0
LINE
  8
C
  6
CONTINUOUS
 62
     7
 10
525.467081
 20
342.722587
 11
503.467081
 21
342.722589
  0
LINE
  8
C
  6
CONTINUOUS
 62
     7
 10
503.467081
 20
342.722589
 11
503.467081
 21
345.472591
  0
ENDBLK
  8
0
  0
ENDSEC
  0
SECTION
  2
ENTITIES
  0
DIMENSION
  8
DIMENSION
 62
     3
  2
*D0
  3
CAD400-DIM0
 10
122.204164
 20
270.000000
 30
0.000000
 11
228.204163
 21
273.500000
 31
0.000000
 70
   128
 13
122.204164
 23
329.222602
 33
0.000000
 14
334.204162
 24
329.222596
 34
0.000000
 50
0.000000
  0
TEXT
  8
DIMENSION
 62
     4
 10
230.741663
 20
274.248000
 40
1.700000
  1
 +1
 50
0.000000
 41
0.706892
 51
0.000000
  7
STANDARD
 72
     5
 11
233.541663
 21
274.248000
 73
     0
  0
TEXT
  8
DIMENSION
 62
     4
 10
230.741663
 20
271.052000
 40
1.700000
  1
 
 50
0.000000
 41
0.496799
 51
0.000000
  7
STANDARD
 72
     5
 11
231.441663
 21
271.052000
 73
     0
  0
DIMENSION
  8
DIMENSION
 62
     3
  2
*D1
  3
CAD400-DIM0
 10
343.473682
 20
134.092287
 30
0.000000
 11
339.973682
 21
142.592287
 31
0.000000
 70
   128
 13
324.704162
 23
134.092287
 33
0.000000
 14
324.704162
 24
151.092287
 34
0.000000
 50
90.000000
  0
DIMENSION
  8
DIMENSION
 62
     3
  2
*D2
  3
CAD400-DIM0
 10
67.900000
 20
131.592285
 30
0.000000
 11
64.400000
 21
142.592286
 31
0.000000
 70
   128
 13
85.704163
 23
131.592285
 33
0.000000
 14
85.704163
 24
153.592287
 34
0.000000
 50
90.000000
  0
DIMENSION
  8
DIMENSION
 62
     3
  2
*D3
  3
CAD400-DIM0
 10
85.704163
 20
105.000000
 30
0.000000
 11
228.204163
 21
108.500000
 31
0.000000
 70
   128
 13
85.704163
 23
131.592286
 33
0.000000
 14
370.704163
 24
131.592286
 34
0.000000
 50
0.000000
  0
DIMENSION
  8
DIMENSION
 62
     3
  2
*D4
  3
CAD400-DIM0
 10
95.704164
 20
115.000000
 30
0.000000
 11
228.204164
 21
118.500000
 31
0.000000
 70
   128
 13
95.704164
 23
135.842287
 33
0.000000
 14
360.704163
 24
135.842287
 34
0.000000
 50
0.000000
  0
DIMENSION
  8
DIMENSION
 62
     3
  2
*D5
  3
CAD400-DIM1
 10
541.900000
 20
310.922617
 30
0.000000
 11
538.400000
 21
328.197602
 31
0.000000
 70
   128
 13
522.410932
 23
310.922617
 33
0.000000
 14
526.467081
 24
345.472588
 34
0.000000
 50
90.000000
  0
DIMENSION
  8
DIMENSION
 62
     3
  2
*D6
  3
CAD400-DIM1
 10
551.900000
 20
301.922591
 30
0.000000
 11
548.400000
 21
323.697589
 31
0.000000
 70
   128
 13
521.217079
 23
301.922591
 33
0.000000
 14
526.467081
 24
345.472588
 34
0.000000
 50
90.000000
  0
DIMENSION
  8
DIMENSION
 62
     3
  2
*D7
  3
CAD400-DIM0
 10
510.717082
 20
285.000000
 30
0.000000
 11
516.717080
 21
288.500000
 31
0.000000
 70
   128
 13
510.717082
 23
303.422587
 33
0.000000
 14
522.717079
 24
301.922591
 34
0.000000
 50
0.000000
  0
DIMENSION
  8
DIMENSION
 62
     3
  2
*D8
  3
CAD400-DIM2
 10
503.467081
 20
360.000000
 30
0.000000
 11
508.967081
 21
362.887500
 31
0.000000
 70
   128
 13
503.467081
 23
345.472590
 33
0.000000
 14
514.467081
 24
347.472592
 34
0.000000
 50
0.000000
  0
DIMENSION
  8
DIMENSION
 62
     3
  2
*D9
  3
CAD400-DIM2
 10
514.467081
 20
360.000000
 30
0.000000
 11
519.967081
 21
362.887500
 31
0.000000
 70
   128
 13
514.467081
 23
347.472592
 33
0.000000
 14
525.467081
 24
345.472589
 34
0.000000
 50
0.000000
  0
INSERT
  8
C
  2
B
 10
0.000000
 20
0.000000
 30
0.000000
 41
1.000000
 42
1.000000
 43
1.000000
 50
0.000000
  0
INSERT
  8
C
  2
B-2
 10
0.000000
 20
0.000000
 30
0.000000
 41
1.000000
 42
1.000000
 43
1.000000
 50
0.000000
  0
INSERT
  8
C
  2
SCHRIFTF_
 10
0.000000
 20
0.000000
 30
0.000000
 41
1.000000
 42
1.000000
 43
1.000000
 50
0.000000
  0
INSERT
  8
C
  2
B-3
 10
0.000000
 20
0.000000
 30
0.000000
 41
1.000000
 42
1.000000
 43
1.000000
 50
0.000000
  0
INSERT
  8
C
  2
B-4
 10
0.000000
 20
0.000000
 30
0.000000
 41
1.000000
 42
1.000000
 43
1.000000
 50
0.000000
  0
INSERT
  8
C
  2
B-5
 10
0.000000
 20
0.000000
 30
0.000000
 41
1.000000
 42
1.000000
 43
1.000000
 50
0.000000
  0
INSERT
  8
C
  2
B-6
 10
0.000000
 20
0.000000
 30
0.000000
 41
1.000000
 42
1.000000
 43
1.000000
 50
0.000000
  0
INSERT
  8
C
  2
B-7
 10
0.000000
 20
0.000000
 30
0.000000
 41
1.000000
 42
1.000000
 43
1.000000
 50
0.000000
  0
INSERT
  8
C
  2
B-8
 10
0.000000
 20
0.000000
 30
0.000000
 41
1.000000
 42
1.000000
 43
1.000000
 50
0.000000
  0
INSERT
  8
C
  2
B-9
 10
0.000000
 20
0.000000
 30
0.000000
 41
1.000000
 42
1.000000
 43
1.000000
 50
0.000000
  0
INSERT
  8
C
  2
B-10
 10
0.000000
 20
0.000000
 30
0.000000
 41
1.000000
 42
1.000000
 43
1.000000
 50
0.000000
  0
INSERT
  8
C
  2
B-11
 10
0.000000
 20
0.000000
 30
0.000000
 41
1.000000
 42
1.000000
 43
1.000000
 50
0.000000
  0
INSERT
  8
C
  2
B-12
 10
0.000000
 20
0.000000
 30
0.000000
 41
1.000000
 42
1.000000
 43
1.000000
 50
0.000000
  0
INSERT
  8
C
  2
B-13
 10
0.000000
 20
0.000000
 30
0.000000
 41
1.000000
 42
1.000000
 43
1.000000
 50
0.000000
  0
INSERT
  8
C
  2
B-14
 10
0.000000
 20
0.000000
 30
0.000000
 41
1.000000
 42
1.000000
 43
1.000000
 50
0.000000
  0
INSERT
  8
C
  2
B-15
 10
0.000000
 20
0.000000
 30
0.000000
 41
1.000000
 42
1.000000
 43
1.000000
 50
0.000000
  0
INSERT
  8
C
  2
B-16
 10
0.000000
 20
0.000000
 30
0.000000
 41
1.000000
 42
1.000000
 43
1.000000
 50
0.000000
  0
INSERT
  8
C
  2
B-17
 10
0.000000
 20
0.000000
 30
0.000000
 41
1.000000
 42
1.000000
 43
1.000000
 50
0.000000
  0
INSERT
  8
C
  2
B-18
 10
0.000000
 20
0.000000
 30
0.000000
 41
1.000000
 42
1.000000
 43
1.000000
 50
0.000000
  0
INSERT
  8
C
  2
B-19
 10
0.000000
 20
0.000000
 30
0.000000
 41
1.000000
 42
1.000000
 43
1.000000
 50
0.000000
  0
INSERT
  8
C
  2
B-20
 10
0.000000
 20
0.000000
 30
0.000000
 41
1.000000
 42
1.000000
 43
1.000000
 50
0.000000
  0
INSERT
  8
C
  2
B-21
 10
0.000000
 20
0.000000
 30
0.000000
 41
1.000000
 42
1.000000
 43
1.000000
 50
0.000000
  0
INSERT
  8
C
  2
B-22
 10
0.000000
 20
0.000000
 30
0.000000
 41
1.000000
 42
1.000000
 43
1.000000
 50
0.000000
  0
INSERT
  8
C
  2
B-23
 10
0.000000
 20
0.000000
 30
0.000000
 41
1.000000
 42
1.000000
 43
1.000000
 50
0.000000
  0
INSERT
  8
C
  2
B-24
 10
0.000000
 20
0.000000
 30
0.000000
 41
1.000000
 42
1.000000
 43
1.000000
 50
0.000000
  0
INSERT
  8
C
  2
B-25
 10
0.000000
 20
0.000000
 30
0.000000
 41
1.000000
 42
1.000000
 43
1.000000
 50
0.000000
  0
INSERT
  8
C
  2
B-26
 10
0.000000
 20
0.000000
 30
0.000000
 41
1.000000
 42
1.000000
 43
1.000000
 50
0.000000
  0
INSERT
  8
C
  2
B-27
 10
0.000000
 20
0.000000
 30
0.000000
 41
1.000000
 42
1.000000
 43
1.000000
 50
0.000000
  0
INSERT
  8
C
  2
B-28
 10
0.000000
 20
0.000000
 30
0.000000
 41
1.000000
 42
1.000000
 43
1.000000
 50
0.000000
  0
INSERT
  8
C
  2
B-29
 10
0.000000
 20
0.000000
 30
0.000000
 41
1.000000
 42
1.000000
 43
1.000000
 50
0.000000
  0
INSERT
  8
C
  2
B-30
 10
0.000000
 20
0.000000
 30
0.000000
 41
1.000000
 42
1.000000
 43
1.000000
 50
0.000000
  0
INSERT
  8
C
  2
RAHMEN
 10
0.000000
 20
0.000000
 30
0.000000
 41
1.000000
 42
1.000000
 43
1.000000
 50
0.000000
  0
INSERT
  8
C
  2
S
 10
0.000000
 20
0.000000
 30
0.000000
 41
1.000000
 42
1.000000
 43
1.000000
 50
0.000000
  0
INSERT
  8
C
  2
B-32
 10
0.000000
 20
0.000000
 30
0.000000
 41
1.000000
 42
1.000000
 43
1.000000
 50
0.000000
  0
ENDSEC
  0
EOF
