  0
SECTION
  2
HEADER
  9
$ACADVER
  1
AC1014
  9
$ACADMAINTVER
 70
     9
  9
$DWGCODEPAGE
  3
ANSI_1252
  9
$INSBASE
 10
1568.964848376901
 20
566.8671648414036
 30
0.0
  9
$EXTMIN
 10
1381.076787523222
 20
279.6307864096052
 30
-0.0000000000000058
  9
$EXTMAX
 10
1974.843678238987
 20
699.2690168783142
 30
0.0000000000000104
  9
$LIMMIN
 10
0.0
 20
0.0
  9
$LIMMAX
 10
777.3233404732859
 20
472.5311867742869
  9
$ORTHOMODE
 70
     1
  9
$REGENMODE
 70
     1
  9
$FILLMODE
 70
     1
  9
$QTEXTMODE
 70
     0
  9
$MIRRTEXT
 70
     1
  9
$DRAGMODE
 70
     2
  9
$LTSCALE
 40
6.0
  9
$OSMODE
 70
  3071
  9
$ATTMODE
 70
     1
  9
$TEXTSIZE
 40
2.75
  9
$TRACEWID
 40
0.05
  9
$TEXTSTYLE
  7
STANDARD
  9
$CLAYER
  8
A
  9
$CELTYPE
  6
BYLAYER
  9
$CECOLOR
 62
   256
  9
$CELTSCALE
 40
1.0
  9
$DELOBJ
 70
     1
  9
$DISPSILH
 70
     1
  9
$DIMSCALE
 40
1.0
  9
$DIMASZ
 40
2.75
  9
$DIMEXO
 40
1.0
  9
$DIMDLI
 40
1.0
  9
$DIMRND
 40
0.0
  9
$DIMDLE
 40
0.0
  9
$DIMEXE
 40
1.0
  9
$DIMTP
 40
0.0
  9
$DIMTM
 40
0.0
  9
$DIMTXT
 40
2.75
  9
$DIMCEN
 40
1.0
  9
$DIMTSZ
 40
0.0
  9
$DIMTOL
 70
     0
  9
$DIMLIM
 70
     0
  9
$DIMTIH
 70
     0
  9
$DIMTOH
 70
     0
  9
$DIMSE1
 70
     0
  9
$DIMSE2
 70
     0
  9
$DIMTAD
 70
     1
  9
$DIMZIN
 70
     8
  9
$DIMBLK
  1

  9
$DIMASO
 70
     1
  9
$DIMSHO
 70
     1
  9
$DIMPOST
  1

  9
$DIMAPOST
  1

  9
$DIMALT
 70
     0
  9
$DIMALTD
 70
     2
  9
$DIMALTF
 40
25.4
  9
$DIMLFAC
 40
1.0
  9
$DIMTOFL
 70
     0
  9
$DIMTVP
 40
0.0
  9
$DIMTIX
 70
     0
  9
$DIMSOXD
 70
     0
  9
$DIMSAH
 70
     0
  9
$DIMBLK1
  1

  9
$DIMBLK2
  1

  9
$DIMSTYLE
  2
STANDARD
  9
$DIMCLRD
 70
     0
  9
$DIMCLRE
 70
     0
  9
$DIMCLRT
 70
     0
  9
$DIMTFAC
 40
0.7
  9
$DIMGAP
 40
1.0
  9
$DIMJUST
 70
     0
  9
$DIMSD1
 70
     0
  9
$DIMSD2
 70
     0
  9
$DIMTOLJ
 70
     1
  9
$DIMTZIN
 70
     8
  9
$DIMALTZ
 70
     0
  9
$DIMALTTZ
 70
     0
  9
$DIMFIT
 70
     3
  9
$DIMUPT
 70
     0
  9
$DIMUNIT
 70
     2
  9
$DIMDEC
 70
     3
  9
$DIMTDEC
 70
     2
  9
$DIMALTU
 70
     2
  9
$DIMALTTD
 70
     2
  9
$DIMTXSTY
  7
STANDARD
  9
$DIMAUNIT
 70
     0
  9
$LUNITS
 70
     2
  9
$LUPREC
 70
     3
  9
$SKETCHINC
 40
0.1
  9
$FILLETRAD
 40
0.5
  9
$AUNITS
 70
     0
  9
$AUPREC
 70
     0
  9
$MENU
  1
.
  9
$ELEVATION
 40
0.0
  9
$PELEVATION
 40
0.0
  9
$THICKNESS
 40
0.0
  9
$LIMCHECK
 70
     0
  9
$BLIPMODE
 70
     0
  9
$CHAMFERA
 40
0.5
  9
$CHAMFERB
 40
0.5
  9
$CHAMFERC
 40
1.0
  9
$CHAMFERD
 40
0.0
  9
$SKPOLY
 70
     1
  9
$TDCREATE
 40
2451344.599968981
  9
$TDUPDATE
 40
2452349.382420718
  9
$TDINDWG
 40
0.0473049653
  9
$TDUSRTIMER
 40
0.0473049653
  9
$USRTIMER
 70
     1
  9
$ANGBASE
 50
0.0
  9
$ANGDIR
 70
     0
  9
$PDMODE
 70
     0
  9
$PDSIZE
 40
0.0
  9
$PLINEWID
 40
0.0
  9
$COORDS
 70
     2
  9
$SPLFRAME
 70
     0
  9
$SPLINETYPE
 70
     6
  9
$SPLINESEGS
 70
     8
  9
$ATTDIA
 70
     0
  9
$ATTREQ
 70
     1
  9
$HANDLING
 70
  4097
  9
$HANDSEED
  5
1C4E
  9
$SURFTAB1
 70
     6
  9
$SURFTAB2
 70
     6
  9
$SURFTYPE
 70
     6
  9
$SURFU
 70
     6
  9
$SURFV
 70
     6
  9
$UCSNAME
  2

  9
$UCSORG
 10
0.0
 20
0.0
 30
0.0
  9
$UCSXDIR
 10
1.0
 20
0.0
 30
0.0
  9
$UCSYDIR
 10
0.0
 20
1.0
 30
0.0
  9
$PUCSNAME
  2

  9
$PUCSORG
 10
0.0
 20
0.0
 30
0.0
  9
$PUCSXDIR
 10
1.0
 20
0.0
 30
0.0
  9
$PUCSYDIR
 10
0.0
 20
1.0
 30
0.0
  9
$USERI1
 70
     0
  9
$USERI2
 70
     0
  9
$USERI3
 70
     0
  9
$USERI4
 70
     0
  9
$USERI5
 70
     0
  9
$USERR1
 40
0.0
  9
$USERR2
 40
0.0
  9
$USERR3
 40
0.0
  9
$USERR4
 40
0.0
  9
$USERR5
 40
0.0
  9
$WORLDVIEW
 70
     1
  9
$SHADEDGE
 70
     3
  9
$SHADEDIF
 70
    70
  9
$TILEMODE
 70
     1
  9
$MAXACTVP
 70
    48
  9
$PINSBASE
 10
0.0
 20
0.0
 30
0.0
  9
$PLIMCHECK
 70
     0
  9
$PEXTMIN
 10
1.000000000000000E+20
 20
1.000000000000000E+20
 30
1.000000000000000E+20
  9
$PEXTMAX
 10
-1.000000000000000E+20
 20
-1.000000000000000E+20
 30
-1.000000000000000E+20
  9
$PLIMMIN
 10
0.0
 20
0.0
  9
$PLIMMAX
 10
12.0
 20
9.0
  9
$UNITMODE
 70
     0
  9
$VISRETAIN
 70
     1
  9
$PLINEGEN
 70
     0
  9
$PSLTSCALE
 70
     1
  9
$TREEDEPTH
 70
  3020
  9
$PICKSTYLE
 70
     1
  9
$CMLSTYLE
  2
STANDARD
  9
$CMLJUST
 70
     0
  9
$CMLSCALE
 40
1.0
  9
$PROXYGRAPHICS
 70
     1
  9
$MEASUREMENT
 70
     0
  0
ENDSEC
  0
SECTION
  2
CLASSES
  0
CLASS
  1
LWPOLYLINE
  2
AcDbPolyline
  3
AutoCAD 2000
 90
        0
280
     0
281
     1
  0
CLASS
  1
DICTIONARYVAR
  2
AcDbDictionaryVar
  3
AutoCAD 2000
 90
        0
280
     0
281
     0
  0
CLASS
  1
HATCH
  2
AcDbHatch
  3
AutoCAD 2000
 90
        0
280
     0
281
     1
  0
CLASS
  1
ACDBDICTIONARYWDFLT
  2
AcDbDictionaryWithDefault
  3
AutoCAD 2000
 90
        0
280
     0
281
     0
  0
CLASS
  1
ACDBPLACEHOLDER
  2
AcDbPlaceHolder
  3
AutoCAD 2000
 90
        0
280
     0
281
     0
  0
CLASS
  1
LAYOUT
  2
AcDbLayout
  3
AutoCAD 2000
 90
        0
280
     0
281
     0
  0
CLASS
  1
LONG_TRANSACTION
  2
AcDbLongTransaction
  3
AutoCAD 2000
 90
        0
280
     0
281
     0
  0
CLASS
  1
LWPOLYLINE
  2
AcDbPolyline
  3
AutoCAD 2000
 90
        0
280
     0
281
     1
  0
CLASS
  1
HATCH
  2
AcDbHatch
  3
AutoCAD 2000
 90
        0
280
     0
281
     1
  0
CLASS
  1
XRECORD
  2
AcDbXrecord
  3
AutoCAD 2000
 90
        0
280
     0
281
     0
  0
CLASS
  1
LONG_TRANSACTION
  2
AcDbLongTransaction
  3
AutoCAD 2000
 90
        0
280
     0
281
     0
  0
CLASS
  1
LWPOLYLINE
  2
AcDbPolyline
  3
AutoCAD 2000
 90
        0
280
     0
281
     1
  0
CLASS
  1
HATCH
  2
AcDbHatch
  3
AutoCAD 2000
 90
        0
280
     0
281
     1
  0
CLASS
  1
XRECORD
  2
AcDbXrecord
  3
AutoCAD 2000
 90
        0
280
     0
281
     0
  0
ENDSEC
  0
SECTION
  2
TABLES
  0
TABLE
  2
VPORT
  5
12
330
0
100
AcDbSymbolTable
 70
     2
  0
VPORT
  5
1C2B
330
12
100
AcDbSymbolTableRecord
100
AcDbViewportTableRecord
  2
*ACTIVE
 70
     0
 10
0.0
 20
0.0
 11
1.0
 21
1.0
 12
1687.738659010371
 22
484.1380979756964
 13
0.0
 23
0.0
 14
0.5
 24
0.5
 15
10.0
 25
10.0
 16
0.0
 26
0.0
 36
1.0
 17
0.0
 27
0.0
 37
0.0
 40
442.0600811548728
 41
1.285895806861499
 42
50.0
 43
0.0
 44
0.0
 50
0.0
 51
0.0
 71
     0
 72
   100
 73
     1
 74
     1
 75
     0
 76
     0
 77
     0
 78
     0
  0
ENDTAB
  0
TABLE
  2
LTYPE
  5
D
330
0
100
AcDbSymbolTable
 70
     3
  0
LTYPE
  5
E
330
D
100
AcDbSymbolTableRecord
100
AcDbLinetypeTableRecord
  2
BYBLOCK
 70
     0
  3

 72
    65
 73
     0
 40
0.0
  0
LTYPE
  5
F
330
D
100
AcDbSymbolTableRecord
100
AcDbLinetypeTableRecord
  2
BYLAYER
 70
     0
  3

 72
    65
 73
     0
 40
0.0
  0
LTYPE
  5
5
330
D
100
AcDbSymbolTableRecord
100
AcDbLinetypeTableRecord
  2
CONTINUOUS
 70
     0
  3
Solid line
 72
    65
 73
     0
 40
0.0
  0
LTYPE
  5
67
330
D
100
AcDbSymbolTableRecord
100
AcDbLinetypeTableRecord
  2
HIDDEN
 70
     0
  3
Hidden __ __ __ __ __ __ __ __ __ __ __ __ __ _
 72
    65
 73
     2
 40
0.375
 49
0.25
 74
     0
 49
-0.125
 74
     0
  0
LTYPE
  5
10A3
330
D
100
AcDbSymbolTableRecord
100
AcDbLinetypeTableRecord
  2
CENTER
 70
     0
  3
____ _ ____ _ ____ _ ____ _ ____ _ ____ _ ____
 72
    65
 73
     4
 40
2.0
 49
1.25
 74
     0
 49
-0.25
 74
     0
 49
0.25
 74
     0
 49
-0.25
 74
     0
  0
ENDTAB
  0
TABLE
  2
LAYER
  5
A
330
0
100
AcDbSymbolTable
 70
    20
  0
LAYER
  5
4
330
A
100
AcDbSymbolTableRecord
100
AcDbLayerTableRecord
  2
0
 70
     0
 62
     1
  6
CONTINUOUS
  0
LAYER
  5
9D
330
A
100
AcDbSymbolTableRecord
100
AcDbLayerTableRecord
  2
M
 70
     0
 62
     4
  6
CONTINUOUS
  0
LAYER
  5
1B
330
A
100
AcDbSymbolTableRecord
100
AcDbLayerTableRecord
  2
A
 70
     0
 62
     3
  6
CONTINUOUS
  0
LAYER
  5
A6
330
A
100
AcDbSymbolTableRecord
100
AcDbLayerTableRecord
  2
DEFPOINTS
 70
     0
 62
     7
  6
CONTINUOUS
  0
LAYER
  5
10A
330
A
100
AcDbSymbolTableRecord
100
AcDbLayerTableRecord
  2
GAAS
 70
     0
 62
     6
  6
HIDDEN
  0
LAYER
  5
10A4
330
A
100
AcDbSymbolTableRecord
100
AcDbLayerTableRecord
  2
KADER
 70
     0
 62
     1
  6
CONTINUOUS
  0
LAYER
  5
10A5
330
A
100
AcDbSymbolTableRecord
100
AcDbLayerTableRecord
  2
KADER_TITTELHOEK
 70
     0
 62
     1
  6
CONTINUOUS
  0
LAYER
  5
10A6
330
A
100
AcDbSymbolTableRecord
100
AcDbLayerTableRecord
  2
KADER_VERDELING
 70
     0
 62
     4
  6
CONTINUOUS
  0
LAYER
  5
10A7
330
A
100
AcDbSymbolTableRecord
100
AcDbLayerTableRecord
  2
KADER_COPYVERBOD
 70
     0
 62
   160
  6
CONTINUOUS
  0
LAYER
  5
10A8
330
A
100
AcDbSymbolTableRecord
100
AcDbLayerTableRecord
  2
KADER_ONTWERP
 70
     0
 62
  -254
  6
CONTINUOUS
  0
LAYER
  5
10A9
330
A
100
AcDbSymbolTableRecord
100
AcDbLayerTableRecord
  2
KADER_TER_GOEDKEURING
 70
     0
 62
  -254
  6
CONTINUOUS
  0
LAYER
  5
11B3
330
A
100
AcDbSymbolTableRecord
100
AcDbLayerTableRecord
  2
NEDERLANDS
 70
     0
 62
     7
  6
CONTINUOUS
  0
LAYER
  5
11B4
330
A
100
AcDbSymbolTableRecord
100
AcDbLayerTableRecord
  2
FRANS
 70
     0
 62
    -7
  6
CONTINUOUS
  0
LAYER
  5
11B5
330
A
100
AcDbSymbolTableRecord
100
AcDbLayerTableRecord
  2
ENGELS
 70
     0
 62
    -7
  6
CONTINUOUS
  0
LAYER
  5
11B6
330
A
100
AcDbSymbolTableRecord
100
AcDbLayerTableRecord
  2
DUITS
 70
     0
 62
    -7
  6
CONTINUOUS
  0
LAYER
  5
11B7
330
A
100
AcDbSymbolTableRecord
100
AcDbLayerTableRecord
  2
TEKST
 70
     0
 62
     7
  6
CONTINUOUS
  0
LAYER
  5
185B
330
A
100
AcDbSymbolTableRecord
100
AcDbLayerTableRecord
  2
T_NEDERLANDS
 70
     0
 62
    -7
  6
CONTINUOUS
  0
LAYER
  5
185C
330
A
100
AcDbSymbolTableRecord
100
AcDbLayerTableRecord
  2
T_FRANS
 70
     0
 62
     7
  6
CONTINUOUS
  0
LAYER
  5
185D
330
A
100
AcDbSymbolTableRecord
100
AcDbLayerTableRecord
  2
T_ENGELS
 70
     0
 62
    -7
  6
CONTINUOUS
  0
LAYER
  5
185E
330
A
100
AcDbSymbolTableRecord
100
AcDbLayerTableRecord
  2
T_DUITS
 70
     0
 62
    -7
  6
CONTINUOUS
  0
ENDTAB
  0
TABLE
  2
STYLE
  5
B
330
0
100
AcDbSymbolTable
 70
     2
  0
STYLE
  5
C
330
B
100
AcDbSymbolTableRecord
100
AcDbTextStyleTableRecord
  2
STANDARD
 70
     0
 40
0.0
 41
1.0
 50
0.0
 71
     0
 42
2.75
  3
SIMPLEX.SHX
  4

  0
STYLE
  5
10AA
330
B
100
AcDbSymbolTableRecord
100
AcDbTextStyleTableRecord
  2
ISOCP
 70
     0
 40
0.0
 41
1.0
 50
0.0
 71
     0
 42
2.5
  3
isocp
  4

  0
ENDTAB
  0
TABLE
  2
VIEW
  5
10
330
0
100
AcDbSymbolTable
 70
     0
  0
ENDTAB
  0
TABLE
  2
UCS
  5
11
330
0
100
AcDbSymbolTable
 70
     0
  0
ENDTAB
  0
TABLE
  2
APPID
  5
14
330
0
100
AcDbSymbolTable
 70
     1
  0
APPID
  5
15
330
14
100
AcDbSymbolTableRecord
100
AcDbRegAppTableRecord
  2
ACAD
 70
     0
  0
ENDTAB
  0
TABLE
  2
DIMSTYLE
  5
16
330
0
100
AcDbSymbolTable
 70
     1
  0
DIMSTYLE
105
1D
102
{ACAD_REACTORS
330
162
330
20C
330
17D
330
21D
330
1FD
330
139
330
16F
330
12C
330
153
330
1D1
330
1C3
330
1F0
330
1E3
330
22F
330
11A
330
10D
330
39F
330
3A0
330
39C
330
394
330
397
330
3A8
330
3AB
330
3B0
330
AB
330
E9
330
F6
330
C0
330
CE
330
9C
330
DB
330
146
102
}
330
16
100
AcDbSymbolTableRecord
100
AcDbDimStyleTableRecord
  2
STANDARD
 70
     0
  3

  4

  5

  6

  7

 40
1.0
 41
2.75
 42
1.0
 43
1.0
 44
1.0
 45
0.0
 46
0.0
 47
0.0
 48
0.0
140
2.75
141
1.0
142
0.0
143
25.4
144
1.0
145
0.0
146
0.7
147
1.0
 71
     0
 72
     0
 73
     0
 74
     0
 75
     0
 76
     0
 77
     1
 78
     8
170
     0
171
     2
172
     0
173
     0
174
     0
175
     0
176
     0
177
     0
178
     0
270
     2
271
     3
272
     2
273
     2
274
     2
340
C
275
     0
280
     0
281
     0
282
     0
283
     1
284
     8
285
     0
286
     0
287
     3
288
     0
  0
ENDTAB
  0
TABLE
  2
BLOCK_RECORD
  5
1
330
0
100
AcDbSymbolTable
 70
    46
  0
BLOCK_RECORD
  5
2
102
{ACAD_XDICTIONARY
360
1C1E
102
}
330
1
100
AcDbSymbolTableRecord
100
AcDbBlockTableRecord
  2
*MODEL_SPACE
  0
BLOCK_RECORD
  5
7
102
{ACAD_XDICTIONARY
360
1C20
102
}
330
1
100
AcDbSymbolTableRecord
100
AcDbBlockTableRecord
  2
*PAPER_SPACE
  0
BLOCK_RECORD
  5
98
330
1
100
AcDbSymbolTableRecord
100
AcDbBlockTableRecord
  2
P-4061
  0
BLOCK_RECORD
  5
6E
330
1
100
AcDbSymbolTableRecord
100
AcDbBlockTableRecord
  2
P-2012
  0
BLOCK_RECORD
  5
68
330
1
100
AcDbSymbolTableRecord
100
AcDbBlockTableRecord
  2
P-2045
  0
BLOCK_RECORD
  5
BB
330
1
100
AcDbSymbolTableRecord
100
AcDbBlockTableRecord
  2
P-7021
  0
BLOCK_RECORD
  5
20
330
1
100
AcDbSymbolTableRecord
100
AcDbBlockTableRecord
  2
P-2015
  0
BLOCK_RECORD
  5
193
330
1
100
AcDbSymbolTableRecord
100
AcDbBlockTableRecord
  2
P-2016
  0
BLOCK_RECORD
  5
361
330
1
100
AcDbSymbolTableRecord
100
AcDbBlockTableRecord
  2
P-7030
  0
BLOCK_RECORD
  5
3B4
330
1
100
AcDbSymbolTableRecord
100
AcDbBlockTableRecord
  2
*D7
  0
BLOCK_RECORD
  5
3C0
330
1
100
AcDbSymbolTableRecord
100
AcDbBlockTableRecord
  2
*D8
  0
BLOCK_RECORD
  5
3CC
330
1
100
AcDbSymbolTableRecord
100
AcDbBlockTableRecord
  2
*D9
  0
BLOCK_RECORD
  5
3D8
330
1
100
AcDbSymbolTableRecord
100
AcDbBlockTableRecord
  2
*D10
  0
BLOCK_RECORD
  5
3E5
330
1
100
AcDbSymbolTableRecord
100
AcDbBlockTableRecord
  2
*D11
  0
BLOCK_RECORD
  5
3F1
330
1
100
AcDbSymbolTableRecord
100
AcDbBlockTableRecord
  2
*D12
  0
BLOCK_RECORD
  5
3FD
330
1
100
AcDbSymbolTableRecord
100
AcDbBlockTableRecord
  2
*D13
  0
BLOCK_RECORD
  5
409
330
1
100
AcDbSymbolTableRecord
100
AcDbBlockTableRecord
  2
*D14
  0
BLOCK_RECORD
  5
ABA
330
1
100
AcDbSymbolTableRecord
100
AcDbBlockTableRecord
  2
*D15
  0
BLOCK_RECORD
  5
AD1
330
1
100
AcDbSymbolTableRecord
100
AcDbBlockTableRecord
  2
*D16
  0
BLOCK_RECORD
  5
ADD
330
1
100
AcDbSymbolTableRecord
100
AcDbBlockTableRecord
  2
*D17
  0
BLOCK_RECORD
  5
AE9
330
1
100
AcDbSymbolTableRecord
100
AcDbBlockTableRecord
  2
*D18
  0
BLOCK_RECORD
  5
AF5
330
1
100
AcDbSymbolTableRecord
100
AcDbBlockTableRecord
  2
*D19
  0
BLOCK_RECORD
  5
B02
330
1
100
AcDbSymbolTableRecord
100
AcDbBlockTableRecord
  2
*D20
  0
BLOCK_RECORD
  5
B0E
330
1
100
AcDbSymbolTableRecord
100
AcDbBlockTableRecord
  2
*D21
  0
BLOCK_RECORD
  5
B1A
330
1
100
AcDbSymbolTableRecord
100
AcDbBlockTableRecord
  2
*D22
  0
BLOCK_RECORD
  5
B26
330
1
100
AcDbSymbolTableRecord
100
AcDbBlockTableRecord
  2
*D23
  0
BLOCK_RECORD
  5
B32
330
1
100
AcDbSymbolTableRecord
100
AcDbBlockTableRecord
  2
*D24
  0
BLOCK_RECORD
  5
B3E
330
1
100
AcDbSymbolTableRecord
100
AcDbBlockTableRecord
  2
*D25
  0
BLOCK_RECORD
  5
B4A
330
1
100
AcDbSymbolTableRecord
100
AcDbBlockTableRecord
  2
*D26
  0
BLOCK_RECORD
  5
B56
330
1
100
AcDbSymbolTableRecord
100
AcDbBlockTableRecord
  2
*D27
  0
BLOCK_RECORD
  5
B62
330
1
100
AcDbSymbolTableRecord
100
AcDbBlockTableRecord
  2
*D28
  0
BLOCK_RECORD
  5
B6F
330
1
100
AcDbSymbolTableRecord
100
AcDbBlockTableRecord
  2
*D29
  0
BLOCK_RECORD
  5
B7B
330
1
100
AcDbSymbolTableRecord
100
AcDbBlockTableRecord
  2
*D30
  0
BLOCK_RECORD
  5
B87
330
1
100
AcDbSymbolTableRecord
100
AcDbBlockTableRecord
  2
*D31
  0
BLOCK_RECORD
  5
B93
330
1
100
AcDbSymbolTableRecord
100
AcDbBlockTableRecord
  2
*D32
  0
BLOCK_RECORD
  5
BA0
330
1
100
AcDbSymbolTableRecord
100
AcDbBlockTableRecord
  2
*D33
  0
BLOCK_RECORD
  5
BAC
330
1
100
AcDbSymbolTableRecord
100
AcDbBlockTableRecord
  2
*D34
  0
BLOCK_RECORD
  5
BB8
330
1
100
AcDbSymbolTableRecord
100
AcDbBlockTableRecord
  2
*D35
  0
BLOCK_RECORD
  5
BC4
330
1
100
AcDbSymbolTableRecord
100
AcDbBlockTableRecord
  2
*D36
  0
BLOCK_RECORD
  5
BD0
330
1
100
AcDbSymbolTableRecord
100
AcDbBlockTableRecord
  2
*D37
  0
BLOCK_RECORD
  5
BDC
330
1
100
AcDbSymbolTableRecord
100
AcDbBlockTableRecord
  2
*D38
  0
BLOCK_RECORD
  5
10AB
330
1
100
AcDbSymbolTableRecord
100
AcDbBlockTableRecord
  2
ISO_A4
  0
BLOCK_RECORD
  5
1182
330
1
100
AcDbSymbolTableRecord
100
AcDbBlockTableRecord
  2
TITELHOEK
  0
BLOCK_RECORD
  5
118B
330
1
100
AcDbSymbolTableRecord
100
AcDbBlockTableRecord
  2
FRANS
  0
BLOCK_RECORD
  5
1195
330
1
100
AcDbSymbolTableRecord
100
AcDbBlockTableRecord
  2
NEDERLANDS
  0
BLOCK_RECORD
  5
119F
330
1
100
AcDbSymbolTableRecord
100
AcDbBlockTableRecord
  2
ENGELS
  0
BLOCK_RECORD
  5
11A9
330
1
100
AcDbSymbolTableRecord
100
AcDbBlockTableRecord
  2
DUITS
  0
BLOCK_RECORD
  5
11B8
330
1
100
AcDbSymbolTableRecord
100
AcDbBlockTableRecord
  2
ISO_A4HOR
  0
ENDTAB
  0
ENDSEC
  0
SECTION
  2
BLOCKS
  0
BLOCK
  5
3
330
2
100
AcDbEntity
  8
0
100
AcDbBlockBegin
  2
*MODEL_SPACE
 70
     0
 10
0.0
 20
0.0
 30
0.0
  3
*MODEL_SPACE
  1

  0
ENDBLK
  5
6
330
2
100
AcDbEntity
  8
0
100
AcDbBlockEnd
  0
BLOCK
  5
8
330
7
100
AcDbEntity
 67
     1
  8
0
100
AcDbBlockBegin
  2
*PAPER_SPACE
 70
     0
 10
0.0
 20
0.0
 30
0.0
  3
*PAPER_SPACE
  1

  0
ENDBLK
  5
9
330
7
100
AcDbEntity
 67
     1
  8
0
100
AcDbBlockEnd
  0
BLOCK
  5
9A
330
98
100
AcDbEntity
  8
0
100
AcDbBlockBegin
  2
P-4061
 70
     0
 10
0.0
 20
0.0
 30
0.0
  3
P-4061
  1

  0
LWPOLYLINE
  5
99
330
98
100
AcDbEntity
  8
0
100
AcDbPolyline
 90
      158
 70
     1
 43
0.0
 10
-3.000000000000113
 20
-124.9900000000001
 10
-2.500000000000113
 20
-124.4900000000001
 10
-3.000000000000113
 20
-123.99
 10
-3.000000000000113
 20
-119.0673502691896
 10
-2.000000000000113
 20
-118.49
 10
-2.0
 20
-111.9900000000001
 10
-1.500000000000113
 20
-111.4900000000001
 10
-2.0
 20
-110.9900000000001
 10
-2.000000000000113
 20
-105.066794919243
 10
-1.850000000000136
 20
-104.9801923788645
 10
-1.850000000000022
 20
-104.5766025403784
 42
0.5773502691896536
 10
-2.15000000000009
 20
-104.4033974596214
 10
-2.499519052838422
 20
-104.6051923788647
 10
-2.499519052838309
 20
-104.7783974596216
 10
-4.999999999999545
 20
-106.2220508075689
 10
-4.999999999999545
 20
-104.49
 10
-4.275670738434769
 20
-104.0718083058536
 42
0.668178637919313
 10
-4.348025024903904
 20
-103.5222229368315
 10
-20.00881904510265
 20
-99.32592582628911
 42
-0.3394542588633786
 10
-20.75000000000011
 20
-98.36000000000002
 10
-20.75
 20
-97.38376079018918
 42
-0.2679493850789296
 10
-20.50000000000011
 20
-96.95074772881127
 10
-19.20000000000004
 20
-96.2001923788647
 42
-0.5773502691896281
 10
-18.75000000000011
 20
-96.46000000000004
 10
-18.75000000000011
 20
-98.11031110222621
 10
-4.258819045102541
 20
-101.9932113364641
 42
0.4931454260313047
 10
-3.000000000000113
 20
-101.027285510175
 10
-3.000000000000113
 20
-91.66000000000009
 10
-2.500000000000113
 20
-91.16000000000008
 10
-3.000000000000113
 20
-90.66000000000007
 10
-3.000000000000113
 20
-85.73735026918972
 10
-2.000000000000113
 20
-85.16000000000008
 10
-2.0
 20
-78.66000000000008
 10
-1.500000000000113
 20
-78.16000000000008
 10
-2.0
 20
-77.66000000000019
 10
-2.000000000000113
 20
-71.73679491924303
 10
-1.850000000000136
 20
-71.65019237886451
 10
-1.850000000000136
 20
-71.24660254037838
 42
0.5773502691896536
 10
-2.15000000000009
 20
-71.07339745962145
 10
-2.499519052838422
 20
-71.27519237886474
 10
-2.499519052838422
 20
-71.44839745962156
 10
-4.999999999999545
 20
-72.89205080756892
 10
-4.999999999999545
 20
-71.15999999999996
 10
-4.275670738434769
 20
-70.74180830585362
 42
0.668178637919313
 10
-4.348025024903904
 20
-70.19222293683151
 10
-20.00881904510265
 20
-65.99592582628907
 42
-0.3394542588633786
 10
-20.75000000000011
 20
-65.02999999999997
 10
-20.75
 20
-64.05376079018913
 42
-0.2679493850789296
 10
-20.50000000000011
 20
-63.62074772881124
 10
-19.20000000000004
 20
-62.87019237886465
 42
-0.5773502691896281
 10
-18.75000000000011
 20
-63.12999999999999
 10
-18.75000000000011
 20
-64.78031110222616
 10
-4.258819045102654
 20
-68.66321133646408
 42
0.4931454260313047
 10
-3.000000000000113
 20
-67.69728551017499
 10
-3.000000000000113
 20
-58.33000000000016
 10
-2.500000000000113
 20
-57.83000000000004
 10
-3.000000000000113
 20
-57.33000000000004
 10
-3.000000000000113
 20
-52.40735026918969
 10
-2.000000000000113
 20
-51.83000000000004
 10
-2.0
 20
-45.33000000000003
 10
-1.500000000000113
 20
-44.83000000000004
 10
-2.0
 20
-44.33000000000015
 10
-2.000000000000113
 20
-38.40679491924311
 10
-1.850000000000136
 20
-38.32019237886459
 10
-1.850000000000136
 20
-37.91660254037845
 42
0.5773502691896536
 10
-2.15000000000009
 20
-37.74339745962151
 10
-2.499519052838422
 20
-37.94519237886481
 10
-2.499519052838422
 20
-38.11839745962163
 10
-4.999999999999545
 20
-39.56205080756899
 10
-4.999999999999545
 20
-37.83000000000004
 10
-4.275670738434769
 20
-37.41180830585369
 42
0.668178637919313
 10
-4.348025024903904
 20
-36.86222293683158
 10
-20.00881904510265
 20
-32.66592582628914
 42
-0.3394542588633786
 10
-20.75000000000011
 20
-31.70000000000004
 10
-20.75
 20
-30.7237607901892
 42
-0.2679493850789296
 10
-20.50000000000011
 20
-30.29074772881131
 10
-19.20000000000004
 20
-29.54019237886473
 42
-0.5773502691896281
 10
-18.75000000000011
 20
-29.80000000000007
 10
-18.75000000000011
 20
-31.45031110222623
 10
-4.258819045102654
 20
-35.33321133646416
 42
0.4931454260313047
 10
-3.000000000000113
 20
-34.36728551017506
 10
-3.000000000000113
 20
-25.00000000000011
 10
-2.500000000000113
 20
-24.50000000000011
 10
-3.000000000000113
 20
-24.00000000000011
 10
-3.000000000000113
 20
-19.07735026918965
 10
-2.000000000000113
 20
-18.5
 10
-2.0
 20
-12.00000000000011
 10
-1.500000000000113
 20
-11.50000000000011
 10
-2.0
 20
-11.00000000000011
 10
-2.000000000000113
 20
-4.500000000000113
 10
-5.0
 20
-6.232050807568953
 10
-5.0
 20
-4.500000000000113
 10
-4.000000000000113
 20
-3.922649730810462
 10
-4.0
 20
-2.800000000000181
 10
-2.000000000000113
 20
-2.800000000000068
 10
-2.000000000000113
 20
-0.0000000000001137
 10
0.0
 20
0.0
 10
0.0
 20
-18.0
 10
-0.5000000000001137
 20
-18.50000000000011
 10
-0.0000000000001137
 20
-19.00000000000011
 10
0.0
 20
-51.32999999999992
 10
-0.5000000000001137
 20
-51.83000000000004
 10
-0.0000000000001137
 20
-52.33000000000015
 10
-0.0000000000001137
 20
-84.65999999999997
 10
-0.5000000000001137
 20
-85.16000000000008
 10
-0.0000000000001137
 20
-85.66000000000007
 10
-0.0000000000001137
 20
-117.99
 10
-0.5000000000001137
 20
-118.49
 10
-0.0000000000001137
 20
-118.9900000000002
 10
-0.0000000000001137
 20
-151.3200000000001
 10
-0.5000000000001137
 20
-151.8200000000001
 10
-0.0000000000001137
 20
-152.3200000000002
 10
0.0000000000037517
 20
-166.6500000000002
 10
-2.100000000000022
 20
-166.6500000000002
 10
-2.100000000000022
 20
-169.4500000000002
 10
-6.949065730039023
 20
-169.4500000000002
 42
-0.06554346281524
 10
-7.207884775141678
 20
-169.4159258262893
 10
-20.00881904510254
 20
-165.9859258262893
 42
-0.3394542588633722
 10
-20.75000000000011
 20
-165.0200000000002
 10
-20.74999999999988
 20
-164.0437607901893
 42
-0.2679493850789107
 10
-20.50000000000011
 20
-163.6107477288114
 10
-19.20000000000004
 20
-162.8601923788648
 42
-0.5773502691896556
 10
-18.75
 20
-163.1200000000002
 10
-18.75000000000011
 20
-164.7703111022264
 10
-7.010406028759803
 20
-167.9159258262893
 42
0.0655434628152338
 10
-6.751586983657375
 20
-167.9500000000002
 10
-4.899999999999977
 20
-167.9500000000002
 42
0.4142135623730951
 10
-3.899999999999977
 20
-166.9500000000002
 10
-3.899999999999977
 20
-165.1903293088492
 42
-0.2522636525022283
 10
-3.450000000000045
 20
-164.3551646544248
 42
0.2522636525022408
 10
-3.000000000000113
 20
-163.5200000000003
 10
-3.000000000000113
 20
-158.3200000000002
 10
-2.500000000000113
 20
-157.8200000000002
 10
-3.000000000000113
 20
-157.3200000000001
 10
-3.000000000000113
 20
-152.3973502691898
 10
-2.000000000000113
 20
-151.8200000000001
 10
-2.0
 20
-145.3200000000002
 10
-1.500000000000113
 20
-144.8200000000002
 10
-2.0
 20
-144.3200000000002
 10
-2.000000000000113
 20
-138.3967949192432
 10
-1.850000000000136
 20
-138.3101923788647
 10
-1.850000000000022
 20
-137.9066025403785
 42
0.5773502691896536
 10
-2.15000000000009
 20
-137.7333974596216
 10
-2.499519052838422
 20
-137.9351923788649
 10
-2.499519052838309
 20
-138.1083974596217
 10
-4.999999999999545
 20
-139.5520508075691
 10
-4.999999999999545
 20
-137.8200000000001
 10
-4.275670738434769
 20
-137.4018083058538
 42
0.668178637919313
 10
-4.348025024903904
 20
-136.8522229368317
 10
-20.00881904510254
 20
-132.6559258262892
 42
-0.3394542588633786
 10
-20.75000000000011
 20
-131.6900000000001
 10
-20.74999999999988
 20
-130.7137607901893
 42
-0.2679493850789296
 10
-20.50000000000011
 20
-130.2807477288114
 10
-19.20000000000004
 20
-129.5301923788648
 42
-0.5773502691896281
 10
-18.75000000000011
 20
-129.7900000000001
 10
-18.75000000000011
 20
-131.4403111022263
 10
-4.258819045102541
 20
-135.3232113364642
 42
0.4931454260313047
 10
-3.000000000000113
 20
-134.3572855101751
1001
ACAD
1000
ASC_BOUNDS
1002
{
1070
    19
1002
}
  0
ENDBLK
  5
9B
330
98
100
AcDbEntity
  8
0
100
AcDbBlockEnd
  0
BLOCK
  5
91
330
6E
100
AcDbEntity
  8
0
100
AcDbBlockBegin
  2
P-2012
 70
     0
 10
0.0
 20
0.0
 30
0.0
  3
P-2012
  1

  0
LINE
  5
6F
330
6E
100
AcDbEntity
  8
0
  6
CONTINUOUS
100
AcDbLine
 10
-13.74997419575311
 20
-7.938611651288454
 30
0.0
 11
-0.8749950112717783
 21
-0.5051824456111831
 31
0.0
  0
LINE
  5
70
330
6E
100
AcDbEntity
  8
0
  6
CONTINUOUS
100
AcDbLine
 10
-1.5
 20
0.5773502691897079
 30
0.0
 11
-20.30000000000006
 21
-10.27683479157536
 31
0.0
  0
ARC
  5
71
330
6E
100
AcDbEntity
  8
0
  6
CONTINUOUS
100
AcDbCircle
 10
-1.749999999999943
 20
1.01036297108186
 30
0.0
 40
0.4999999999999432
100
AcDbArc
 50
299.9999999999981
 51
0.0
  0
LINE
  5
72
330
6E
100
AcDbEntity
  8
0
  6
CONTINUOUS
100
AcDbLine
 10
0.0
 20
1.01035913075708
 30
0.0
 11
0.0
 21
11.98493525376403
 31
0.0
  0
ARC
  5
73
330
6E
100
AcDbEntity
  8
0
  6
CONTINUOUS
100
AcDbCircle
 10
-1.0
 20
11.98493525376392
 30
0.0
 40
1.0
100
AcDbArc
 50
0.0000000000065138
 51
57.42102960720304
  0
ARC
  5
74
330
6E
100
AcDbEntity
  8
0
  6
CONTINUOUS
100
AcDbCircle
 10
-1.750000000000056
 20
1.01035913075708
 30
0.0
 40
1.750000000000079
100
AcDbArc
 50
300.0001886010976
 51
0.0
  0
LINE
  5
75
330
6E
100
AcDbEntity
  8
0
  6
CONTINUOUS
100
AcDbLine
 10
-1.249999999999886
 20
11.31531685931344
 30
0.0
 11
-1.25
 21
1.01036297108186
 31
0.0
  0
ARC
  5
76
330
6E
100
AcDbEntity
  8
0
  6
CONTINUOUS
100
AcDbCircle
 10
-1.549999999999897
 20
11.31531685931344
 30
0.0
 40
0.300000000000022
100
AcDbArc
 50
0.0
 51
120.0000000000051
  0
LINE
  5
77
330
6E
100
AcDbEntity
  8
0
  6
CONTINUOUS
100
AcDbLine
 10
-2.700000000000045
 20
10.99777421125912
 30
0.0
 11
-1.699999999999931
 21
11.57512448044877
 31
0.0
  0
ARC
  5
78
330
6E
100
AcDbEntity
  8
0
  6
CONTINUOUS
100
AcDbCircle
 10
-2.800000000000011
 20
11.17097929201605
 30
0.0
 40
0.1999999999999886
100
AcDbArc
 50
180.0
 51
299.9999999999855
  0
LINE
  5
79
330
6E
100
AcDbEntity
  8
0
  6
CONTINUOUS
100
AcDbLine
 10
-3.0
 20
12.15247474963831
 30
0.0
 11
-3.0
 21
11.17097929201605
 31
0.0
  0
ARC
  5
7A
330
6E
100
AcDbEntity
  8
0
  6
CONTINUOUS
100
AcDbCircle
 10
-2.799999999999954
 20
12.15247474963831
 30
0.0
 40
0.2000000000000475
100
AcDbArc
 50
119.9999999999996
 51
180.0
  0
ARC
  5
7B
330
6E
100
AcDbEntity
  8
0
  6
CONTINUOUS
100
AcDbCircle
 10
-0.300000000000125
 20
13.08038036877434
 30
0.0
 40
0.3000000000000064
100
AcDbArc
 50
180.0
 51
237.4210296072012
  0
LINE
  5
7C
330
6E
100
AcDbEntity
  8
0
  6
CONTINUOUS
100
AcDbLine
 10
-0.9000000000000909
 20
13.48038036877432
 30
0.0
 11
-2.899999999999977
 21
12.32567983039524
 31
0.0
  0
ARC
  5
7D
330
6E
100
AcDbEntity
  8
0
  6
CONTINUOUS
100
AcDbCircle
 10
-0.800000000000125
 20
13.30717528801739
 30
0.0
 40
0.1999999999999886
100
AcDbArc
 50
0.0
 51
119.9999999999855
  0
LINE
  5
7E
330
6E
100
AcDbEntity
  8
0
  6
CONTINUOUS
100
AcDbLine
 10
-0.6000000000001365
 20
13.08038036877434
 30
0.0
 11
-0.6000000000001365
 21
13.30717528801739
 31
0.0
  0
LINE
  5
7F
330
6E
100
AcDbEntity
  8
0
  6
CONTINUOUS
100
AcDbLine
 10
-19.14999999999997
 20
-21.82309614751946
 30
0.0
 11
-19.14999999999986
 21
-11.17172770881933
 31
0.0
  0
ARC
  5
80
330
6E
100
AcDbEntity
  8
0
  6
CONTINUOUS
100
AcDbCircle
 10
-18.94999999999998
 20
-21.82309614751946
 30
0.0
 40
0.1999999999999698
100
AcDbArc
 50
180.0
 51
299.9999999999936
  0
LINE
  5
81
330
6E
100
AcDbEntity
  8
0
  6
CONTINUOUS
100
AcDbLine
 10
-17.70000000000004
 20
-21.33234841870833
 30
0.0
 11
-18.85000000000002
 21
-21.99630122827633
 31
0.0
  0
ARC
  5
82
330
6E
100
AcDbEntity
  8
0
  6
CONTINUOUS
100
AcDbCircle
 10
-17.59999999999996
 20
-21.50555349946523
 30
0.0
 40
0.1999999999999886
100
AcDbArc
 50
0.0000000000081422
 51
120.0000000000178
  0
LINE
  5
83
330
6E
100
AcDbEntity
  8
0
  6
CONTINUOUS
100
AcDbLine
 10
-17.40000000000009
 20
-22.48704895708763
 30
0.0
 11
-17.39999999999997
 21
-21.5055534994652
 31
0.0
  0
ARC
  5
84
330
6E
100
AcDbEntity
  8
0
  6
CONTINUOUS
100
AcDbCircle
 10
-17.60000000000007
 20
-22.4870489570876
 30
0.0
 40
0.1999999999999944
100
AcDbArc
 50
299.9999999999896
 51
359.9999999999918
  0
LINE
  5
85
330
6E
100
AcDbEntity
  8
0
  6
CONTINUOUS
100
AcDbLine
 10
-19.65000000000009
 20
-23.90155711660216
 30
0.0
 11
-17.50000000000011
 21
-22.66025403784451
 31
0.0
  0
ARC
  5
86
330
6E
100
AcDbEntity
  8
0
  6
CONTINUOUS
100
AcDbCircle
 10
-19.90000000000014
 20
-23.46854441470998
 30
0.0
 40
0.4999999999999432
100
AcDbArc
 50
180.0000000000032
 51
300.0000000000078
  0
LINE
  5
87
330
6E
100
AcDbEntity
  8
0
  6
CONTINUOUS
100
AcDbLine
 10
-20.40000000000009
 20
-10.45003987233229
 30
0.0
 11
-20.40000000000009
 21
-23.46854441471001
 31
0.0
  0
ARC
  5
88
330
6E
100
AcDbEntity
  8
0
  6
CONTINUOUS
100
AcDbCircle
 10
-17.74999999999954
 20
-9.324206847411971
 30
0.0
 40
3.000000000000117
100
AcDbArc
 50
299.9999999999886
 51
355.9442022574234
  0
LINE
  5
89
330
6E
100
AcDbEntity
  8
0
  6
CONTINUOUS
100
AcDbLine
 10
-16.44999999999993
 20
-12.03775311260363
 30
0.0
 11
-16.25
 21
-11.92228305876568
 31
0.0
  0
ARC
  5
8A
330
6E
100
AcDbEntity
  8
0
  6
CONTINUOUS
100
AcDbCircle
 10
-16.55000000000001
 20
-11.86454803184682
 30
0.0
 40
0.1999999999999886
100
AcDbArc
 50
180.0
 51
300.00000000003
  0
LINE
  5
8B
330
6E
100
AcDbEntity
  8
0
  6
CONTINUOUS
100
AcDbLine
 10
-16.74999999999988
 20
-10.01702717043991
 30
0.0
 11
-16.75
 21
-11.86454803184682
 31
0.0
  0
ARC
  5
8C
330
6E
100
AcDbEntity
  8
0
  6
CONTINUOUS
100
AcDbCircle
 10
-16.94999999999987
 20
-10.01702717043997
 30
0.0
 40
0.2000000000000266
100
AcDbArc
 50
0.0000000000162844
 51
120.0000000000219
  0
LINE
  5
8D
330
6E
100
AcDbEntity
  8
0
  6
CONTINUOUS
100
AcDbLine
 10
-19.04999999999995
 20
-10.9985226280624
 30
0.0
 11
-17.04999999999995
 21
-9.843822089683101
 31
0.0
  0
ARC
  5
8E
330
6E
100
AcDbEntity
  8
0
  6
CONTINUOUS
100
AcDbCircle
 10
-18.94999999999987
 20
-11.17172770881921
 30
0.0
 40
0.1999999999999886
100
AcDbArc
 50
120.00000000003
 51
180.0000000000325
  0
ARC
  5
8F
330
6E
100
AcDbEntity
  8
0
  6
CONTINUOUS
100
AcDbCircle
 10
-20.20000000000004
 20
-10.45003987233229
 30
0.0
 40
0.2000000000000475
100
AcDbArc
 50
119.9999999999996
 51
180.0
  0
ARC
  5
90
330
6E
100
AcDbEntity
  8
0
  6
CONTINUOUS
100
AcDbCircle
 10
-12.76252177706902
 20
-9.67784646028781
 30
0.0
 40
2.000000000000033
100
AcDbArc
 50
119.5857901649086
 51
175.9442022574392
  0
ENDBLK
  5
92
330
6E
100
AcDbEntity
  8
0
100
AcDbBlockEnd
  0
BLOCK
  5
6A
330
68
100
AcDbEntity
  8
0
100
AcDbBlockBegin
  2
P-2045
 70
     0
 10
0.0
 20
0.0
 30
0.0
  3
P-2045
  1

  0
LWPOLYLINE
  5
69
330
68
100
AcDbEntity
  8
0
100
AcDbPolyline
 90
       35
 70
     1
 43
0.0
 10
-17.40000000000009
 20
12.17085666204866
 10
-17.40000000000009
 20
10.72748098907459
 10
-20.40000000000009
 20
8.995430181505753
 10
-20.40000000000009
 20
18.86543018150575
 10
-19.15000000000009
 20
18.86543018150575
 10
-19.15000000000009
 20
18.66543018150582
 42
0.4142135623730945
 10
-18.85000000000013
 20
18.36543018150575
 10
-4.75
 20
18.36543018150575
 42
-0.4142135623730951
 10
-3.5
 20
17.11543018150575
 10
-3.5
 20
12.26729307395453
 42
0.6068148963145945
 10
-3.02792706909463
 20
12.02154746066776
 10
-0.4720729309053695
 20
13.81117579479246
 42
-0.6068148963145994
 10
0.0
 20
13.5654301815058
 10
0.0
 20
0.0
 10
-13.75
 20
-7.938566201357389
 42
0.249069420173574
 10
-14.74499128917227
 20
-9.529161163776052
 42
-0.2490694201735744
 10
-16.2374782229308
 20
-11.91505360740416
 10
-16.45000000000004
 20
-12.03775311260369
 42
-0.5773502691896115
 10
-16.75
 20
-11.86454803184676
 10
-16.75
 20
-9.670617008926228
 10
-19.15000000000009
 20
-11.05625765498132
 10
-19.15000000000009
 20
-22.16950630903318
 10
-17.40000000000009
 20
-21.15914333795137
 10
-17.40000000000009
 20
-22.60251901092544
 10
-20.40000000000009
 20
-24.33456981849428
 10
-20.40000000000009
 20
-10.33456981849428
 10
-1.25
 20
0.7216878364870354
 10
-1.25
 20
11.74049716088313
 10
-2.783029454561301
 20
10.66705838050188
 42
-0.6068148963145945
 10
-4.75
 20
11.69099843586309
 10
-4.75
 20
16.8154301815058
 42
0.4142135623730951
 10
-5.050000000000181
 20
17.11543018150575
 10
-18.85000000000013
 20
17.11543018150575
 42
0.414213562373096
 10
-19.15000000000009
 20
16.8154301815058
 10
-19.15000000000009
 20
11.16049369096685
  0
ENDBLK
  5
6B
330
68
100
AcDbEntity
  8
0
100
AcDbBlockEnd
  0
BLOCK
  5
BD
330
BB
100
AcDbEntity
  8
0
100
AcDbBlockBegin
  2
P-7021
 70
     0
 10
0.0
 20
0.0
 30
0.0
  3
P-7021
  1

  0
LWPOLYLINE
  5
BC
330
BB
100
AcDbEntity
  8
0
100
AcDbPolyline
 90
       27
 70
     1
 43
0.0
 10
-22.99999999999994
 20
-13.18854441470983
 10
-22.99999999999994
 20
-14.68854441470983
 10
-25.5
 20
-14.68854441470983
 10
-25.5
 20
-33.02249843837325
 10
-22.0
 20
-34.0724984383732
 10
-22.0
 20
-35.36973828453159
 42
-0.5023968879034705
 10
-22.25746957711322
 20
-35.56130354157579
 10
-27.0
 20
-34.13854441470988
 10
-26.99999999999994
 20
-9.138544414709883
 10
0.0
 20
-9.138544414709883
 10
0.0
 20
4.361455585290116
 10
1.5
 20
4.361455585290116
 10
1.5
 20
-3.638544414709883
 10
5.0
 20
-3.638544414709883
 42
-1.732050807568568
 10
4.133974596215693
 20
-5.138544414710111
 10
1.5
 20
-5.138544414709883
 10
1.5
 20
-9.138544414709883
 10
6.5
 20
-9.138544414709883
 10
6.5
 20
-11.13854441470988
 10
5.0
 20
-11.13854441470988
 10
5.0
 20
-14.68854441470983
 10
1.0
 20
-14.68854441470983
 10
1.0
 20
-13.18854441470983
 10
3.0
 20
-13.18854441470983
 10
3.0
 20
-11.13854441470988
 10
-24.99999999999994
 20
-11.13854441470988
 10
-24.99999999999988
 20
-13.18854441470983
  0
ENDBLK
  5
BE
330
BB
100
AcDbEntity
  8
0
100
AcDbBlockEnd
  0
BLOCK
  5
5C
330
20
100
AcDbEntity
  8
0
100
AcDbBlockBegin
  2
P-2015
 70
     0
 10
0.0
 20
0.0
 30
0.0
  3
P-2015
  1

  0
LWPOLYLINE
  5
21
330
20
100
AcDbEntity
  8
0
100
AcDbPolyline
 90
       29
 70
     1
 43
0.0
 10
-0.8749950112719488
 20
-0.50518244561124
 42
0.2679483104202638
 10
-0.0000000000001137
 20
1.010359130757194
 10
-0.0000000000003411
 20
12.06570996175764
 42
0.2559241411155624
 10
-0.461538461538737
 20
12.90836005022703
 42
-0.2559241411155341
 10
-0.6000000000002501
 20
13.16115507676784
 10
-0.6000000000002501
 20
13.39222510074864
 42
0.5773502691897771
 10
-0.9000000000002614
 20
13.56543018150557
 10
-2.900000000000318
 20
12.41072964312621
 42
0.2679491924312118
 10
-3.000000000000341
 20
12.23752456236923
 10
-3.000000000000341
 20
11.25602910474702
 42
0.5773502691896067
 10
-2.700000000000386
 20
11.08282402399015
 10
-1.700000000000272
 20
11.66017429317975
 42
-0.5773502691896323
 10
-1.250000000000341
 20
11.40036667204447
 10
-1.250000000000113
 20
1.010362971081576
 42
-0.2679491924311267
 10
-1.500000000000113
 20
0.5773502691893669
 10
-20.30000000000023
 20
-10.27683479157548
 42
0.2679491924311859
 10
-20.4000000000002
 20
-10.45003987233224
 10
-20.4000000000002
 20
-16.13456981849447
 42
0.4142135623731785
 10
-20.20000000000032
 20
-16.3345698184944
 10
-19.35000000000025
 20
-16.33456981849451
 42
0.4142135623730951
 10
-19.1500000000002
 20
-16.13456981849447
 10
-19.1500000000002
 20
-11.17172770881927
 42
-0.2679491924310218
 10
-19.05000000000029
 20
-10.99852262806257
 10
-17.05000000000035
 20
-9.843822089683271
 42
-0.5773502691896823
 10
-16.75000000000034
 20
-10.01702717044014
 10
-16.75000000000034
 20
-11.85402897554706
 42
0.5507604245862093
 10
-16.46428571428589
 20
-12.03473055612823
 42
0.2706038449531487
 10
-14.75751306624158
 20
-9.53639061513769
 42
-0.2509897368932049
 10
-13.74997419575009
 20
-7.938611651286805
  0
LINE
  5
22
330
20
100
AcDbEntity
  8
0
100
AcDbLine
 10
-0.0000000000001137
 20
1.010359130757194
 30
0.0
 11
-0.0000000000003411
 21
12.06570996175764
 31
0.0
  0
LINE
  5
23
330
20
100
AcDbEntity
  8
0
100
AcDbLine
 10
-3.000000000000341
 20
12.23752456236923
 30
0.0
 11
-3.000000000000341
 21
11.25602910474702
 31
0.0
  0
LINE
  5
24
330
20
100
AcDbEntity
  8
0
100
AcDbLine
 10
-2.700000000000386
 20
11.08282402399015
 30
0.0
 11
-1.700000000000272
 21
11.66017429317975
 31
0.0
  0
LINE
  5
25
330
20
100
AcDbEntity
  8
0
100
AcDbLine
 10
-1.250000000000341
 20
11.40036667204441
 30
0.0
 11
-1.250000000000113
 21
1.010362971081747
 31
0.0
  0
LINE
  5
26
330
20
100
AcDbEntity
  8
0
  6
CONTINUOUS
100
AcDbLine
 10
-0.0000000000001137
 20
1.010359130757194
 30
0.0
 11
-0.0000000000003411
 21
12.06570996175753
 31
0.0
  0
LINE
  5
27
330
20
100
AcDbEntity
  8
0
  6
CONTINUOUS
100
AcDbLine
 10
-3.000000000000341
 20
12.23752456236945
 30
0.0
 11
-3.000000000000341
 21
11.25602910474697
 31
0.0
  0
LINE
  5
28
330
20
100
AcDbEntity
  8
0
  6
CONTINUOUS
100
AcDbLine
 10
-2.700000000000386
 20
11.08282402399015
 30
0.0
 11
-1.700000000000386
 21
11.66017429317969
 31
0.0
  0
LINE
  5
29
330
20
100
AcDbEntity
  8
0
  6
CONTINUOUS
100
AcDbLine
 10
-1.250000000000341
 20
11.40036667204447
 30
0.0
 11
-1.250000000000113
 21
1.01036297108169
 31
0.0
  0
LINE
  5
2A
330
20
100
AcDbEntity
  8
0
100
AcDbLine
 10
-1.500000000000056
 20
0.5773502691894237
 30
0.0
 11
-20.30000000000023
 21
-10.27683479157548
 31
0.0
  0
LINE
  5
2B
330
20
100
AcDbEntity
  8
0
100
AcDbLine
 10
-13.74997419574936
 20
-7.93861165128635
 30
0.0
 11
-0.8749950112719488
 21
-0.50518244561124
 31
0.0
  0
LINE
  5
2C
330
20
100
AcDbEntity
  8
0
  6
CONTINUOUS
100
AcDbLine
 10
-1.500000000000113
 20
0.5773502691894237
 30
0.0
 11
-20.30000000000029
 21
-10.27683479157553
 31
0.0
  0
LINE
  5
2D
330
20
100
AcDbEntity
  8
0
  6
CONTINUOUS
100
AcDbLine
 10
-13.74997419575345
 20
-7.938611651288738
 30
0.0
 11
-0.8749950112719488
 21
-0.50518244561124
 31
0.0
  0
ARC
  5
2E
330
20
100
AcDbEntity
  8
0
  6
CONTINUOUS
100
AcDbCircle
 10
-20.20000000000032
 20
-16.13456981849447
 30
0.0
 40
0.1999999999998749
100
AcDbArc
 50
179.9999999999837
 51
269.9999999999837
  0
ARC
  5
2F
330
20
100
AcDbEntity
  8
0
100
AcDbCircle
 10
-19.35000000000025
 20
-16.13456981849447
 30
0.0
 40
0.2000000000000455
100
AcDbArc
 50
270.0
 51
0.0
  0
ARC
  5
30
330
20
100
AcDbEntity
  8
0
100
AcDbCircle
 10
-20.20000000000032
 20
-16.13456981849452
 30
0.0
 40
0.1999999999998749
100
AcDbArc
 50
179.9999999999837
 51
270.0
  0
ARC
  5
31
330
20
100
AcDbEntity
  8
0
  6
CONTINUOUS
100
AcDbCircle
 10
-19.35000000000025
 20
-16.13456981849447
 30
0.0
 40
0.2000000000000455
100
AcDbArc
 50
270.0
 51
0.0
  0
LINE
  5
32
330
20
100
AcDbEntity
  8
0
100
AcDbLine
 10
-20.20000000000032
 20
-16.3345698184944
 30
0.0
 11
-19.35000000000025
 21
-16.33456981849451
 31
0.0
  0
LINE
  5
33
330
20
100
AcDbEntity
  8
0
  6
CONTINUOUS
100
AcDbLine
 10
-20.20000000000038
 20
-16.3345698184944
 30
0.0
 11
-19.35000000000025
 21
-16.33456981849451
 31
0.0
  0
ARC
  5
34
330
20
100
AcDbEntity
  8
0
  6
CONTINUOUS
100
AcDbCircle
 10
-17.74999999999988
 20
-9.324206847412256
 30
0.0
 40
3.000000000000043
100
AcDbArc
 50
295.376933525145
 51
355.9442022574261
  0
ARC
  5
35
330
20
100
AcDbEntity
  8
0
100
AcDbCircle
 10
-12.76252177706953
 20
-9.67784646028798
 30
0.0
 40
1.999999999999879
100
AcDbArc
 50
119.5857901647703
 51
175.9442022574323
  0
ARC
  5
36
330
20
100
AcDbEntity
  8
0
100
AcDbCircle
 10
-17.74999999999988
 20
-9.324206847412256
 30
0.0
 40
3.000000000000081
100
AcDbArc
 50
295.3769335251454
 51
355.9442022574299
  0
ARC
  5
37
330
20
100
AcDbEntity
  8
0
  6
CONTINUOUS
100
AcDbCircle
 10
-12.76252177706948
 20
-9.677846460288037
 30
0.0
 40
1.999999999999924
100
AcDbArc
 50
119.5857901649066
 51
175.9442022574373
  0
ARC
  5
38
330
20
100
AcDbEntity
  8
0
100
AcDbCircle
 10
-20.20000000000032
 20
-10.45003987233224
 30
0.0
 40
0.1999999999998429
100
AcDbArc
 50
119.9999999999958
 51
180.0
  0
LINE
  5
39
330
20
100
AcDbEntity
  8
0
100
AcDbLine
 10
-20.4000000000002
 20
-10.45003987233224
 30
0.0
 11
-20.4000000000002
 21
-16.13456981849447
 31
0.0
  0
LINE
  5
3A
330
20
100
AcDbEntity
  8
0
100
AcDbLine
 10
-19.1500000000002
 20
-16.13456981849447
 30
0.0
 11
-19.1500000000002
 21
-11.17172770881927
 31
0.0
  0
ARC
  5
3B
330
20
100
AcDbEntity
  8
0
100
AcDbCircle
 10
-18.95000000000033
 20
-11.17172770881927
 30
0.0
 40
0.1999999999998749
100
AcDbArc
 50
119.9999999999958
 51
180.0
  0
LINE
  5
3C
330
20
100
AcDbEntity
  8
0
100
AcDbLine
 10
-19.05000000000024
 20
-10.99852262806251
 30
0.0
 11
-17.05000000000035
 21
-9.843822089683271
 31
0.0
  0
ARC
  5
3D
330
20
100
AcDbEntity
  8
0
  6
CONTINUOUS
100
AcDbCircle
 10
-16.95000000000033
 20
-10.01702717044014
 30
0.0
 40
0.1999999999999944
100
AcDbArc
 50
359.9999999999918
 51
119.9999999999896
  0
LINE
  5
3E
330
20
100
AcDbEntity
  8
0
100
AcDbLine
 10
-16.75000000000034
 20
-10.01702717044014
 30
0.0
 11
-16.75000000000034
 21
-11.85402897554706
 31
0.0
  0
ARC
  5
3F
330
20
100
AcDbEntity
  8
0
  6
CONTINUOUS
100
AcDbCircle
 10
-16.55000000000024
 20
-11.85402897554706
 30
0.0
 40
0.2000000000001307
100
AcDbArc
 50
180.0
 51
295.3769335251456
  0
ARC
  5
40
330
20
100
AcDbEntity
  8
0
100
AcDbCircle
 10
-16.55000000000018
 20
-11.85402897554706
 30
0.0
 40
0.2000000000001592
100
AcDbArc
 50
180.0
 51
295.3769335251381
  0
ARC
  5
41
330
20
100
AcDbEntity
  8
0
100
AcDbCircle
 10
-16.95000000000033
 20
-10.01702717044014
 30
0.0
 40
0.1999999999999983
100
AcDbArc
 50
0.0
 51
120.0000000000078
  0
ARC
  5
42
330
20
100
AcDbEntity
  8
0
  6
CONTINUOUS
100
AcDbCircle
 10
-20.20000000000032
 20
-10.45003987233224
 30
0.0
 40
0.1999999999998785
100
AcDbArc
 50
120.0000000000134
 51
180.0000000000162
  0
LINE
  5
43
330
20
100
AcDbEntity
  8
0
  6
CONTINUOUS
100
AcDbLine
 10
-20.4000000000002
 20
-10.45003987233235
 30
0.0
 11
-20.4000000000002
 21
-16.13456981849447
 31
0.0
  0
LINE
  5
44
330
20
100
AcDbEntity
  8
0
  6
CONTINUOUS
100
AcDbLine
 10
-19.1500000000002
 20
-16.13456981849447
 30
0.0
 11
-19.1500000000002
 21
-11.17172770881939
 31
0.0
  0
ARC
  5
45
330
20
100
AcDbEntity
  8
0
  6
CONTINUOUS
100
AcDbCircle
 10
-18.95000000000033
 20
-11.17172770881927
 30
0.0
 40
0.1999999999998891
100
AcDbArc
 50
120.0000000000134
 51
180.0000000000162
  0
LINE
  5
46
330
20
100
AcDbEntity
  8
0
  6
CONTINUOUS
100
AcDbLine
 10
-19.05000000000029
 20
-10.99852262806257
 30
0.0
 11
-17.05000000000029
 21
-9.843822089683271
 31
0.0
  0
LINE
  5
47
330
20
100
AcDbEntity
  8
0
  6
CONTINUOUS
100
AcDbLine
 10
-16.75000000000034
 20
-10.0170271704402
 30
0.0
 11
-16.75000000000034
 21
-11.85402897554706
 31
0.0
  0
ARC
  5
48
330
20
100
AcDbEntity
  8
0
  6
CONTINUOUS
100
AcDbCircle
 10
-1.750000000000284
 20
1.010359130757137
 30
0.0
 40
1.750000000000155
100
AcDbArc
 50
300.0001886010908
 51
0.0000000000018611
  0
ARC
  5
49
330
20
100
AcDbEntity
  8
0
100
AcDbCircle
 10
-1.750000000000113
 20
1.010362971081576
 30
0.0
 40
0.5
100
AcDbArc
 50
300.0000000000094
 51
0.0000000000195413
  0
ARC
  5
4A
330
20
100
AcDbEntity
  8
0
100
AcDbCircle
 10
-1.750000000000284
 20
1.010359130757137
 30
0.0
 40
1.750000000000206
100
AcDbArc
 50
300.0001886010974
 51
0.0000000000018611
  0
ARC
  5
4B
330
20
100
AcDbEntity
  8
0
  6
CONTINUOUS
100
AcDbCircle
 10
-1.75000000000017
 20
1.01036297108169
 30
0.0
 40
0.5000000000000285
100
AcDbArc
 50
300.0000000000017
 51
0.0000000000032569
  0
ARC
  5
4C
330
20
100
AcDbEntity
  8
0
  6
CONTINUOUS
100
AcDbCircle
 10
-2.800000000000409
 20
11.25602910474702
 30
0.0
 40
0.1999999999999602
100
AcDbArc
 50
180.0000000000081
 51
300.0000000000048
  0
ARC
  5
4D
330
20
100
AcDbEntity
  8
0
100
AcDbCircle
 10
-2.800000000000352
 20
11.25602910474702
 30
0.0
 40
0.1999999999999886
100
AcDbArc
 50
180.0
 51
299.9999999999936
  0
ARC
  5
4E
330
20
100
AcDbEntity
  8
0
100
AcDbCircle
 10
-1.000000000000284
 20
12.06570996175764
 30
0.0
 40
0.9999999999999431
100
AcDbArc
 50
0.0
 51
57.42102960719229
  0
ARC
  5
4F
330
20
100
AcDbEntity
  8
0
100
AcDbCircle
 10
-0.3000000000002387
 20
13.16115507676784
 30
0.0
 40
0.2999999999999891
100
AcDbArc
 50
180.0
 51
237.4210296071862
  0
LINE
  5
50
330
20
100
AcDbEntity
  8
0
100
AcDbLine
 10
-0.6000000000002501
 20
13.16115507676784
 30
0.0
 11
-0.6000000000002501
 21
13.39222510074864
 31
0.0
  0
ARC
  5
51
330
20
100
AcDbEntity
  8
0
  6
CONTINUOUS
100
AcDbCircle
 10
-0.8000000000002387
 20
13.3922251007487
 30
0.0
 40
0.1999999999999886
100
AcDbArc
 50
359.9999999999918
 51
119.9999999999896
  0
LINE
  5
52
330
20
100
AcDbEntity
  8
0
100
AcDbLine
 10
-0.9000000000002614
 20
13.56543018150557
 30
0.0
 11
-2.900000000000318
 21
12.41072964312621
 31
0.0
  0
ARC
  5
53
330
20
100
AcDbEntity
  8
0
  6
CONTINUOUS
100
AcDbCircle
 10
-2.800000000000352
 20
12.23752456236934
 30
0.0
 40
0.2000000000000186
100
AcDbArc
 50
119.9999999999527
 51
179.9999999999511
  0
ARC
  5
54
330
20
100
AcDbEntity
  8
0
100
AcDbCircle
 10
-1.550000000000295
 20
11.40036667204447
 30
0.0
 40
0.2999999999999443
100
AcDbArc
 50
359.9999999999891
 51
120.0000000000011
  0
ARC
  5
55
330
20
100
AcDbEntity
  8
0
100
AcDbCircle
 10
-2.800000000000295
 20
12.23752456236928
 30
0.0
 40
0.2000000000000475
100
AcDbArc
 50
119.9999999999996
 51
180.0000000000162
  0
ARC
  5
56
330
20
100
AcDbEntity
  8
0
100
AcDbCircle
 10
-0.8000000000002387
 20
13.3922251007487
 30
0.0
 40
0.1999999999999886
100
AcDbArc
 50
359.9999999999837
 51
120.0000000000078
  0
ARC
  5
57
330
20
100
AcDbEntity
  8
0
  6
CONTINUOUS
100
AcDbCircle
 10
-1.000000000000284
 20
12.06570996175764
 30
0.0
 40
0.9999999999999289
100
AcDbArc
 50
359.9999999999967
 51
57.42102960719024
  0
ARC
  5
58
330
20
100
AcDbEntity
  8
0
  6
CONTINUOUS
100
AcDbCircle
 10
-0.3000000000001819
 20
13.16115507676789
 30
0.0
 40
0.3000000000000609
100
AcDbArc
 50
180.0000000000054
 51
237.4210296071949
  0
LINE
  5
59
330
20
100
AcDbEntity
  8
0
  6
CONTINUOUS
100
AcDbLine
 10
-0.6000000000002501
 20
13.16115507676784
 30
0.0
 11
-0.6000000000002501
 21
13.39222510074864
 31
0.0
  0
LINE
  5
5A
330
20
100
AcDbEntity
  8
0
  6
CONTINUOUS
100
AcDbLine
 10
-0.9000000000002046
 20
13.56543018150557
 30
0.0
 11
-2.900000000000204
 21
12.41072964312627
 31
0.0
  0
ARC
  5
5B
330
20
100
AcDbEntity
  8
0
  6
CONTINUOUS
100
AcDbCircle
 10
-1.550000000000352
 20
11.40036667204447
 30
0.0
 40
0.2999999999999798
100
AcDbArc
 50
0.0000000000108563
 51
120.0000000000128
  0
ENDBLK
  5
5D
330
20
100
AcDbEntity
  8
0
100
AcDbBlockEnd
  0
BLOCK
  5
1BF
330
193
100
AcDbEntity
  8
0
100
AcDbBlockBegin
  2
P-2016
 70
     0
 10
0.0
 20
0.0
 30
0.0
  3
P-2016
  1

  0
LWPOLYLINE
  5
194
330
193
100
AcDbEntity
  8
0
100
AcDbPolyline
 90
       42
 70
     1
 43
0.0
 10
-13.76142340055929
 20
-7.945221903015294
 10
-0.8749950112718352
 20
-0.50518244561124
 42
0.2679483104202581
 10
0.0
 20
1.01035913075708
 10
0.0
 20
11.97348486100872
 42
0.2559241411155745
 10
-0.461538461538396
 20
12.81613494947811
 42
-0.2559241411155781
 10
-0.5999999999999091
 20
13.06892997601897
 10
-0.5999999999999091
 20
13.29999999999984
 42
0.5773502691896929
 10
-0.9000000000001477
 20
13.47320508075688
 10
-2.89999999999992
 20
12.31850454237786
 42
0.2679491924312384
 10
-3.0
 20
12.14529946162087
 10
-3.0
 20
11.16380400399862
 42
0.5773502691898372
 10
-2.700000000000045
 20
10.99059892324169
 10
-1.699999999999818
 20
11.56794919243122
 42
-0.5773502691897733
 10
-1.25
 20
11.308141571296
 10
-1.25
 20
1.010362971081804
 42
-0.2679491924311653
 10
-1.499999999999829
 20
0.5773502691897079
 10
-20.30000000000018
 20
-10.27683479157565
 42
0.2679491924310656
 10
-20.40000000000009
 20
-10.45003987233235
 10
-20.40000000000009
 20
-24.1613647377373
 42
0.2679491924311301
 10
-20.25000000000017
 20
-24.42117235887258
 10
-19.54999999999995
 20
-24.82531754730541
 42
-0.2679491924311294
 10
-19.40000000000009
 20
-25.08512516844052
 10
-19.40000000000009
 20
-35.46854441470998
 42
0.5773502691896476
 10
-18.65000000000009
 20
-35.90155711660225
 10
-16.50000000000011
 20
-34.66025403784482
 42
0.2679491924311184
 10
-16.40000000000009
 20
-34.48704895708789
 10
-16.40000000000009
 20
-33.50555349946535
 42
0.5773502691896252
 10
-16.70000000000015
 20
-33.33234841870836
 10
-17.85000000000019
 20
-33.99630122827636
 42
-0.5773502691894139
 10
-18.15000000000009
 20
-33.82309614751943
 10
-18.15000000000009
 20
-24.76758252038632
 42
0.2679491924310909
 10
-18.64999999999997
 20
-23.90155711660207
 10
-19.0
 20
-23.69948452238566
 42
-0.2679491924310668
 10
-19.14999999999986
 20
-23.43967690125049
 10
-19.15000000000009
 20
-11.17172770881927
 42
-0.2679491924310422
 10
-19.05000000000006
 20
-10.9985226280624
 10
-17.05000000000006
 20
-9.843822089683101
 42
-0.5773502691894614
 10
-16.75
 20
-10.01702717044008
 10
-16.75
 20
-11.87990270036806
 42
0.5773502691899248
 10
-16.44999999999976
 20
-12.05310778112488
 10
-16.24999999999784
 20
-11.93763772728561
 42
0.2499176206059419
 10
-14.75685061949349
 20
-9.542186257692321
 42
-0.2499167462797494
  0
ARC
  5
195
330
193
100
AcDbEntity
  8
0
  6
CONTINUOUS
100
AcDbCircle
 10
-0.9999999999998863
 20
11.97348486100872
 30
0.0
 40
0.9999999999998863
100
AcDbArc
 50
0.0000000000097707
 51
57.42102960720679
  0
LINE
  5
196
330
193
100
AcDbEntity
  8
0
  6
CONTINUOUS
100
AcDbLine
 10
-0.9000000000000909
 20
13.47320508075688
 30
0.0
 11
-2.90000000000009
 21
12.31850454237781
 31
0.0
  0
ARC
  5
197
330
193
100
AcDbEntity
  8
0
  6
CONTINUOUS
100
AcDbCircle
 10
-20.10000000000013
 20
-24.1613647377373
 30
0.0
 40
0.2999999999999545
100
AcDbArc
 50
180.0000000000271
 51
240.0000000000258
  0
ARC
  5
198
330
193
100
AcDbEntity
  8
0
  6
CONTINUOUS
100
AcDbCircle
 10
-19.14999999999997
 20
-24.76758252038632
 30
0.0
 40
0.9999999999998863
100
AcDbArc
 50
0.0000000000032569
 51
60.00000000000347
  0
LINE
  5
199
330
193
100
AcDbEntity
  8
0
  6
CONTINUOUS
100
AcDbLine
 10
-20.24999999999999
 20
-24.42117235887269
 30
0.0
 11
-19.54999999999995
 21
-24.82531754730541
 31
0.0
  0
LINE
  5
19A
330
193
100
AcDbEntity
  8
0
  6
CONTINUOUS
100
AcDbLine
 10
-19.40000000000009
 20
-25.08512516844064
 30
0.0
 11
-19.40000000000009
 21
-35.46854441470998
 31
0.0
  0
LINE
  5
19B
330
193
100
AcDbEntity
  8
0
  6
CONTINUOUS
100
AcDbLine
 10
-16.40000000000009
 20
-34.48704895708772
 30
0.0
 11
-16.40000000000009
 21
-33.50555349946523
 31
0.0
  0
LINE
  5
19C
330
193
100
AcDbEntity
  8
0
  6
CONTINUOUS
100
AcDbLine
 10
-16.70000000000027
 20
-33.33234841870842
 30
0.0
 11
-17.85000000000013
 21
-33.99630122827636
 31
0.0
  0
LINE
  5
19D
330
193
100
AcDbEntity
  8
0
  6
CONTINUOUS
100
AcDbLine
 10
-18.15000000000009
 20
-33.82309614751955
 30
0.0
 11
-18.15000000000009
 21
-24.76758252038632
 31
0.0
  0
ARC
  5
19E
330
193
100
AcDbEntity
  8
0
  6
CONTINUOUS
100
AcDbCircle
 10
-18.90000000000009
 20
-35.46854441470998
 30
0.0
 40
0.5
100
AcDbArc
 50
180.0
 51
299.9999999999972
  0
LINE
  5
19F
330
193
100
AcDbEntity
  8
0
  6
CONTINUOUS
100
AcDbLine
 10
-18.65000000000009
 20
-35.90155711660225
 30
0.0
 11
-16.5
 21
-34.66025403784476
 31
0.0
  0
ARC
  5
1A0
330
193
100
AcDbEntity
  8
0
  6
CONTINUOUS
100
AcDbCircle
 10
-16.60000000000013
 20
-34.48704895708783
 30
0.0
 40
0.2000000000000551
100
AcDbArc
 50
300.0000000000359
 51
0.0000000000488533
  0
ARC
  5
1A1
330
193
100
AcDbEntity
  8
0
  6
CONTINUOUS
100
AcDbCircle
 10
-17.95000000000015
 20
-33.82309614751949
 30
0.0
 40
0.1999999999999736
100
AcDbArc
 50
180.0000000000081
 51
300.0000000000119
  0
ARC
  5
1A2
330
193
100
AcDbEntity
  8
0
  6
CONTINUOUS
100
AcDbCircle
 10
-19.69999999999981
 20
-25.08512516844052
 30
0.0
 40
0.2999999999997398
100
AcDbArc
 50
359.9999999999782
 51
60.00000000000139
  0
ARC
  5
1A3
330
193
100
AcDbEntity
  8
0
  6
CONTINUOUS
100
AcDbCircle
 10
-16.60000000000013
 20
-33.50555349946529
 30
0.0
 40
0.2000000000000455
100
AcDbArc
 50
0.0000000000244267
 51
120.0000000000319
  0
LINE
  5
1A4
330
193
100
AcDbEntity
  8
0
  6
CONTINUOUS
100
AcDbLine
 10
-13.76142340055935
 20
-7.945221903015294
 30
0.0
 11
-0.8749950112718352
 21
-0.50518244561124
 31
0.0
  0
LINE
  5
1A5
330
193
100
AcDbEntity
  8
0
  6
CONTINUOUS
100
AcDbLine
 10
-1.5
 20
0.5773502691896511
 30
0.0
 11
-20.30000000000018
 21
-10.27683479157565
 31
0.0
  0
LINE
  5
1A6
330
193
100
AcDbEntity
  8
0
  6
CONTINUOUS
100
AcDbLine
 10
-20.40000000000009
 20
-10.45003987233246
 30
0.0
 11
-20.40000000000009
 21
-24.16136473773747
 31
0.0
  0
ARC
  5
1A7
330
193
100
AcDbEntity
  8
0
  6
CONTINUOUS
100
AcDbCircle
 10
-20.20000000000027
 20
-10.45003987233235
 30
0.0
 40
0.1999999999998429
100
AcDbArc
 50
119.9999999999958
 51
180.0000000000162
  0
LINE
  5
1A8
330
193
100
AcDbEntity
  8
0
  6
CONTINUOUS
100
AcDbLine
 10
-19.14999999999986
 20
-23.43967690125043
 30
0.0
 11
-19.15000000000009
 21
-11.1717277088195
 31
0.0
  0
LINE
  5
1A9
330
193
100
AcDbEntity
  8
0
  6
CONTINUOUS
100
AcDbLine
 10
-18.65000000000009
 20
-23.90155711660202
 30
0.0
 11
-19.0
 21
-23.69948452238566
 31
0.0
  0
ARC
  5
1AA
330
193
100
AcDbEntity
  8
0
  6
CONTINUOUS
100
AcDbCircle
 10
-18.85000000000002
 20
-23.43967690125043
 30
0.0
 40
0.2999999999998459
100
AcDbArc
 50
179.9999999999891
 51
239.999999999988
  0
ARC
  5
1AB
330
193
100
AcDbEntity
  8
0
  6
CONTINUOUS
100
AcDbCircle
 10
-18.95000000000004
 20
-11.17172770881927
 30
0.0
 40
0.2000000000000455
100
AcDbArc
 50
120.000000000036
 51
180.0000000000488
  0
LINE
  5
1AC
330
193
100
AcDbEntity
  8
0
  6
CONTINUOUS
100
AcDbLine
 10
-19.05000000000018
 20
-10.99852262806246
 30
0.0
 11
-17.05000000000018
 21
-9.843822089683158
 31
0.0
  0
ARC
  5
1AD
330
193
100
AcDbEntity
  8
0
  6
CONTINUOUS
100
AcDbCircle
 10
-16.95000000000004
 20
-10.01702717044003
 30
0.0
 40
0.2000000000000797
100
AcDbArc
 50
0.0000000000244267
 51
120.0000000000319
  0
LINE
  5
1AE
330
193
100
AcDbEntity
  8
0
  6
CONTINUOUS
100
AcDbLine
 10
-16.75
 20
-10.01702717043997
 30
0.0
 11
-16.75
 21
-11.879902700368
 31
0.0
  0
ARC
  5
1AF
330
193
100
AcDbEntity
  8
0
  6
CONTINUOUS
100
AcDbCircle
 10
-16.54999999999995
 20
-11.87990270036806
 30
0.0
 40
0.2000000000000455
100
AcDbArc
 50
179.9999999999755
 51
299.9999999999673
  0
LINE
  5
1B0
330
193
100
AcDbEntity
  8
0
  6
CONTINUOUS
100
AcDbLine
 10
-16.45000000000004
 20
-12.05310778112504
 30
0.0
 11
-16.25
 21
-11.93763772728686
 31
0.0
  0
ARC
  5
1B1
330
193
100
AcDbEntity
  8
0
  6
CONTINUOUS
100
AcDbCircle
 10
-17.75
 20
-9.33956151593361
 30
0.0
 40
2.999999999999901
100
AcDbArc
 50
300.000000000001
 51
356.1272041472167
  0
ARC
  5
1B2
330
193
100
AcDbEntity
  8
0
  6
CONTINUOUS
100
AcDbCircle
 10
-12.76141769915557
 20
-9.677269418864739
 30
0.0
 40
2.000000000000105
100
AcDbArc
 50
120.000188601096
 51
176.1272041472186
  0
LINE
  5
1B3
330
193
100
AcDbEntity
  8
0
  6
CONTINUOUS
100
AcDbLine
 10
0.0
 20
1.010359130757024
 30
0.0
 11
0.0
 21
11.97348486100884
 31
0.0
  0
LINE
  5
1B4
330
193
100
AcDbEntity
  8
0
  6
CONTINUOUS
100
AcDbLine
 10
-1.25
 20
11.308141571296
 30
0.0
 11
-1.25
 21
1.01036297108169
 31
0.0
  0
ARC
  5
1B5
330
193
100
AcDbEntity
  8
0
  6
CONTINUOUS
100
AcDbCircle
 10
-1.750000000000113
 20
1.010359130757024
 30
0.0
 40
1.750000000000107
100
AcDbArc
 50
300.0001886010993
 51
0.0000000000037222
  0
ARC
  5
1B6
330
193
100
AcDbEntity
  8
0
  6
CONTINUOUS
100
AcDbCircle
 10
-1.749999999999772
 20
1.010362971081804
 30
0.0
 40
0.4999999999997727
100
AcDbArc
 50
299.9999999999829
 51
359.9999999999902
  0
ARC
  5
1B7
330
193
100
AcDbEntity
  8
0
  6
CONTINUOUS
100
AcDbCircle
 10
-2.799999999999954
 20
12.14529946162099
 30
0.0
 40
0.2000000000000551
100
AcDbArc
 50
120.000000000036
 51
180.0000000000488
  0
LINE
  5
1B8
330
193
100
AcDbEntity
  8
0
  6
CONTINUOUS
100
AcDbLine
 10
-3.0
 20
12.14529946162076
 30
0.0
 11
-3.0
 21
11.1638040039985
 31
0.0
  0
ARC
  5
1B9
330
193
100
AcDbEntity
  8
0
  6
CONTINUOUS
100
AcDbCircle
 10
-2.800000000000068
 20
11.16380400399856
 30
0.0
 40
0.1999999999999318
100
AcDbArc
 50
180.0000000000081
 51
300.0000000000119
  0
LINE
  5
1BA
330
193
100
AcDbEntity
  8
0
  6
CONTINUOUS
100
AcDbLine
 10
-2.700000000000045
 20
10.99059892324169
 30
0.0
 11
-1.699999999999818
 21
11.56794919243122
 31
0.0
  0
ARC
  5
1BB
330
193
100
AcDbEntity
  8
0
  6
CONTINUOUS
100
AcDbCircle
 10
-1.549999999999954
 20
11.308141571296
 30
0.0
 40
0.2999999999998383
100
AcDbArc
 50
0.0
 51
119.9999999999877
  0
ARC
  5
1BC
330
193
100
AcDbEntity
  8
0
  6
CONTINUOUS
100
AcDbCircle
 10
-0.2999999999999545
 20
13.06892997601892
 30
0.0
 40
0.3000000000000024
100
AcDbArc
 50
179.9999999999565
 51
237.421029607162
  0
LINE
  5
1BD
330
193
100
AcDbEntity
  8
0
  6
CONTINUOUS
100
AcDbLine
 10
-0.5999999999999091
 20
13.06892997601915
 30
0.0
 11
-0.5999999999999091
 21
13.29999999999984
 31
0.0
  0
ARC
  5
1BE
330
193
100
AcDbEntity
  8
0
  6
CONTINUOUS
100
AcDbCircle
 10
-0.8000000000000682
 20
13.29999999999984
 30
0.0
 40
0.2000000000001592
100
AcDbArc
 50
0.0
 51
119.9999999999833
  0
ENDBLK
  5
1C0
330
193
100
AcDbEntity
  8
0
100
AcDbBlockEnd
  0
BLOCK
  5
390
330
361
100
AcDbEntity
  8
0
100
AcDbBlockBegin
  2
P-7030
 70
     0
 10
0.0
 20
0.0
 30
0.0
  3
P-7030
  1

  0
LWPOLYLINE
  5
362
330
361
100
AcDbEntity
  8
0
 62
    10
100
AcDbPolyline
 90
       44
 70
     1
 43
0.0
 10
20.0
 20
-15.96098201300515
 10
2.299999999999954
 20
-22.49226342000145
 42
-0.4142135623731506
 10
2.0
 20
-22.19226342000149
 10
2.0
 20
-7.499999999999886
 10
6.700000000000045
 20
-7.5
 10
6.700000000000045
 20
-5.5
 10
1.5
 20
-5.499999999999886
 10
1.5
 20
-1.500000000000568
 10
4.333974596215284
 20
-1.499999999999317
 42
1.732050807569529
 10
5.200000000000045
 20
0.0
 10
0.0
 20
0.0
 10
0.0
 20
-19.15307830116228
 10
0.5
 20
-19.65307830116216
 10
0.0
 20
-20.15307830116217
 10
0.0
 20
-23.13188823812231
 42
-0.3140807141289278
 10
-0.1961451951653998
 20
-23.41333837493664
 10
-7.330913413909229
 20
-26.04606035292011
 42
0.3140807141289551
 10
-10.5999999999999
 20
-30.73689596649137
 10
-10.5999999999999
 20
-39.04999999929862
 42
1.0
 10
-9.100000000000136
 20
-39.04999999929862
 10
-9.100000000000136
 20
-30.73689596649149
 42
-0.3140807141289535
 10
-6.811639389736683
 20
-27.45331103699163
 10
-0.6730913413912277
 20
-25.18819325540323
 42
-0.521976525867906
 10
-0.0000000000002274
 20
-25.65727681676037
 10
0.0
 20
-36.49999999929866
 42
0.4142135623732062
 10
0.3000000000001819
 20
-36.79999999929862
 10
1.700000000000045
 20
-36.79999999929862
 42
0.4142135623731506
 10
2.0
 20
-36.49999999929866
 10
2.0
 20
-33.43112878469833
 10
1.5
 20
-32.93112878469822
 10
2.0
 20
-32.43112878469833
 10
2.0
 20
-24.61997089006331
 42
-0.3140807141289586
 10
2.392290390330799
 20
-24.05707061643477
 10
20.81927402417295
 20
-17.2575330122122
 42
0.3140807141289622
 10
21.80000000000018
 20
-15.85028232814079
 10
21.79999999999995
 20
-7.800000000001432
 42
0.4142135623730951
 10
21.49999999999999
 20
-7.500000000001477
 10
19.80000000000018
 20
-7.50000000000125
 42
0.4142135623731506
 10
19.5
 20
-7.800000000001205
 10
19.5
 20
-8.700000000001182
 42
0.4142135623730397
 10
19.79999999999995
 20
-9.00000000000125
 10
20.0
 20
-9.00000000000125
 42
-0.4142135623730951
 10
20.30000000000018
 20
-9.300000000001205
 10
20.30000000000018
 20
-15.66098201300508
 42
-0.4142135623730397
1001
ACAD
1000
ASC_BOUNDS
1002
{
1070
    19
1002
}
  0
ENDBLK
  5
391
330
361
100
AcDbEntity
  8
0
100
AcDbBlockEnd
  0
BLOCK
  5
BE8
330
3B4
100
AcDbEntity
  8
0
100
AcDbBlockBegin
  2
*D7
 70
     1
 10
0.0
 20
0.0
 30
0.0
  3
*D7
  1

  0
LINE
  5
1A10
330
3B4
100
AcDbEntity
  8
M
 62
     0
100
AcDbLine
 10
1843.089904810454
 20
508.2580421520877
 30
0.0
 11
1823.389904810454
 21
508.2580421520877
 31
0.0
  0
LINE
  5
1A11
330
3B4
100
AcDbEntity
  8
M
 62
     0
100
AcDbLine
 10
1843.489904810454
 20
527.896332528953
 30
0.0
 11
1823.389904810454
 21
527.896332528953
 31
0.0
  0
LINE
  5
1A12
330
3B4
100
AcDbEntity
  8
M
 62
     0
100
AcDbLine
 10
1824.389904810454
 20
511.0080421520877
 30
0.0
 11
1824.389904810455
 21
525.146332528953
 31
0.0
  0
SOLID
  5
1A13
330
3B4
100
AcDbEntity
  8
M
 62
     0
100
AcDbTrace
 10
1823.931571477121
 20
511.0080421520877
 30
0.0
 11
1824.848238143787
 21
511.0080421520877
 31
0.0
 12
1824.389904810454
 22
508.2580421520877
 32
0.0
 13
1824.389904810454
 23
508.2580421520877
 33
0.0
  0
SOLID
  5
1A14
330
3B4
100
AcDbEntity
  8
M
 62
     0
100
AcDbTrace
 10
1823.931571477121
 20
525.146332528953
 30
0.0
 11
1824.848238143788
 21
525.146332528953
 31
0.0
 12
1824.389904810455
 22
527.896332528953
 32
0.0
 13
1824.389904810455
 23
527.896332528953
 33
0.0
  0
MTEXT
  5
1A15
330
3B4
100
AcDbEntity
  8
M
 62
     0
100
AcDbMText
 10
1821.639904810454
 20
518.0771873405206
 30
0.0
 40
3.5
 41
0.0
 71
     5
 72
     1
  1
\A1;20
 11
0.0000000000000001
 21
1.0
 31
0.0
1001
ACAD
1000
MTEXTBEGIN
1070
    73
1070
     1
1070
    44
1040
1.0
1070
    74
1070
     0
1000
MTEXTEND
1000
MTEXTBEGIN
1070
    73
1070
     1
1070
    44
1040
1.0
1070
    74
1070
     0
1000
MTEXTEND
  0
POINT
  5
1A16
330
3B4
100
AcDbEntity
  8
DEFPOINTS
 62
     0
100
AcDbPoint
 10
1844.089904810454
 20
508.2580421520877
 30
0.0
  0
POINT
  5
1A17
330
3B4
100
AcDbEntity
  8
DEFPOINTS
 62
     0
100
AcDbPoint
 10
1844.489904810454
 20
527.896332528953
 30
0.0
  0
POINT
  5
1A18
330
3B4
100
AcDbEntity
  8
DEFPOINTS
 62
     0
100
AcDbPoint
 10
1824.389904810455
 20
527.896332528953
 30
0.0
  0
ENDBLK
  5
BF2
330
3B4
100
AcDbEntity
  8
0
100
AcDbBlockEnd
  0
BLOCK
  5
C2B
330
3C0
100
AcDbEntity
  8
0
100
AcDbBlockBegin
  2
*D8
 70
     1
 10
0.0
 20
0.0
 30
0.0
  3
*D8
  1

  0
LINE
  5
1907
330
3C0
100
AcDbEntity
  8
M
 62
     0
100
AcDbLine
 10
1872.389904810455
 20
609.6103071251686
 30
0.0
 11
1888.389904810458
 21
609.6103071251686
 31
0.0
  0
LINE
  5
1908
330
3C0
100
AcDbEntity
  8
M
 62
     0
100
AcDbLine
 10
1872.389904810461
 20
411.3281940539568
 30
0.0
 11
1888.389904810458
 21
411.3281940539568
 31
0.0
  0
LINE
  5
1909
330
3C0
100
AcDbEntity
  8
M
 62
     0
100
AcDbLine
 10
1887.389904810458
 20
606.8603071251686
 30
0.0
 11
1887.389904810458
 21
414.0781940539568
 31
0.0
  0
SOLID
  5
190A
330
3C0
100
AcDbEntity
  8
M
 62
     0
100
AcDbTrace
 10
1886.931571477125
 20
606.8603071251686
 30
0.0
 11
1887.848238143791
 21
606.8603071251686
 31
0.0
 12
1887.389904810458
 22
609.6103071251686
 32
0.0
 13
1887.389904810458
 23
609.6103071251686
 33
0.0
  0
SOLID
  5
190B
330
3C0
100
AcDbEntity
  8
M
 62
     0
100
AcDbTrace
 10
1886.931571477125
 20
414.0781940539568
 30
0.0
 11
1887.848238143791
 21
414.0781940539568
 31
0.0
 12
1887.389904810458
 22
411.3281940539568
 32
0.0
 13
1887.389904810458
 23
411.3281940539568
 33
0.0
  0
MTEXT
  5
190C
330
3C0
100
AcDbEntity
  8
M
 62
     0
100
AcDbMText
 10
1884.639904810458
 20
510.4692505895631
 30
0.0
 40
3.5
 41
0.0
 71
     5
 72
     1
  1
\A1;H
 11
0.0000000000000001
 21
1.0
 31
0.0
1001
ACAD
1000
MTEXTBEGIN
1070
    73
1070
     1
1070
    44
1040
1.0
1070
    74
1070
     0
1000
MTEXTEND
1000
MTEXTBEGIN
1070
    73
1070
     1
1070
    44
1040
1.0
1070
    74
1070
     0
1000
MTEXTEND
  0
POINT
  5
190D
330
3C0
100
AcDbEntity
  8
DEFPOINTS
 62
     0
100
AcDbPoint
 10
1871.389904810454
 20
609.6103071251686
 30
0.0
  0
POINT
  5
190E
330
3C0
100
AcDbEntity
  8
DEFPOINTS
 62
     0
100
AcDbPoint
 10
1871.389904810461
 20
411.3281940539568
 30
0.0
  0
POINT
  5
190F
330
3C0
100
AcDbEntity
  8
DEFPOINTS
 62
     0
100
AcDbPoint
 10
1887.389904810458
 20
411.3281940539568
 30
0.0
  0
ENDBLK
  5
C35
330
3C0
100
AcDbEntity
  8
0
100
AcDbBlockEnd
  0
BLOCK
  5
C14
330
3CC
100
AcDbEntity
  8
0
100
AcDbBlockBegin
  2
*D9
 70
     1
 10
0.0
 20
0.0
 30
0.0
  3
*D9
  1

  0
LINE
  5
19BD
330
3CC
100
AcDbEntity
  8
M
 62
     0
100
AcDbLine
 10
1844.389904810461
 20
389.3796903822438
 30
0.0
 11
1844.389904810461
 21
373.8142602007381
 31
0.0
  0
LINE
  5
19BE
330
3CC
100
AcDbEntity
  8
M
 62
     0
100
AcDbLine
 10
1872.889904810461
 20
413.6108842520655
 30
0.0
 11
1872.889904810461
 21
373.8142602007381
 31
0.0
  0
LINE
  5
19BF
330
3CC
100
AcDbEntity
  8
M
 62
     0
100
AcDbLine
 10
1847.139904810461
 20
374.8142602007381
 30
0.0
 11
1870.139904810461
 21
374.8142602007381
 31
0.0
  0
SOLID
  5
19C0
330
3CC
100
AcDbEntity
  8
M
 62
     0
100
AcDbTrace
 10
1847.139904810461
 20
375.2725935340714
 30
0.0
 11
1847.139904810461
 21
374.3559268674048
 31
0.0
 12
1844.389904810461
 22
374.8142602007381
 32
0.0
 13
1844.389904810461
 23
374.8142602007381
 33
0.0
  0
SOLID
  5
19C1
330
3CC
100
AcDbEntity
  8
M
 62
     0
100
AcDbTrace
 10
1870.139904810461
 20
375.2725935340714
 30
0.0
 11
1870.139904810461
 21
374.3559268674048
 31
0.0
 12
1872.889904810461
 22
374.8142602007381
 32
0.0
 13
1872.889904810461
 23
374.8142602007381
 33
0.0
  0
MTEXT
  5
19C2
330
3CC
100
AcDbEntity
  8
M
 62
     0
100
AcDbMText
 10
1858.639904810461
 20
377.5642602007381
 30
0.0
 40
3.5
 41
0.0
 71
     5
 72
     1
  1
\A1;28.5
1001
ACAD
1000
MTEXTBEGIN
1070
    73
1070
     1
1070
    44
1040
1.0
1070
    74
1070
     0
1000
MTEXTEND
1000
MTEXTBEGIN
1070
    73
1070
     1
1070
    44
1040
1.0
1070
    74
1070
     0
1000
MTEXTEND
  0
POINT
  5
19C3
330
3CC
100
AcDbEntity
  8
DEFPOINTS
 62
     0
100
AcDbPoint
 10
1844.389904810461
 20
390.3796903822438
 30
0.0
  0
POINT
  5
19C4
330
3CC
100
AcDbEntity
  8
DEFPOINTS
 62
     0
100
AcDbPoint
 10
1872.889904810461
 20
414.6108842520655
 30
0.0
  0
POINT
  5
19C5
330
3CC
100
AcDbEntity
  8
DEFPOINTS
 62
     0
100
AcDbPoint
 10
1872.889904810461
 20
374.8142602007381
 30
0.0
  0
ENDBLK
  5
C1E
330
3CC
100
AcDbEntity
  8
0
100
AcDbBlockEnd
  0
BLOCK
  5
C1F
330
3D8
100
AcDbEntity
  8
0
100
AcDbBlockBegin
  2
*D10
 70
     1
 10
0.0
 20
0.0
 30
0.0
  3
*D10
  1

  0
LINE
  5
19EB
330
3D8
100
AcDbEntity
  8
M
 62
     0
100
AcDbLine
 10
1844.389904810461
 20
387.014260200738
 30
0.0
 11
1844.389904810461
 21
373.8142602007381
 31
0.0
  0
LINE
  5
19EC
330
3D8
100
AcDbEntity
  8
M
 62
     0
100
AcDbLine
 10
1839.389904810461
 20
390.6108842520655
 30
0.0
 11
1839.389904810461
 21
373.8142602007381
 31
0.0
  0
LINE
  5
19ED
330
3D8
100
AcDbEntity
  8
M
 62
     0
100
AcDbLine
 10
1847.139904810461
 20
374.8142602007381
 30
0.0
 11
1849.889904810461
 21
374.8142602007381
 31
0.0
  0
LINE
  5
19EE
330
3D8
100
AcDbEntity
  8
M
 62
     0
100
AcDbLine
 10
1836.639904810461
 20
374.8142602007381
 30
0.0
 11
1833.889904810461
 21
374.8142602007381
 31
0.0
  0
SOLID
  5
19EF
330
3D8
100
AcDbEntity
  8
M
 62
     0
100
AcDbTrace
 10
1847.139904810461
 20
375.2725935340714
 30
0.0
 11
1847.139904810461
 21
374.3559268674048
 31
0.0
 12
1844.389904810461
 22
374.8142602007381
 32
0.0
 13
1844.389904810461
 23
374.8142602007381
 33
0.0
  0
SOLID
  5
19F0
330
3D8
100
AcDbEntity
  8
M
 62
     0
100
AcDbTrace
 10
1836.639904810461
 20
375.2725935340714
 30
0.0
 11
1836.639904810461
 21
374.3559268674048
 31
0.0
 12
1839.389904810461
 22
374.8142602007381
 32
0.0
 13
1839.389904810461
 23
374.8142602007381
 33
0.0
  0
MTEXT
  5
19F1
330
3D8
100
AcDbEntity
  8
M
 62
     0
100
AcDbMText
 10
1841.889904810461
 20
377.5642602007381
 30
0.0
 40
3.5
 41
0.0
 71
     5
 72
     1
  1
\A1;5
1001
ACAD
1000
MTEXTBEGIN
1070
    73
1070
     1
1070
    44
1040
1.0
1070
    74
1070
     0
1000
MTEXTEND
1000
MTEXTBEGIN
1070
    73
1070
     1
1070
    44
1040
1.0
1070
    74
1070
     0
1000
MTEXTEND
  0
POINT
  5
19F2
330
3D8
100
AcDbEntity
  8
DEFPOINTS
 62
     0
100
AcDbPoint
 10
1844.389904810461
 20
388.0142602007381
 30
0.0
  0
POINT
  5
19F3
330
3D8
100
AcDbEntity
  8
DEFPOINTS
 62
     0
100
AcDbPoint
 10
1839.389904810461
 20
391.6108842520655
 30
0.0
  0
POINT
  5
19F4
330
3D8
100
AcDbEntity
  8
DEFPOINTS
 62
     0
100
AcDbPoint
 10
1839.389904810461
 20
374.8142602007381
 30
0.0
  0
ENDBLK
  5
C2A
330
3D8
100
AcDbEntity
  8
0
100
AcDbBlockEnd
  0
BLOCK
  5
BF3
330
3E5
100
AcDbEntity
  8
0
100
AcDbBlockBegin
  2
*D11
 70
     1
 10
0.0
 20
0.0
 30
0.0
  3
*D11
  1

  0
LINE
  5
19B4
330
3E5
100
AcDbEntity
  8
M
 62
     0
100
AcDbLine
 10
1842.389904810461
 20
411.0608842520655
 30
0.0
 11
1823.389904810457
 21
411.0608842520655
 31
0.0
  0
LINE
  5
19B5
330
3E5
100
AcDbEntity
  8
M
 62
     0
100
AcDbLine
 10
1843.189904810461
 20
390.1796903822439
 30
0.0
 11
1823.389904810457
 21
390.1796903822439
 31
0.0
  0
LINE
  5
19B6
330
3E5
100
AcDbEntity
  8
M
 62
     0
100
AcDbLine
 10
1824.389904810457
 20
408.3108842520656
 30
0.0
 11
1824.389904810457
 21
392.9296903822439
 31
0.0
  0
SOLID
  5
19B7
330
3E5
100
AcDbEntity
  8
M
 62
     0
100
AcDbTrace
 10
1823.931571477124
 20
408.3108842520656
 30
0.0
 11
1824.84823814379
 21
408.3108842520656
 31
0.0
 12
1824.389904810457
 22
411.0608842520655
 32
0.0
 13
1824.389904810457
 23
411.0608842520655
 33
0.0
  0
SOLID
  5
19B8
330
3E5
100
AcDbEntity
  8
M
 62
     0
100
AcDbTrace
 10
1823.931571477124
 20
392.9296903822439
 30
0.0
 11
1824.84823814379
 21
392.9296903822439
 31
0.0
 12
1824.389904810457
 22
390.1796903822439
 32
0.0
 13
1824.389904810457
 23
390.1796903822439
 33
0.0
  0
MTEXT
  5
19B9
330
3E5
100
AcDbEntity
  8
M
 62
     0
100
AcDbMText
 10
1821.639904810457
 20
400.620287317155
 30
0.0
 40
3.5
 41
0.0
 71
     5
 72
     1
  1
\A1;21
 11
0.0000000000000001
 21
1.0
 31
0.0
1001
ACAD
1000
MTEXTBEGIN
1070
    73
1070
     1
1070
    44
1040
1.0
1070
    74
1070
     0
1000
MTEXTEND
1000
MTEXTBEGIN
1070
    73
1070
     1
1070
    44
1040
1.0
1070
    74
1070
     0
1000
MTEXTEND
  0
POINT
  5
19BA
330
3E5
100
AcDbEntity
  8
DEFPOINTS
 62
     0
100
AcDbPoint
 10
1843.389904810461
 20
411.0608842520655
 30
0.0
  0
POINT
  5
19BB
330
3E5
100
AcDbEntity
  8
DEFPOINTS
 62
     0
100
AcDbPoint
 10
1844.189904810461
 20
390.1796903822439
 30
0.0
  0
POINT
  5
19BC
330
3E5
100
AcDbEntity
  8
DEFPOINTS
 62
     0
100
AcDbPoint
 10
1824.389904810457
 20
390.1796903822439
 30
0.0
  0
ENDBLK
  5
BFD
330
3E5
100
AcDbEntity
  8
0
100
AcDbBlockEnd
  0
BLOCK
  5
C09
330
3F1
100
AcDbEntity
  8
0
100
AcDbBlockBegin
  2
*D12
 70
     1
 10
0.0
 20
0.0
 30
0.0
  3
*D12
  1

  0
LINE
  5
18F5
330
3F1
100
AcDbEntity
  8
M
 62
     0
100
AcDbLine
 10
1843.189904810455
 20
630.4915009949905
 30
0.0
 11
1823.389904810454
 21
630.4915009949905
 31
0.0
  0
LINE
  5
18F6
330
3F1
100
AcDbEntity
  8
M
 62
     0
100
AcDbLine
 10
1838.389904810455
 20
604.0603071251687
 30
0.0
 11
1823.389904810454
 21
604.0603071251687
 31
0.0
  0
LINE
  5
18F7
330
3F1
100
AcDbEntity
  8
M
 62
     0
100
AcDbLine
 10
1824.389904810455
 20
627.7415009949905
 30
0.0
 11
1824.389904810455
 21
606.8103071251687
 31
0.0
  0
SOLID
  5
18F8
330
3F1
100
AcDbEntity
  8
M
 62
     0
100
AcDbTrace
 10
1823.931571477121
 20
627.7415009949905
 30
0.0
 11
1824.848238143788
 21
627.7415009949905
 31
0.0
 12
1824.389904810455
 22
630.4915009949905
 32
0.0
 13
1824.389904810455
 23
630.4915009949905
 33
0.0
  0
SOLID
  5
18F9
330
3F1
100
AcDbEntity
  8
M
 62
     0
100
AcDbTrace
 10
1823.931571477121
 20
606.8103071251687
 30
0.0
 11
1824.848238143788
 21
606.8103071251687
 31
0.0
 12
1824.389904810455
 22
604.0603071251687
 32
0.0
 13
1824.389904810455
 23
604.0603071251687
 33
0.0
  0
MTEXT
  5
18FA
330
3F1
100
AcDbEntity
  8
M
 62
     0
100
AcDbMText
 10
1821.306571477121
 20
617.2759040600799
 30
0.0
 40
3.5
 41
0.0
 71
     5
 72
     1
  1
\A1;26,5
 11
0.0000000000000001
 21
1.0
 31
0.0
1001
ACAD
1000
MTEXTBEGIN
1070
    73
1070
     1
1070
    44
1040
1.0
1070
    74
1070
     0
1000
MTEXTEND
1000
MTEXTBEGIN
1070
    73
1070
     1
1070
    44
1040
1.0
1070
    74
1070
     0
1000
MTEXTEND
  0
POINT
  5
18FB
330
3F1
100
AcDbEntity
  8
DEFPOINTS
 62
     0
100
AcDbPoint
 10
1844.189904810455
 20
630.4915009949905
 30
0.0
  0
POINT
  5
18FC
330
3F1
100
AcDbEntity
  8
DEFPOINTS
 62
     0
100
AcDbPoint
 10
1839.389904810454
 20
604.0603071251687
 30
0.0
  0
POINT
  5
18FD
330
3F1
100
AcDbEntity
  8
DEFPOINTS
 62
     0
100
AcDbPoint
 10
1824.389904810455
 20
604.0603071251687
 30
0.0
  0
ENDBLK
  5
C13
330
3F1
100
AcDbEntity
  8
0
100
AcDbBlockEnd
  0
BLOCK
  5
C57
330
3FD
100
AcDbEntity
  8
0
100
AcDbBlockBegin
  2
*D13
 70
     1
 10
0.0
 20
0.0
 30
0.0
  3
*D13
  1

  0
LINE
  5
18FE
330
3FD
100
AcDbEntity
  8
M
 62
     0
100
AcDbLine
 10
1839.389904810454
 20
630.0603071251686
 30
0.0
 11
1839.389904810454
 21
646.1260708134848
 31
0.0
  0
LINE
  5
18FF
330
3FD
100
AcDbEntity
  8
M
 62
     0
100
AcDbLine
 10
1872.889904810454
 20
607.0603071251687
 30
0.0
 11
1872.889904810454
 21
646.1260708134848
 31
0.0
  0
LINE
  5
1900
330
3FD
100
AcDbEntity
  8
M
 62
     0
100
AcDbLine
 10
1842.139904810454
 20
645.1260708134848
 30
0.0
 11
1870.139904810455
 21
645.1260708134848
 31
0.0
  0
SOLID
  5
1901
330
3FD
100
AcDbEntity
  8
M
 62
     0
100
AcDbTrace
 10
1842.139904810454
 20
645.5844041468182
 30
0.0
 11
1842.139904810454
 21
644.6677374801514
 31
0.0
 12
1839.389904810454
 22
645.1260708134848
 32
0.0
 13
1839.389904810454
 23
645.1260708134848
 33
0.0
  0
SOLID
  5
1902
330
3FD
100
AcDbEntity
  8
M
 62
     0
100
AcDbTrace
 10
1870.139904810455
 20
645.5844041468182
 30
0.0
 11
1870.139904810455
 21
644.6677374801514
 31
0.0
 12
1872.889904810454
 22
645.1260708134848
 32
0.0
 13
1872.889904810454
 23
645.1260708134848
 33
0.0
  0
MTEXT
  5
1903
330
3FD
100
AcDbEntity
  8
M
 62
     0
100
AcDbMText
 10
1856.139904810454
 20
647.8760708134848
 30
0.0
 40
3.5
 41
0.0
 71
     5
 72
     1
  1
\A1;33.5
1001
ACAD
1000
MTEXTBEGIN
1070
    73
1070
     1
1070
    44
1040
1.0
1070
    74
1070
     0
1000
MTEXTEND
1000
MTEXTBEGIN
1070
    73
1070
     1
1070
    44
1040
1.0
1070
    74
1070
     0
1000
MTEXTEND
  0
POINT
  5
1904
330
3FD
100
AcDbEntity
  8
DEFPOINTS
 62
     0
100
AcDbPoint
 10
1839.389904810454
 20
629.0603071251687
 30
0.0
  0
POINT
  5
1905
330
3FD
100
AcDbEntity
  8
DEFPOINTS
 62
     0
100
AcDbPoint
 10
1872.889904810454
 20
606.0603071251687
 30
0.0
  0
POINT
  5
1906
330
3FD
100
AcDbEntity
  8
DEFPOINTS
 62
     0
100
AcDbPoint
 10
1872.889904810454
 20
645.1260708134848
 30
0.0
  0
ENDBLK
  5
C61
330
3FD
100
AcDbEntity
  8
0
100
AcDbBlockEnd
  0
BLOCK
  5
BFE
330
409
100
AcDbEntity
  8
0
100
AcDbBlockBegin
  2
*D14
 70
     1
 10
0.0
 20
0.0
 30
0.0
  3
*D14
  1

  0
LINE
  5
1A07
330
409
100
AcDbEntity
  8
M
 62
     0
100
AcDbLine
 10
1843.489904810454
 20
561.2263325289531
 30
0.0
 11
1823.389904810454
 21
561.2263325289531
 31
0.0
  0
LINE
  5
1A08
330
409
100
AcDbEntity
  8
M
 62
     0
100
AcDbLine
 10
1843.489904810454
 20
527.896332528953
 30
0.0
 11
1823.389904810454
 21
527.896332528953
 31
0.0
  0
LINE
  5
1A09
330
409
100
AcDbEntity
  8
M
 62
     0
100
AcDbLine
 10
1824.389904810455
 20
558.4763325289531
 30
0.0
 11
1824.389904810455
 21
530.646332528953
 31
0.0
  0
SOLID
  5
1A0A
330
409
100
AcDbEntity
  8
M
 62
     0
100
AcDbTrace
 10
1823.931571477121
 20
558.4763325289531
 30
0.0
 11
1824.848238143788
 21
558.4763325289531
 31
0.0
 12
1824.389904810455
 22
561.2263325289531
 32
0.0
 13
1824.389904810455
 23
561.2263325289531
 33
0.0
  0
SOLID
  5
1A0B
330
409
100
AcDbEntity
  8
M
 62
     0
100
AcDbTrace
 10
1823.931571477121
 20
530.646332528953
 30
0.0
 11
1824.848238143788
 21
530.646332528953
 31
0.0
 12
1824.389904810455
 22
527.896332528953
 32
0.0
 13
1824.389904810455
 23
527.896332528953
 33
0.0
  0
MTEXT
  5
1A0C
330
409
100
AcDbEntity
  8
M
 62
     0
100
AcDbMText
 10
1821.306571477121
 20
544.5613325289534
 30
0.0
 40
3.5
 41
0.0
 71
     5
 72
     1
  1
\A1;33,5
 11
0.0000000000000001
 21
1.0
 31
0.0
1001
ACAD
1000
MTEXTBEGIN
1070
    73
1070
     1
1070
    44
1040
1.0
1070
    74
1070
     0
1000
MTEXTEND
1000
MTEXTBEGIN
1070
    73
1070
     1
1070
    44
1040
1.0
1070
    74
1070
     0
1000
MTEXTEND
  0
POINT
  5
1A0D
330
409
100
AcDbEntity
  8
DEFPOINTS
 62
     0
100
AcDbPoint
 10
1844.489904810454
 20
561.2263325289531
 30
0.0
  0
POINT
  5
1A0E
330
409
100
AcDbEntity
  8
DEFPOINTS
 62
     0
100
AcDbPoint
 10
1844.489904810454
 20
527.896332528953
 30
0.0
  0
POINT
  5
1A0F
330
409
100
AcDbEntity
  8
DEFPOINTS
 62
     0
100
AcDbPoint
 10
1824.389904810455
 20
527.896332528953
 30
0.0
  0
ENDBLK
  5
C08
330
409
100
AcDbEntity
  8
0
100
AcDbBlockEnd
  0
BLOCK
  5
AC6
330
ABA
100
AcDbEntity
  8
0
100
AcDbBlockBegin
  2
*D15
 70
     1
 10
0.0
 20
0.0
 30
0.0
  3
*D15
  1

  0
LINE
  5
1958
330
ABA
100
AcDbEntity
  8
M
 62
     0
100
AcDbLine
 10
1481.54385340825
 20
630.030133990916
 30
0.0
 11
1481.54385340825
 21
646.1260708134848
 31
0.0
  0
LINE
  5
1959
330
ABA
100
AcDbEntity
  8
M
 62
     0
100
AcDbLine
 10
1515.144430522426
 20
607.0603071251687
 30
0.0
 11
1515.144430522426
 21
646.1260708134848
 31
0.0
  0
LINE
  5
195A
330
ABA
100
AcDbEntity
  8
M
 62
     0
100
AcDbLine
 10
1484.29385340825
 20
645.1260708134848
 30
0.0
 11
1512.394430522426
 21
645.1260708134848
 31
0.0
  0
SOLID
  5
195B
330
ABA
100
AcDbEntity
  8
M
 62
     0
100
AcDbTrace
 10
1484.29385340825
 20
645.5844041468182
 30
0.0
 11
1484.29385340825
 21
644.6677374801514
 31
0.0
 12
1481.54385340825
 22
645.1260708134848
 32
0.0
 13
1481.54385340825
 23
645.1260708134848
 33
0.0
  0
SOLID
  5
195C
330
ABA
100
AcDbEntity
  8
M
 62
     0
100
AcDbTrace
 10
1512.394430522426
 20
645.5844041468182
 30
0.0
 11
1512.394430522426
 21
644.6677374801514
 31
0.0
 12
1515.144430522426
 22
645.1260708134848
 32
0.0
 13
1515.144430522426
 23
645.1260708134848
 33
0.0
  0
MTEXT
  5
195D
330
ABA
100
AcDbEntity
  8
M
 62
     0
100
AcDbMText
 10
1498.344141965338
 20
647.8760708134848
 30
0.0
 40
3.5
 41
0.0
 71
     5
 72
     1
  1
\A1;33.5
1001
ACAD
1000
MTEXTBEGIN
1070
    73
1070
     1
1070
    44
1040
1.0
1070
    74
1070
     0
1000
MTEXTEND
1000
MTEXTBEGIN
1070
    73
1070
     1
1070
    44
1040
1.0
1070
    74
1070
     0
1000
MTEXTEND
  0
POINT
  5
195E
330
ABA
100
AcDbEntity
  8
DEFPOINTS
 62
     0
100
AcDbPoint
 10
1481.54385340825
 20
629.030133990916
 30
0.0
  0
POINT
  5
195F
330
ABA
100
AcDbEntity
  8
DEFPOINTS
 62
     0
100
AcDbPoint
 10
1515.144430522426
 20
606.0603071251687
 30
0.0
  0
POINT
  5
1960
330
ABA
100
AcDbEntity
  8
DEFPOINTS
 62
     0
100
AcDbPoint
 10
1515.144430522426
 20
645.1260708134848
 30
0.0
  0
ENDBLK
  5
AD0
330
ABA
100
AcDbEntity
  8
0
100
AcDbBlockEnd
  0
BLOCK
  5
AD2
330
AD1
100
AcDbEntity
  8
0
100
AcDbBlockBegin
  2
*D16
 70
     1
 10
0.0
 20
0.0
 30
0.0
  3
*D16
  1

  0
LINE
  5
194F
330
AD1
100
AcDbEntity
  8
M
 62
     0
100
AcDbLine
 10
1485.563816628354
 20
630.4519595806485
 30
0.0
 11
1465.644430522426
 21
630.4519595806485
 31
0.0
  0
LINE
  5
1950
330
AD1
100
AcDbEntity
  8
M
 62
     0
100
AcDbLine
 10
1480.644430522426
 20
604.0603071251687
 30
0.0
 11
1465.644430522426
 21
604.0603071251687
 31
0.0
  0
LINE
  5
1951
330
AD1
100
AcDbEntity
  8
M
 62
     0
100
AcDbLine
 10
1466.644430522426
 20
627.7019595806485
 30
0.0
 11
1466.644430522426
 21
606.8103071251687
 31
0.0
  0
SOLID
  5
1952
330
AD1
100
AcDbEntity
  8
M
 62
     0
100
AcDbTrace
 10
1466.186097189092
 20
627.7019595806485
 30
0.0
 11
1467.102763855759
 21
627.7019595806485
 31
0.0
 12
1466.644430522426
 22
630.4519595806485
 32
0.0
 13
1466.644430522426
 23
630.4519595806485
 33
0.0
  0
SOLID
  5
1953
330
AD1
100
AcDbEntity
  8
M
 62
     0
100
AcDbTrace
 10
1466.186097189092
 20
606.8103071251687
 30
0.0
 11
1467.102763855759
 21
606.8103071251687
 31
0.0
 12
1466.644430522426
 22
604.0603071251687
 32
0.0
 13
1466.644430522426
 23
604.0603071251687
 33
0.0
  0
MTEXT
  5
1954
330
AD1
100
AcDbEntity
  8
M
 62
     0
100
AcDbMText
 10
1463.561097189092
 20
617.2561333529088
 30
0.0
 40
3.5
 41
0.0
 71
     5
 72
     1
  1
\A1;26,5
 11
0.0000000000000001
 21
1.0
 31
0.0
1001
ACAD
1000
MTEXTBEGIN
1070
    73
1070
     1
1070
    44
1040
1.0
1070
    74
1070
     0
1000
MTEXTEND
1000
MTEXTBEGIN
1070
    73
1070
     1
1070
    44
1040
1.0
1070
    74
1070
     0
1000
MTEXTEND
  0
POINT
  5
1955
330
AD1
100
AcDbEntity
  8
DEFPOINTS
 62
     0
100
AcDbPoint
 10
1486.563816628354
 20
630.4519595806485
 30
0.0
  0
POINT
  5
1956
330
AD1
100
AcDbEntity
  8
DEFPOINTS
 62
     0
100
AcDbPoint
 10
1481.644430522426
 20
604.0603071251687
 30
0.0
  0
POINT
  5
1957
330
AD1
100
AcDbEntity
  8
DEFPOINTS
 62
     0
100
AcDbPoint
 10
1466.644430522426
 20
604.0603071251687
 30
0.0
  0
ENDBLK
  5
ADC
330
AD1
100
AcDbEntity
  8
0
100
AcDbBlockEnd
  0
BLOCK
  5
ADE
330
ADD
100
AcDbEntity
  8
0
100
AcDbBlockBegin
  2
*D17
 70
     1
 10
0.0
 20
0.0
 30
0.0
  3
*D17
  1

  0
LINE
  5
1934
330
ADD
100
AcDbEntity
  8
M
 62
     0
100
AcDbLine
 10
1514.644430522426
 20
609.6103071251686
 30
0.0
 11
1530.644430522426
 21
609.6103071251686
 31
0.0
  0
LINE
  5
1935
330
ADD
100
AcDbEntity
  8
M
 62
     0
100
AcDbLine
 10
1514.644430522429
 20
428.6948769436628
 30
0.0
 11
1530.644430522426
 21
428.6948769436628
 31
0.0
  0
LINE
  5
1936
330
ADD
100
AcDbEntity
  8
M
 62
     0
100
AcDbLine
 10
1529.644430522426
 20
606.8603071251686
 30
0.0
 11
1529.644430522426
 21
431.4448769436628
 31
0.0
  0
SOLID
  5
1937
330
ADD
100
AcDbEntity
  8
M
 62
     0
100
AcDbTrace
 10
1529.186097189093
 20
606.8603071251686
 30
0.0
 11
1530.102763855759
 21
606.8603071251686
 31
0.0
 12
1529.644430522426
 22
609.6103071251686
 32
0.0
 13
1529.644430522426
 23
609.6103071251686
 33
0.0
  0
SOLID
  5
1938
330
ADD
100
AcDbEntity
  8
M
 62
     0
100
AcDbTrace
 10
1529.186097189092
 20
431.4448769436628
 30
0.0
 11
1530.102763855759
 21
431.4448769436628
 31
0.0
 12
1529.644430522426
 22
428.6948769436628
 32
0.0
 13
1529.644430522426
 23
428.6948769436628
 33
0.0
  0
MTEXT
  5
1939
330
ADD
100
AcDbEntity
  8
M
 62
     0
100
AcDbMText
 10
1526.894430522426
 20
519.152592034416
 30
0.0
 40
3.5
 41
0.0
 71
     5
 72
     1
  1
\A1;H
 11
0.0000000000000001
 21
1.0
 31
0.0
1001
ACAD
1000
MTEXTBEGIN
1070
    73
1070
     1
1070
    44
1040
1.0
1070
    74
1070
     0
1000
MTEXTEND
1000
MTEXTBEGIN
1070
    73
1070
     1
1070
    44
1040
1.0
1070
    74
1070
     0
1000
MTEXTEND
  0
POINT
  5
193A
330
ADD
100
AcDbEntity
  8
DEFPOINTS
 62
     0
100
AcDbPoint
 10
1513.644430522426
 20
609.6103071251686
 30
0.0
  0
POINT
  5
193B
330
ADD
100
AcDbEntity
  8
DEFPOINTS
 62
     0
100
AcDbPoint
 10
1513.64443052243
 20
428.6948769436628
 30
0.0
  0
POINT
  5
193C
330
ADD
100
AcDbEntity
  8
DEFPOINTS
 62
     0
100
AcDbPoint
 10
1529.644430522426
 20
428.6948769436628
 30
0.0
  0
ENDBLK
  5
AE8
330
ADD
100
AcDbEntity
  8
0
100
AcDbBlockEnd
  0
BLOCK
  5
AEA
330
AE9
100
AcDbEntity
  8
0
100
AcDbBlockBegin
  2
*D18
 70
     1
 10
0.0
 20
0.0
 30
0.0
  3
*D18
  1

  0
LINE
  5
1990
330
AE9
100
AcDbEntity
  8
M
 62
     0
100
AcDbLine
 10
1486.444430522429
 20
406.8136830738411
 30
0.0
 11
1486.444430522429
 21
391.4482528923353
 31
0.0
  0
LINE
  5
1991
330
AE9
100
AcDbEntity
  8
M
 62
     0
100
AcDbLine
 10
1515.14443052243
 20
431.2448769436628
 30
0.0
 11
1515.14443052243
 21
391.4482528923353
 31
0.0
  0
LINE
  5
1992
330
AE9
100
AcDbEntity
  8
M
 62
     0
100
AcDbLine
 10
1489.19443052243
 20
392.4482528923353
 30
0.0
 11
1512.394430522429
 21
392.4482528923353
 31
0.0
  0
SOLID
  5
1993
330
AE9
100
AcDbEntity
  8
M
 62
     0
100
AcDbTrace
 10
1489.19443052243
 20
392.9065862256686
 30
0.0
 11
1489.19443052243
 21
391.989919559002
 31
0.0
 12
1486.444430522429
 22
392.4482528923353
 32
0.0
 13
1486.444430522429
 23
392.4482528923353
 33
0.0
  0
SOLID
  5
1994
330
AE9
100
AcDbEntity
  8
M
 62
     0
100
AcDbTrace
 10
1512.394430522429
 20
392.9065862256686
 30
0.0
 11
1512.394430522429
 21
391.989919559002
 31
0.0
 12
1515.14443052243
 22
392.4482528923353
 32
0.0
 13
1515.14443052243
 23
392.4482528923353
 33
0.0
  0
MTEXT
  5
1995
330
AE9
100
AcDbEntity
  8
M
 62
     0
100
AcDbMText
 10
1500.79443052243
 20
395.5315862256686
 30
0.0
 40
3.5
 41
0.0
 71
     5
 72
     1
  1
\A1;28,5
1001
ACAD
1000
MTEXTBEGIN
1070
    73
1070
     1
1070
    44
1040
1.0
1070
    74
1070
     0
1000
MTEXTEND
1000
MTEXTBEGIN
1070
    73
1070
     1
1070
    44
1040
1.0
1070
    74
1070
     0
1000
MTEXTEND
  0
POINT
  5
1996
330
AE9
100
AcDbEntity
  8
DEFPOINTS
 62
     0
100
AcDbPoint
 10
1486.444430522429
 20
407.8136830738411
 30
0.0
  0
POINT
  5
1997
330
AE9
100
AcDbEntity
  8
DEFPOINTS
 62
     0
100
AcDbPoint
 10
1515.14443052243
 20
432.2448769436627
 30
0.0
  0
POINT
  5
1998
330
AE9
100
AcDbEntity
  8
DEFPOINTS
 62
     0
100
AcDbPoint
 10
1515.14443052243
 20
392.4482528923353
 30
0.0
  0
ENDBLK
  5
AF4
330
AE9
100
AcDbEntity
  8
0
100
AcDbBlockEnd
  0
BLOCK
  5
AF6
330
AF5
100
AcDbEntity
  8
0
100
AcDbBlockBegin
  2
*D19
 70
     1
 10
0.0
 20
0.0
 30
0.0
  3
*D19
  1

  0
LINE
  5
1986
330
AF5
100
AcDbEntity
  8
M
 62
     0
100
AcDbLine
 10
1481.64443052243
 20
408.2448769436628
 30
0.0
 11
1481.64443052243
 21
391.4482528923353
 31
0.0
  0
LINE
  5
1987
330
AF5
100
AcDbEntity
  8
M
 62
     0
100
AcDbLine
 10
1486.444430522429
 20
406.8136830738411
 30
0.0
 11
1486.444430522429
 21
391.4482528923353
 31
0.0
  0
LINE
  5
1988
330
AF5
100
AcDbEntity
  8
M
 62
     0
100
AcDbLine
 10
1489.19443052243
 20
392.4482528923353
 30
0.0
 11
1491.94443052243
 21
392.4482528923353
 31
0.0
  0
LINE
  5
1989
330
AF5
100
AcDbEntity
  8
M
 62
     0
100
AcDbLine
 10
1478.89443052243
 20
392.4482528923353
 30
0.0
 11
1470.09681147481
 21
392.4482528923353
 31
0.0
  0
SOLID
  5
198A
330
AF5
100
AcDbEntity
  8
M
 62
     0
100
AcDbTrace
 10
1489.19443052243
 20
392.9065862256686
 30
0.0
 11
1489.19443052243
 21
391.989919559002
 31
0.0
 12
1486.444430522429
 22
392.4482528923353
 32
0.0
 13
1486.444430522429
 23
392.4482528923353
 33
0.0
  0
SOLID
  5
198B
330
AF5
100
AcDbEntity
  8
M
 62
     0
100
AcDbTrace
 10
1478.89443052243
 20
392.9065862256686
 30
0.0
 11
1478.89443052243
 21
391.989919559002
 31
0.0
 12
1481.64443052243
 22
392.4482528923353
 32
0.0
 13
1481.64443052243
 23
392.4482528923353
 33
0.0
  0
MTEXT
  5
198C
330
AF5
100
AcDbEntity
  8
M
 62
     0
100
AcDbMText
 10
1472.263478141477
 20
395.1982528923353
 30
0.0
 40
3.5
 41
0.0
 71
     5
 72
     1
  1
\A1;5
1001
ACAD
1000
MTEXTBEGIN
1070
    73
1070
     1
1070
    44
1040
1.0
1070
    74
1070
     0
1000
MTEXTEND
1000
MTEXTBEGIN
1070
    73
1070
     1
1070
    44
1040
1.0
1070
    74
1070
     0
1000
MTEXTEND
  0
POINT
  5
198D
330
AF5
100
AcDbEntity
  8
DEFPOINTS
 62
     0
100
AcDbPoint
 10
1481.64443052243
 20
409.2448769436628
 30
0.0
  0
POINT
  5
198E
330
AF5
100
AcDbEntity
  8
DEFPOINTS
 62
     0
100
AcDbPoint
 10
1486.444430522429
 20
407.8136830738411
 30
0.0
  0
POINT
  5
198F
330
AF5
100
AcDbEntity
  8
DEFPOINTS
 62
     0
100
AcDbPoint
 10
1486.444430522429
 20
392.4482528923353
 30
0.0
  0
ENDBLK
  5
B01
330
AF5
100
AcDbEntity
  8
0
100
AcDbBlockEnd
  0
BLOCK
  5
B03
330
B02
100
AcDbEntity
  8
0
100
AcDbBlockBegin
  2
*D20
 70
     1
 10
0.0
 20
0.0
 30
0.0
  3
*D20
  1

  0
LINE
  5
1999
330
B02
100
AcDbEntity
  8
M
 62
     0
100
AcDbLine
 10
1484.64443052243
 20
428.6948769436628
 30
0.0
 11
1465.644430522426
 21
428.6948769436628
 31
0.0
  0
LINE
  5
199A
330
B02
100
AcDbEntity
  8
M
 62
     0
100
AcDbLine
 10
1485.44443052243
 20
407.8136830738411
 30
0.0
 11
1465.644430522426
 21
407.8136830738411
 31
0.0
  0
LINE
  5
199B
330
B02
100
AcDbEntity
  8
M
 62
     0
100
AcDbLine
 10
1466.644430522426
 20
425.9448769436628
 30
0.0
 11
1466.644430522426
 21
410.5636830738411
 31
0.0
  0
SOLID
  5
199C
330
B02
100
AcDbEntity
  8
M
 62
     0
100
AcDbTrace
 10
1466.186097189092
 20
425.9448769436628
 30
0.0
 11
1467.102763855759
 21
425.9448769436628
 31
0.0
 12
1466.644430522426
 22
428.6948769436628
 32
0.0
 13
1466.644430522426
 23
428.6948769436628
 33
0.0
  0
SOLID
  5
199D
330
B02
100
AcDbEntity
  8
M
 62
     0
100
AcDbTrace
 10
1466.186097189092
 20
410.5636830738411
 30
0.0
 11
1467.102763855759
 21
410.5636830738411
 31
0.0
 12
1466.644430522426
 22
407.8136830738411
 32
0.0
 13
1466.644430522426
 23
407.8136830738411
 33
0.0
  0
MTEXT
  5
199E
330
B02
100
AcDbEntity
  8
M
 62
     0
100
AcDbMText
 10
1463.894430522426
 20
418.2542800087522
 30
0.0
 40
3.5
 41
0.0
 71
     5
 72
     1
  1
\A1;21
 11
0.0000000000000001
 21
1.0
 31
0.0
1001
ACAD
1000
MTEXTBEGIN
1070
    73
1070
     1
1070
    44
1040
1.0
1070
    74
1070
     0
1000
MTEXTEND
1000
MTEXTBEGIN
1070
    73
1070
     1
1070
    44
1040
1.0
1070
    74
1070
     0
1000
MTEXTEND
  0
POINT
  5
199F
330
B02
100
AcDbEntity
  8
DEFPOINTS
 62
     0
100
AcDbPoint
 10
1485.64443052243
 20
428.6948769436628
 30
0.0
  0
POINT
  5
19A0
330
B02
100
AcDbEntity
  8
DEFPOINTS
 62
     0
100
AcDbPoint
 10
1486.444430522429
 20
407.8136830738411
 30
0.0
  0
POINT
  5
19A1
330
B02
100
AcDbEntity
  8
DEFPOINTS
 62
     0
100
AcDbPoint
 10
1466.644430522426
 20
407.8136830738411
 30
0.0
  0
ENDBLK
  5
B0D
330
B02
100
AcDbEntity
  8
0
100
AcDbBlockEnd
  0
BLOCK
  5
B0F
330
B0E
100
AcDbEntity
  8
0
100
AcDbBlockBegin
  2
*D21
 70
     1
 10
0.0
 20
0.0
 30
0.0
  3
*D21
  1

  0
LINE
  5
19AB
330
B0E
100
AcDbEntity
  8
M
 62
     0
100
AcDbLine
 10
1485.244430522425
 20
507.7194068898249
 30
0.0
 11
1465.644430522425
 21
507.7194068898249
 31
0.0
  0
LINE
  5
19AC
330
B0E
100
AcDbEntity
  8
M
 62
     0
100
AcDbLine
 10
1485.744430522425
 20
527.5309023474473
 30
0.0
 11
1465.644430522426
 21
527.5309023474473
 31
0.0
  0
LINE
  5
19AD
330
B0E
100
AcDbEntity
  8
M
 62
     0
100
AcDbLine
 10
1466.644430522426
 20
510.4694068898249
 30
0.0
 11
1466.644430522426
 21
524.7809023474474
 31
0.0
  0
SOLID
  5
19AE
330
B0E
100
AcDbEntity
  8
M
 62
     0
100
AcDbTrace
 10
1466.186097189092
 20
510.4694068898249
 30
0.0
 11
1467.102763855759
 21
510.4694068898249
 31
0.0
 12
1466.644430522426
 22
507.7194068898249
 32
0.0
 13
1466.644430522426
 23
507.7194068898249
 33
0.0
  0
SOLID
  5
19AF
330
B0E
100
AcDbEntity
  8
M
 62
     0
100
AcDbTrace
 10
1466.186097189092
 20
524.7809023474474
 30
0.0
 11
1467.102763855759
 21
524.7809023474474
 31
0.0
 12
1466.644430522426
 22
527.5309023474473
 32
0.0
 13
1466.644430522426
 23
527.5309023474473
 33
0.0
  0
MTEXT
  5
19B0
330
B0E
100
AcDbEntity
  8
M
 62
     0
100
AcDbMText
 10
1463.894430522425
 20
517.6251546186364
 30
0.0
 40
3.5
 41
0.0
 71
     5
 72
     1
  1
\A1;20
 11
0.0000000000000001
 21
1.0
 31
0.0
1001
ACAD
1000
MTEXTBEGIN
1070
    73
1070
     1
1070
    44
1040
1.0
1070
    74
1070
     0
1000
MTEXTEND
1000
MTEXTBEGIN
1070
    73
1070
     1
1070
    44
1040
1.0
1070
    74
1070
     0
1000
MTEXTEND
  0
POINT
  5
19B1
330
B0E
100
AcDbEntity
  8
DEFPOINTS
 62
     0
100
AcDbPoint
 10
1486.244430522425
 20
507.7194068898249
 30
0.0
  0
POINT
  5
19B2
330
B0E
100
AcDbEntity
  8
DEFPOINTS
 62
     0
100
AcDbPoint
 10
1486.744430522425
 20
527.5309023474473
 30
0.0
  0
POINT
  5
19B3
330
B0E
100
AcDbEntity
  8
DEFPOINTS
 62
     0
100
AcDbPoint
 10
1466.644430522426
 20
527.5309023474473
 30
0.0
  0
ENDBLK
  5
B19
330
B0E
100
AcDbEntity
  8
0
100
AcDbBlockEnd
  0
BLOCK
  5
B1B
330
B1A
100
AcDbEntity
  8
0
100
AcDbBlockBegin
  2
*D22
 70
     1
 10
0.0
 20
0.0
 30
0.0
  3
*D22
  1

  0
LINE
  5
19A2
330
B1A
100
AcDbEntity
  8
M
 62
     0
100
AcDbLine
 10
1485.744430522425
 20
561.2263325289531
 30
0.0
 11
1465.644430522426
 21
561.2263325289531
 31
0.0
  0
LINE
  5
19A3
330
B1A
100
AcDbEntity
  8
M
 62
     0
100
AcDbLine
 10
1485.744430522425
 20
527.5309023474473
 30
0.0
 11
1465.644430522426
 21
527.5309023474473
 31
0.0
  0
LINE
  5
19A4
330
B1A
100
AcDbEntity
  8
M
 62
     0
100
AcDbLine
 10
1466.644430522426
 20
558.4763325289531
 30
0.0
 11
1466.644430522426
 21
530.2809023474473
 31
0.0
  0
SOLID
  5
19A5
330
B1A
100
AcDbEntity
  8
M
 62
     0
100
AcDbTrace
 10
1466.186097189092
 20
558.4763325289531
 30
0.0
 11
1467.102763855759
 21
558.4763325289531
 31
0.0
 12
1466.644430522426
 22
561.2263325289531
 32
0.0
 13
1466.644430522426
 23
561.2263325289531
 33
0.0
  0
SOLID
  5
19A6
330
B1A
100
AcDbEntity
  8
M
 62
     0
100
AcDbTrace
 10
1466.186097189092
 20
530.2809023474473
 30
0.0
 11
1467.102763855759
 21
530.2809023474473
 31
0.0
 12
1466.644430522426
 22
527.5309023474473
 32
0.0
 13
1466.644430522426
 23
527.5309023474473
 33
0.0
  0
MTEXT
  5
19A7
330
B1A
100
AcDbEntity
  8
M
 62
     0
100
AcDbMText
 10
1463.561097189092
 20
544.3786174382005
 30
0.0
 40
3.5
 41
0.0
 71
     5
 72
     1
  1
\A1;33,5
 11
0.0000000000000001
 21
1.0
 31
0.0
1001
ACAD
1000
MTEXTBEGIN
1070
    73
1070
     1
1070
    44
1040
1.0
1070
    74
1070
     0
1000
MTEXTEND
1000
MTEXTBEGIN
1070
    73
1070
     1
1070
    44
1040
1.0
1070
    74
1070
     0
1000
MTEXTEND
  0
POINT
  5
19A8
330
B1A
100
AcDbEntity
  8
DEFPOINTS
 62
     0
100
AcDbPoint
 10
1486.744430522425
 20
561.2263325289531
 30
0.0
  0
POINT
  5
19A9
330
B1A
100
AcDbEntity
  8
DEFPOINTS
 62
     0
100
AcDbPoint
 10
1486.744430522425
 20
527.5309023474473
 30
0.0
  0
POINT
  5
19AA
330
B1A
100
AcDbEntity
  8
DEFPOINTS
 62
     0
100
AcDbPoint
 10
1466.644430522426
 20
527.5309023474473
 30
0.0
  0
ENDBLK
  5
B25
330
B1A
100
AcDbEntity
  8
0
100
AcDbBlockEnd
  0
BLOCK
  5
B27
330
B26
100
AcDbEntity
  8
0
100
AcDbBlockBegin
  2
*D23
 70
     1
 10
0.0
 20
0.0
 30
0.0
  3
*D23
  1

  0
LINE
  5
1922
330
B26
100
AcDbEntity
  8
M
 62
     0
100
AcDbLine
 10
1602.944430522426
 20
630.4915009949905
 30
0.0
 11
1583.144430522426
 21
630.4915009949905
 31
0.0
  0
LINE
  5
1923
330
B26
100
AcDbEntity
  8
M
 62
     0
100
AcDbLine
 10
1598.144430522426
 20
604.0603071251687
 30
0.0
 11
1583.144430522426
 21
604.0603071251687
 31
0.0
  0
LINE
  5
1924
330
B26
100
AcDbEntity
  8
M
 62
     0
100
AcDbLine
 10
1584.144430522426
 20
627.7415009949905
 30
0.0
 11
1584.144430522426
 21
606.8103071251687
 31
0.0
  0
SOLID
  5
1925
330
B26
100
AcDbEntity
  8
M
 62
     0
100
AcDbTrace
 10
1583.686097189092
 20
627.7415009949905
 30
0.0
 11
1584.602763855759
 21
627.7415009949905
 31
0.0
 12
1584.144430522426
 22
630.4915009949905
 32
0.0
 13
1584.144430522426
 23
630.4915009949905
 33
0.0
  0
SOLID
  5
1926
330
B26
100
AcDbEntity
  8
M
 62
     0
100
AcDbTrace
 10
1583.686097189092
 20
606.8103071251687
 30
0.0
 11
1584.602763855759
 21
606.8103071251687
 31
0.0
 12
1584.144430522426
 22
604.0603071251687
 32
0.0
 13
1584.144430522426
 23
604.0603071251687
 33
0.0
  0
MTEXT
  5
1927
330
B26
100
AcDbEntity
  8
M
 62
     0
100
AcDbMText
 10
1581.061097189092
 20
617.2759040600798
 30
0.0
 40
3.5
 41
0.0
 71
     5
 72
     1
  1
\A1;26,5
 11
0.0000000000000001
 21
1.0
 31
0.0
1001
ACAD
1000
MTEXTBEGIN
1070
    73
1070
     1
1070
    44
1040
1.0
1070
    74
1070
     0
1000
MTEXTEND
1000
MTEXTBEGIN
1070
    73
1070
     1
1070
    44
1040
1.0
1070
    74
1070
     0
1000
MTEXTEND
  0
POINT
  5
1928
330
B26
100
AcDbEntity
  8
DEFPOINTS
 62
     0
100
AcDbPoint
 10
1603.944430522426
 20
630.4915009949905
 30
0.0
  0
POINT
  5
1929
330
B26
100
AcDbEntity
  8
DEFPOINTS
 62
     0
100
AcDbPoint
 10
1599.144430522426
 20
604.0603071251687
 30
0.0
  0
POINT
  5
192A
330
B26
100
AcDbEntity
  8
DEFPOINTS
 62
     0
100
AcDbPoint
 10
1584.144430522426
 20
604.0603071251687
 30
0.0
  0
ENDBLK
  5
B31
330
B26
100
AcDbEntity
  8
0
100
AcDbBlockEnd
  0
BLOCK
  5
C41
330
B32
100
AcDbEntity
  8
0
100
AcDbBlockBegin
  2
*D24
 70
     1
 10
0.0
 20
0.0
 30
0.0
  3
*D24
  1

  0
LINE
  5
1919
330
B32
100
AcDbEntity
  8
M
 62
     0
100
AcDbLine
 10
1599.144430522426
 20
630.0603071251686
 30
0.0
 11
1599.144430522426
 21
646.1260708134848
 31
0.0
  0
LINE
  5
191A
330
B32
100
AcDbEntity
  8
M
 62
     0
100
AcDbLine
 10
1632.644430522426
 20
607.0603071251687
 30
0.0
 11
1632.644430522426
 21
646.1260708134848
 31
0.0
  0
LINE
  5
191B
330
B32
100
AcDbEntity
  8
M
 62
     0
100
AcDbLine
 10
1601.894430522426
 20
645.1260708134848
 30
0.0
 11
1629.894430522426
 21
645.1260708134848
 31
0.0
  0
SOLID
  5
191C
330
B32
100
AcDbEntity
  8
M
 62
     0
100
AcDbTrace
 10
1601.894430522426
 20
645.5844041468182
 30
0.0
 11
1601.894430522426
 21
644.6677374801514
 31
0.0
 12
1599.144430522426
 22
645.1260708134848
 32
0.0
 13
1599.144430522426
 23
645.1260708134848
 33
0.0
  0
SOLID
  5
191D
330
B32
100
AcDbEntity
  8
M
 62
     0
100
AcDbTrace
 10
1629.894430522426
 20
645.5844041468182
 30
0.0
 11
1629.894430522426
 21
644.6677374801514
 31
0.0
 12
1632.644430522426
 22
645.1260708134848
 32
0.0
 13
1632.644430522426
 23
645.1260708134848
 33
0.0
  0
MTEXT
  5
191E
330
B32
100
AcDbEntity
  8
M
 62
     0
100
AcDbMText
 10
1615.894430522426
 20
647.8760708134848
 30
0.0
 40
3.5
 41
0.0
 71
     5
 72
     1
  1
\A1;33.5
1001
ACAD
1000
MTEXTBEGIN
1070
    73
1070
     1
1070
    44
1040
1.0
1070
    74
1070
     0
1000
MTEXTEND
1000
MTEXTBEGIN
1070
    73
1070
     1
1070
    44
1040
1.0
1070
    74
1070
     0
1000
MTEXTEND
  0
POINT
  5
191F
330
B32
100
AcDbEntity
  8
DEFPOINTS
 62
     0
100
AcDbPoint
 10
1599.144430522426
 20
629.0603071251687
 30
0.0
  0
POINT
  5
1920
330
B32
100
AcDbEntity
  8
DEFPOINTS
 62
     0
100
AcDbPoint
 10
1632.644430522426
 20
606.0603071251687
 30
0.0
  0
POINT
  5
1921
330
B32
100
AcDbEntity
  8
DEFPOINTS
 62
     0
100
AcDbPoint
 10
1632.644430522426
 20
645.1260708134848
 30
0.0
  0
ENDBLK
  5
C4B
330
B32
100
AcDbEntity
  8
0
100
AcDbBlockEnd
  0
BLOCK
  5
B3F
330
B3E
100
AcDbEntity
  8
0
100
AcDbBlockBegin
  2
*D25
 70
     1
 10
0.0
 20
0.0
 30
0.0
  3
*D25
  1

  0
LINE
  5
1961
330
B3E
100
AcDbEntity
  8
M
 62
     0
100
AcDbLine
 10
1603.244430522425
 20
561.2263325289531
 30
0.0
 11
1583.144430522426
 21
561.2263325289531
 31
0.0
  0
LINE
  5
1962
330
B3E
100
AcDbEntity
  8
M
 62
     0
100
AcDbLine
 10
1603.244430522425
 20
527.896332528953
 30
0.0
 11
1583.144430522426
 21
527.896332528953
 31
0.0
  0
LINE
  5
1963
330
B3E
100
AcDbEntity
  8
M
 62
     0
100
AcDbLine
 10
1584.144430522426
 20
558.4763325289531
 30
0.0
 11
1584.144430522426
 21
530.646332528953
 31
0.0
  0
SOLID
  5
1964
330
B3E
100
AcDbEntity
  8
M
 62
     0
100
AcDbTrace
 10
1583.686097189092
 20
558.4763325289531
 30
0.0
 11
1584.602763855759
 21
558.4763325289531
 31
0.0
 12
1584.144430522426
 22
561.2263325289531
 32
0.0
 13
1584.144430522426
 23
561.2263325289531
 33
0.0
  0
SOLID
  5
1965
330
B3E
100
AcDbEntity
  8
M
 62
     0
100
AcDbTrace
 10
1583.686097189092
 20
530.646332528953
 30
0.0
 11
1584.602763855759
 21
530.646332528953
 31
0.0
 12
1584.144430522426
 22
527.896332528953
 32
0.0
 13
1584.144430522426
 23
527.896332528953
 33
0.0
  0
MTEXT
  5
1966
330
B3E
100
AcDbEntity
  8
M
 62
     0
100
AcDbMText
 10
1581.061097189092
 20
544.5613325289533
 30
0.0
 40
3.5
 41
0.0
 71
     5
 72
     1
  1
\A1;33,5
 11
0.0000000000000001
 21
1.0
 31
0.0
1001
ACAD
1000
MTEXTBEGIN
1070
    73
1070
     1
1070
    44
1040
1.0
1070
    74
1070
     0
1000
MTEXTEND
1000
MTEXTBEGIN
1070
    73
1070
     1
1070
    44
1040
1.0
1070
    74
1070
     0
1000
MTEXTEND
  0
POINT
  5
1967
330
B3E
100
AcDbEntity
  8
DEFPOINTS
 62
     0
100
AcDbPoint
 10
1604.244430522425
 20
561.2263325289531
 30
0.0
  0
POINT
  5
1968
330
B3E
100
AcDbEntity
  8
DEFPOINTS
 62
     0
100
AcDbPoint
 10
1604.244430522425
 20
527.896332528953
 30
0.0
  0
POINT
  5
1969
330
B3E
100
AcDbEntity
  8
DEFPOINTS
 62
     0
100
AcDbPoint
 10
1584.144430522426
 20
527.896332528953
 30
0.0
  0
ENDBLK
  5
B49
330
B3E
100
AcDbEntity
  8
0
100
AcDbBlockEnd
  0
BLOCK
  5
B4B
330
B4A
100
AcDbEntity
  8
0
100
AcDbBlockBegin
  2
*D26
 70
     1
 10
0.0
 20
0.0
 30
0.0
  3
*D26
  1

  0
LINE
  5
197D
330
B4A
100
AcDbEntity
  8
M
 62
     0
100
AcDbLine
 10
1602.844430522425
 20
508.2580421520877
 30
0.0
 11
1583.144430522426
 21
508.2580421520877
 31
0.0
  0
LINE
  5
197E
330
B4A
100
AcDbEntity
  8
M
 62
     0
100
AcDbLine
 10
1603.244430522425
 20
527.896332528953
 30
0.0
 11
1583.144430522426
 21
527.896332528953
 31
0.0
  0
LINE
  5
197F
330
B4A
100
AcDbEntity
  8
M
 62
     0
100
AcDbLine
 10
1584.144430522425
 20
511.0080421520877
 30
0.0
 11
1584.144430522426
 21
525.146332528953
 31
0.0
  0
SOLID
  5
1980
330
B4A
100
AcDbEntity
  8
M
 62
     0
100
AcDbTrace
 10
1583.686097189092
 20
511.0080421520877
 30
0.0
 11
1584.602763855759
 21
511.0080421520877
 31
0.0
 12
1584.144430522425
 22
508.2580421520877
 32
0.0
 13
1584.144430522425
 23
508.2580421520877
 33
0.0
  0
SOLID
  5
1981
330
B4A
100
AcDbEntity
  8
M
 62
     0
100
AcDbTrace
 10
1583.686097189092
 20
525.146332528953
 30
0.0
 11
1584.602763855759
 21
525.146332528953
 31
0.0
 12
1584.144430522426
 22
527.896332528953
 32
0.0
 13
1584.144430522426
 23
527.896332528953
 33
0.0
  0
MTEXT
  5
1982
330
B4A
100
AcDbEntity
  8
M
 62
     0
100
AcDbMText
 10
1581.394430522426
 20
518.0771873405205
 30
0.0
 40
3.5
 41
0.0
 71
     5
 72
     1
  1
\A1;20
 11
0.0000000000000001
 21
1.0
 31
0.0
1001
ACAD
1000
MTEXTBEGIN
1070
    73
1070
     1
1070
    44
1040
1.0
1070
    74
1070
     0
1000
MTEXTEND
1000
MTEXTBEGIN
1070
    73
1070
     1
1070
    44
1040
1.0
1070
    74
1070
     0
1000
MTEXTEND
  0
POINT
  5
1983
330
B4A
100
AcDbEntity
  8
DEFPOINTS
 62
     0
100
AcDbPoint
 10
1603.844430522426
 20
508.2580421520877
 30
0.0
  0
POINT
  5
1984
330
B4A
100
AcDbEntity
  8
DEFPOINTS
 62
     0
100
AcDbPoint
 10
1604.244430522425
 20
527.896332528953
 30
0.0
  0
POINT
  5
1985
330
B4A
100
AcDbEntity
  8
DEFPOINTS
 62
     0
100
AcDbPoint
 10
1584.144430522426
 20
527.896332528953
 30
0.0
  0
ENDBLK
  5
B55
330
B4A
100
AcDbEntity
  8
0
100
AcDbBlockEnd
  0
BLOCK
  5
B57
330
B56
100
AcDbEntity
  8
0
100
AcDbBlockBegin
  2
*D27
 70
     1
 10
0.0
 20
0.0
 30
0.0
  3
*D27
  1

  0
LINE
  5
196A
330
B56
100
AcDbEntity
  8
M
 62
     0
100
AcDbLine
 10
1602.14443052243
 20
422.356332528953
 30
0.0
 11
1583.144430522426
 21
422.356332528953
 31
0.0
  0
LINE
  5
196B
330
B56
100
AcDbEntity
  8
M
 62
     0
100
AcDbLine
 10
1602.94443052243
 20
401.4751386591313
 30
0.0
 11
1583.144430522426
 21
401.4751386591313
 31
0.0
  0
LINE
  5
196C
330
B56
100
AcDbEntity
  8
M
 62
     0
100
AcDbLine
 10
1584.144430522426
 20
419.606332528953
 30
0.0
 11
1584.144430522426
 21
404.2251386591313
 31
0.0
  0
SOLID
  5
196D
330
B56
100
AcDbEntity
  8
M
 62
     0
100
AcDbTrace
 10
1583.686097189092
 20
419.606332528953
 30
0.0
 11
1584.602763855759
 21
419.606332528953
 31
0.0
 12
1584.144430522426
 22
422.356332528953
 32
0.0
 13
1584.144430522426
 23
422.356332528953
 33
0.0
  0
SOLID
  5
196E
330
B56
100
AcDbEntity
  8
M
 62
     0
100
AcDbTrace
 10
1583.686097189092
 20
404.2251386591313
 30
0.0
 11
1584.602763855759
 21
404.2251386591313
 31
0.0
 12
1584.144430522426
 22
401.4751386591313
 32
0.0
 13
1584.144430522426
 23
401.4751386591313
 33
0.0
  0
MTEXT
  5
196F
330
B56
100
AcDbEntity
  8
M
 62
     0
100
AcDbMText
 10
1581.394430522426
 20
411.9157355940424
 30
0.0
 40
3.5
 41
0.0
 71
     5
 72
     1
  1
\A1;21
 11
0.0000000000000001
 21
1.0
 31
0.0
1001
ACAD
1000
MTEXTBEGIN
1070
    73
1070
     1
1070
    44
1040
1.0
1070
    74
1070
     0
1000
MTEXTEND
1000
MTEXTBEGIN
1070
    73
1070
     1
1070
    44
1040
1.0
1070
    74
1070
     0
1000
MTEXTEND
  0
POINT
  5
1970
330
B56
100
AcDbEntity
  8
DEFPOINTS
 62
     0
100
AcDbPoint
 10
1603.14443052243
 20
422.356332528953
 30
0.0
  0
POINT
  5
1971
330
B56
100
AcDbEntity
  8
DEFPOINTS
 62
     0
100
AcDbPoint
 10
1603.94443052243
 20
401.4751386591313
 30
0.0
  0
POINT
  5
1972
330
B56
100
AcDbEntity
  8
DEFPOINTS
 62
     0
100
AcDbPoint
 10
1584.144430522426
 20
401.4751386591313
 30
0.0
  0
ENDBLK
  5
B61
330
B56
100
AcDbEntity
  8
0
100
AcDbBlockEnd
  0
BLOCK
  5
B63
330
B62
100
AcDbEntity
  8
0
100
AcDbBlockBegin
  2
*D28
 70
     1
 10
0.0
 20
0.0
 30
0.0
  3
*D28
  1

  0
LINE
  5
1973
330
B62
100
AcDbEntity
  8
M
 62
     0
100
AcDbLine
 10
1604.144430522429
 20
398.3097084776255
 30
0.0
 11
1604.144430522429
 21
385.1097084776256
 31
0.0
  0
LINE
  5
1974
330
B62
100
AcDbEntity
  8
M
 62
     0
100
AcDbLine
 10
1599.14443052243
 20
401.9063325289529
 30
0.0
 11
1599.14443052243
 21
385.1097084776256
 31
0.0
  0
LINE
  5
1975
330
B62
100
AcDbEntity
  8
M
 62
     0
100
AcDbLine
 10
1606.894430522429
 20
386.1097084776255
 30
0.0
 11
1609.64443052243
 21
386.1097084776255
 31
0.0
  0
LINE
  5
1976
330
B62
100
AcDbEntity
  8
M
 62
     0
100
AcDbLine
 10
1596.39443052243
 20
386.1097084776255
 30
0.0
 11
1593.64443052243
 21
386.1097084776255
 31
0.0
  0
SOLID
  5
1977
330
B62
100
AcDbEntity
  8
M
 62
     0
100
AcDbTrace
 10
1606.894430522429
 20
386.5680418109588
 30
0.0
 11
1606.894430522429
 21
385.6513751442922
 31
0.0
 12
1604.144430522429
 22
386.1097084776255
 32
0.0
 13
1604.144430522429
 23
386.1097084776255
 33
0.0
  0
SOLID
  5
1978
330
B62
100
AcDbEntity
  8
M
 62
     0
100
AcDbTrace
 10
1596.39443052243
 20
386.5680418109588
 30
0.0
 11
1596.39443052243
 21
385.6513751442922
 31
0.0
 12
1599.14443052243
 22
386.1097084776255
 32
0.0
 13
1599.14443052243
 23
386.1097084776255
 33
0.0
  0
MTEXT
  5
1979
330
B62
100
AcDbEntity
  8
M
 62
     0
100
AcDbMText
 10
1601.64443052243
 20
388.8597084776256
 30
0.0
 40
3.5
 41
0.0
 71
     5
 72
     1
  1
\A1;5
1001
ACAD
1000
MTEXTBEGIN
1070
    73
1070
     1
1070
    44
1040
1.0
1070
    74
1070
     0
1000
MTEXTEND
1000
MTEXTBEGIN
1070
    73
1070
     1
1070
    44
1040
1.0
1070
    74
1070
     0
1000
MTEXTEND
  0
POINT
  5
197A
330
B62
100
AcDbEntity
  8
DEFPOINTS
 62
     0
100
AcDbPoint
 10
1604.144430522429
 20
399.3097084776255
 30
0.0
  0
POINT
  5
197B
330
B62
100
AcDbEntity
  8
DEFPOINTS
 62
     0
100
AcDbPoint
 10
1599.14443052243
 20
402.906332528953
 30
0.0
  0
POINT
  5
197C
330
B62
100
AcDbEntity
  8
DEFPOINTS
 62
     0
100
AcDbPoint
 10
1599.14443052243
 20
386.1097084776255
 30
0.0
  0
ENDBLK
  5
B6E
330
B62
100
AcDbEntity
  8
0
100
AcDbBlockEnd
  0
BLOCK
  5
B70
330
B6F
100
AcDbEntity
  8
0
100
AcDbBlockBegin
  2
*D29
 70
     1
 10
0.0
 20
0.0
 30
0.0
  3
*D29
  1

  0
LINE
  5
19CF
330
B6F
100
AcDbEntity
  8
M
 62
     0
100
AcDbLine
 10
1604.144430522429
 20
400.6751386591313
 30
0.0
 11
1604.144430522429
 21
385.1097084776256
 31
0.0
  0
LINE
  5
19D0
330
B6F
100
AcDbEntity
  8
M
 62
     0
100
AcDbLine
 10
1632.64443052243
 20
424.906332528953
 30
0.0
 11
1632.64443052243
 21
385.1097084776256
 31
0.0
  0
LINE
  5
19D1
330
B6F
100
AcDbEntity
  8
M
 62
     0
100
AcDbLine
 10
1606.894430522429
 20
386.1097084776255
 30
0.0
 11
1629.89443052243
 21
386.1097084776255
 31
0.0
  0
SOLID
  5
19D2
330
B6F
100
AcDbEntity
  8
M
 62
     0
100
AcDbTrace
 10
1606.894430522429
 20
386.5680418109588
 30
0.0
 11
1606.894430522429
 21
385.6513751442922
 31
0.0
 12
1604.144430522429
 22
386.1097084776255
 32
0.0
 13
1604.144430522429
 23
386.1097084776255
 33
0.0
  0
SOLID
  5
19D3
330
B6F
100
AcDbEntity
  8
M
 62
     0
100
AcDbTrace
 10
1629.89443052243
 20
386.5680418109588
 30
0.0
 11
1629.89443052243
 21
385.6513751442922
 31
0.0
 12
1632.64443052243
 22
386.1097084776255
 32
0.0
 13
1632.64443052243
 23
386.1097084776255
 33
0.0
  0
MTEXT
  5
19D4
330
B6F
100
AcDbEntity
  8
M
 62
     0
100
AcDbMText
 10
1618.39443052243
 20
388.8597084776256
 30
0.0
 40
3.5
 41
0.0
 71
     5
 72
     1
  1
\A1;28.5
1001
ACAD
1000
MTEXTBEGIN
1070
    73
1070
     1
1070
    44
1040
1.0
1070
    74
1070
     0
1000
MTEXTEND
1000
MTEXTBEGIN
1070
    73
1070
     1
1070
    44
1040
1.0
1070
    74
1070
     0
1000
MTEXTEND
  0
POINT
  5
19D5
330
B6F
100
AcDbEntity
  8
DEFPOINTS
 62
     0
100
AcDbPoint
 10
1604.144430522429
 20
401.6751386591312
 30
0.0
  0
POINT
  5
19D6
330
B6F
100
AcDbEntity
  8
DEFPOINTS
 62
     0
100
AcDbPoint
 10
1632.64443052243
 20
425.9063325289529
 30
0.0
  0
POINT
  5
19D7
330
B6F
100
AcDbEntity
  8
DEFPOINTS
 62
     0
100
AcDbPoint
 10
1632.64443052243
 20
386.1097084776255
 30
0.0
  0
ENDBLK
  5
B7A
330
B6F
100
AcDbEntity
  8
0
100
AcDbBlockEnd
  0
BLOCK
  5
B7C
330
B7B
100
AcDbEntity
  8
0
100
AcDbBlockBegin
  2
*D30
 70
     1
 10
0.0
 20
0.0
 30
0.0
  3
*D30
  1

  0
LINE
  5
193D
330
B7B
100
AcDbEntity
  8
M
 62
     0
100
AcDbLine
 10
1632.144430522426
 20
609.6103071251686
 30
0.0
 11
1648.14443052243
 21
609.6103071251686
 31
0.0
  0
LINE
  5
193E
330
B7B
100
AcDbEntity
  8
M
 62
     0
100
AcDbLine
 10
1632.14443052243
 20
422.356332528953
 30
0.0
 11
1648.14443052243
 21
422.356332528953
 31
0.0
  0
LINE
  5
193F
330
B7B
100
AcDbEntity
  8
M
 62
     0
100
AcDbLine
 10
1647.14443052243
 20
606.8603071251686
 30
0.0
 11
1647.14443052243
 21
425.106332528953
 31
0.0
  0
SOLID
  5
1940
330
B7B
100
AcDbEntity
  8
M
 62
     0
100
AcDbTrace
 10
1646.686097189097
 20
606.8603071251686
 30
0.0
 11
1647.602763855763
 21
606.8603071251686
 31
0.0
 12
1647.14443052243
 22
609.6103071251686
 32
0.0
 13
1647.14443052243
 23
609.6103071251686
 33
0.0
  0
SOLID
  5
1941
330
B7B
100
AcDbEntity
  8
M
 62
     0
100
AcDbTrace
 10
1646.686097189096
 20
425.106332528953
 30
0.0
 11
1647.602763855763
 21
425.106332528953
 31
0.0
 12
1647.14443052243
 22
422.356332528953
 32
0.0
 13
1647.14443052243
 23
422.356332528953
 33
0.0
  0
MTEXT
  5
1942
330
B7B
100
AcDbEntity
  8
M
 62
     0
100
AcDbMText
 10
1644.39443052243
 20
515.9833198270611
 30
0.0
 40
3.5
 41
0.0
 71
     5
 72
     1
  1
\A1;H
 11
0.0000000000000001
 21
1.0
 31
0.0
1001
ACAD
1000
MTEXTBEGIN
1070
    73
1070
     1
1070
    44
1040
1.0
1070
    74
1070
     0
1000
MTEXTEND
1000
MTEXTBEGIN
1070
    73
1070
     1
1070
    44
1040
1.0
1070
    74
1070
     0
1000
MTEXTEND
  0
POINT
  5
1943
330
B7B
100
AcDbEntity
  8
DEFPOINTS
 62
     0
100
AcDbPoint
 10
1631.144430522426
 20
609.6103071251686
 30
0.0
  0
POINT
  5
1944
330
B7B
100
AcDbEntity
  8
DEFPOINTS
 62
     0
100
AcDbPoint
 10
1631.14443052243
 20
422.356332528953
 30
0.0
  0
POINT
  5
1945
330
B7B
100
AcDbEntity
  8
DEFPOINTS
 62
     0
100
AcDbPoint
 10
1647.14443052243
 20
422.356332528953
 30
0.0
  0
ENDBLK
  5
B86
330
B7B
100
AcDbEntity
  8
0
100
AcDbBlockEnd
  0
BLOCK
  5
B88
330
B87
100
AcDbEntity
  8
0
100
AcDbBlockBegin
  2
*D31
 70
     1
 10
0.0
 20
0.0
 30
0.0
  3
*D31
  1

  0
LINE
  5
19C6
330
B87
100
AcDbEntity
  8
M
 62
     0
100
AcDbLine
 10
1723.64443052243
 20
388.6751386591312
 30
0.0
 11
1723.64443052243
 21
373.1097084776256
 31
0.0
  0
LINE
  5
19C7
330
B87
100
AcDbEntity
  8
M
 62
     0
100
AcDbLine
 10
1752.14443052243
 20
412.9063325289529
 30
0.0
 11
1752.14443052243
 21
373.1097084776256
 31
0.0
  0
LINE
  5
19C8
330
B87
100
AcDbEntity
  8
M
 62
     0
100
AcDbLine
 10
1726.39443052243
 20
374.1097084776256
 30
0.0
 11
1749.394430522429
 21
374.1097084776256
 31
0.0
  0
SOLID
  5
19C9
330
B87
100
AcDbEntity
  8
M
 62
     0
100
AcDbTrace
 10
1726.39443052243
 20
374.5680418109589
 30
0.0
 11
1726.39443052243
 21
373.6513751442923
 31
0.0
 12
1723.64443052243
 22
374.1097084776256
 32
0.0
 13
1723.64443052243
 23
374.1097084776256
 33
0.0
  0
SOLID
  5
19CA
330
B87
100
AcDbEntity
  8
M
 62
     0
100
AcDbTrace
 10
1749.394430522429
 20
374.5680418109589
 30
0.0
 11
1749.394430522429
 21
373.6513751442923
 31
0.0
 12
1752.14443052243
 22
374.1097084776256
 32
0.0
 13
1752.14443052243
 23
374.1097084776256
 33
0.0
  0
MTEXT
  5
19CB
330
B87
100
AcDbEntity
  8
M
 62
     0
100
AcDbMText
 10
1737.89443052243
 20
376.8597084776256
 30
0.0
 40
3.5
 41
0.0
 71
     5
 72
     1
  1
\A1;28.5
1001
ACAD
1000
MTEXTBEGIN
1070
    73
1070
     1
1070
    44
1040
1.0
1070
    74
1070
     0
1000
MTEXTEND
1000
MTEXTBEGIN
1070
    73
1070
     1
1070
    44
1040
1.0
1070
    74
1070
     0
1000
MTEXTEND
  0
POINT
  5
19CC
330
B87
100
AcDbEntity
  8
DEFPOINTS
 62
     0
100
AcDbPoint
 10
1723.64443052243
 20
389.6751386591312
 30
0.0
  0
POINT
  5
19CD
330
B87
100
AcDbEntity
  8
DEFPOINTS
 62
     0
100
AcDbPoint
 10
1752.14443052243
 20
413.9063325289529
 30
0.0
  0
POINT
  5
19CE
330
B87
100
AcDbEntity
  8
DEFPOINTS
 62
     0
100
AcDbPoint
 10
1752.14443052243
 20
374.1097084776256
 30
0.0
  0
ENDBLK
  5
B92
330
B87
100
AcDbEntity
  8
0
100
AcDbBlockEnd
  0
BLOCK
  5
B94
330
B93
100
AcDbEntity
  8
0
100
AcDbBlockBegin
  2
*D32
 70
     1
 10
0.0
 20
0.0
 30
0.0
  3
*D32
  1

  0
LINE
  5
19E1
330
B93
100
AcDbEntity
  8
M
 62
     0
100
AcDbLine
 10
1723.64443052243
 20
386.3097084776256
 30
0.0
 11
1723.64443052243
 21
373.1097084776256
 31
0.0
  0
LINE
  5
19E2
330
B93
100
AcDbEntity
  8
M
 62
     0
100
AcDbLine
 10
1718.644430522429
 20
389.9063325289529
 30
0.0
 11
1718.644430522429
 21
373.1097084776256
 31
0.0
  0
LINE
  5
19E3
330
B93
100
AcDbEntity
  8
M
 62
     0
100
AcDbLine
 10
1726.39443052243
 20
374.1097084776256
 30
0.0
 11
1729.144430522429
 21
374.1097084776256
 31
0.0
  0
LINE
  5
19E4
330
B93
100
AcDbEntity
  8
M
 62
     0
100
AcDbLine
 10
1715.894430522429
 20
374.1097084776256
 30
0.0
 11
1713.144430522429
 21
374.1097084776256
 31
0.0
  0
SOLID
  5
19E5
330
B93
100
AcDbEntity
  8
M
 62
     0
100
AcDbTrace
 10
1726.39443052243
 20
374.5680418109589
 30
0.0
 11
1726.39443052243
 21
373.6513751442923
 31
0.0
 12
1723.64443052243
 22
374.1097084776256
 32
0.0
 13
1723.64443052243
 23
374.1097084776256
 33
0.0
  0
SOLID
  5
19E6
330
B93
100
AcDbEntity
  8
M
 62
     0
100
AcDbTrace
 10
1715.894430522429
 20
374.5680418109589
 30
0.0
 11
1715.894430522429
 21
373.6513751442923
 31
0.0
 12
1718.644430522429
 22
374.1097084776256
 32
0.0
 13
1718.644430522429
 23
374.1097084776256
 33
0.0
  0
MTEXT
  5
19E7
330
B93
100
AcDbEntity
  8
M
 62
     0
100
AcDbMText
 10
1721.14443052243
 20
376.8597084776256
 30
0.0
 40
3.5
 41
0.0
 71
     5
 72
     1
  1
\A1;5
1001
ACAD
1000
MTEXTBEGIN
1070
    73
1070
     1
1070
    44
1040
1.0
1070
    74
1070
     0
1000
MTEXTEND
1000
MTEXTBEGIN
1070
    73
1070
     1
1070
    44
1040
1.0
1070
    74
1070
     0
1000
MTEXTEND
  0
POINT
  5
19E8
330
B93
100
AcDbEntity
  8
DEFPOINTS
 62
     0
100
AcDbPoint
 10
1723.64443052243
 20
387.3097084776256
 30
0.0
  0
POINT
  5
19E9
330
B93
100
AcDbEntity
  8
DEFPOINTS
 62
     0
100
AcDbPoint
 10
1718.644430522429
 20
390.9063325289529
 30
0.0
  0
POINT
  5
19EA
330
B93
100
AcDbEntity
  8
DEFPOINTS
 62
     0
100
AcDbPoint
 10
1718.644430522429
 20
374.1097084776256
 30
0.0
  0
ENDBLK
  5
B9F
330
B93
100
AcDbEntity
  8
0
100
AcDbBlockEnd
  0
BLOCK
  5
BA1
330
BA0
100
AcDbEntity
  8
0
100
AcDbBlockBegin
  2
*D33
 70
     1
 10
0.0
 20
0.0
 30
0.0
  3
*D33
  1

  0
LINE
  5
19FE
330
BA0
100
AcDbEntity
  8
M
 62
     0
100
AcDbLine
 10
1722.744430522425
 20
527.896332528953
 30
0.0
 11
1702.644430522428
 21
527.896332528953
 31
0.0
  0
LINE
  5
19FF
330
BA0
100
AcDbEntity
  8
M
 62
     0
100
AcDbLine
 10
1722.271225441669
 20
508.1848370713307
 30
0.0
 11
1702.644430522428
 21
508.1848370713307
 31
0.0
  0
LINE
  5
1A00
330
BA0
100
AcDbEntity
  8
M
 62
     0
100
AcDbLine
 10
1703.644430522428
 20
525.146332528953
 30
0.0
 11
1703.644430522428
 21
510.9348370713306
 31
0.0
  0
SOLID
  5
1A01
330
BA0
100
AcDbEntity
  8
M
 62
     0
100
AcDbTrace
 10
1703.186097189095
 20
525.146332528953
 30
0.0
 11
1704.102763855761
 21
525.146332528953
 31
0.0
 12
1703.644430522428
 22
527.896332528953
 32
0.0
 13
1703.644430522428
 23
527.896332528953
 33
0.0
  0
SOLID
  5
1A02
330
BA0
100
AcDbEntity
  8
M
 62
     0
100
AcDbTrace
 10
1703.186097189095
 20
510.9348370713306
 30
0.0
 11
1704.102763855761
 21
510.9348370713306
 31
0.0
 12
1703.644430522428
 22
508.1848370713307
 32
0.0
 13
1703.644430522428
 23
508.1848370713307
 33
0.0
  0
MTEXT
  5
1A03
330
BA0
100
AcDbEntity
  8
M
 62
     0
100
AcDbMText
 10
1700.894430522428
 20
518.0405848001421
 30
0.0
 40
3.5
 41
0.0
 71
     5
 72
     1
  1
\A1;20
 11
0.0000000000000001
 21
1.0
 31
0.0
1001
ACAD
1000
MTEXTBEGIN
1070
    73
1070
     1
1070
    44
1040
1.0
1070
    74
1070
     0
1000
MTEXTEND
1000
MTEXTBEGIN
1070
    73
1070
     1
1070
    44
1040
1.0
1070
    74
1070
     0
1000
MTEXTEND
  0
POINT
  5
1A04
330
BA0
100
AcDbEntity
  8
DEFPOINTS
 62
     0
100
AcDbPoint
 10
1723.744430522425
 20
527.896332528953
 30
0.0
  0
POINT
  5
1A05
330
BA0
100
AcDbEntity
  8
DEFPOINTS
 62
     0
100
AcDbPoint
 10
1723.271225441669
 20
508.1848370713307
 30
0.0
  0
POINT
  5
1A06
330
BA0
100
AcDbEntity
  8
DEFPOINTS
 62
     0
100
AcDbPoint
 10
1703.644430522428
 20
508.1848370713307
 30
0.0
  0
ENDBLK
  5
BAB
330
BA0
100
AcDbEntity
  8
0
100
AcDbBlockEnd
  0
BLOCK
  5
BAD
330
BAC
100
AcDbEntity
  8
0
100
AcDbBlockBegin
  2
*D34
 70
     1
 10
0.0
 20
0.0
 30
0.0
  3
*D34
  1

  0
LINE
  5
19D8
330
BAC
100
AcDbEntity
  8
M
 62
     0
100
AcDbLine
 10
1719.14443052243
 20
410.3563325289529
 30
0.0
 11
1702.644430522429
 21
410.3563325289529
 31
0.0
  0
LINE
  5
19D9
330
BAC
100
AcDbEntity
  8
M
 62
     0
100
AcDbLine
 10
1722.44443052243
 20
389.4751386591312
 30
0.0
 11
1702.644430522429
 21
389.4751386591312
 31
0.0
  0
LINE
  5
19DA
330
BAC
100
AcDbEntity
  8
M
 62
     0
100
AcDbLine
 10
1703.64443052243
 20
407.6063325289529
 30
0.0
 11
1703.64443052243
 21
392.2251386591312
 31
0.0
  0
SOLID
  5
19DB
330
BAC
100
AcDbEntity
  8
M
 62
     0
100
AcDbTrace
 10
1703.186097189096
 20
407.6063325289529
 30
0.0
 11
1704.102763855763
 21
407.6063325289529
 31
0.0
 12
1703.64443052243
 22
410.3563325289529
 32
0.0
 13
1703.64443052243
 23
410.3563325289529
 33
0.0
  0
SOLID
  5
19DC
330
BAC
100
AcDbEntity
  8
M
 62
     0
100
AcDbTrace
 10
1703.186097189096
 20
392.2251386591312
 30
0.0
 11
1704.102763855763
 21
392.2251386591312
 31
0.0
 12
1703.64443052243
 22
389.4751386591312
 32
0.0
 13
1703.64443052243
 23
389.4751386591312
 33
0.0
  0
MTEXT
  5
19DD
330
BAC
100
AcDbEntity
  8
M
 62
     0
100
AcDbMText
 10
1700.89443052243
 20
399.9157355940424
 30
0.0
 40
3.5
 41
0.0
 71
     5
 72
     1
  1
\A1;21
 11
0.0000000000000001
 21
1.0
 31
0.0
1001
ACAD
1000
MTEXTBEGIN
1070
    73
1070
     1
1070
    44
1040
1.0
1070
    74
1070
     0
1000
MTEXTEND
1000
MTEXTBEGIN
1070
    73
1070
     1
1070
    44
1040
1.0
1070
    74
1070
     0
1000
MTEXTEND
  0
POINT
  5
19DE
330
BAC
100
AcDbEntity
  8
DEFPOINTS
 62
     0
100
AcDbPoint
 10
1720.14443052243
 20
410.3563325289529
 30
0.0
  0
POINT
  5
19DF
330
BAC
100
AcDbEntity
  8
DEFPOINTS
 62
     0
100
AcDbPoint
 10
1723.44443052243
 20
389.4751386591312
 30
0.0
  0
POINT
  5
19E0
330
BAC
100
AcDbEntity
  8
DEFPOINTS
 62
     0
100
AcDbPoint
 10
1703.64443052243
 20
389.4751386591312
 30
0.0
  0
ENDBLK
  5
BB7
330
BAC
100
AcDbEntity
  8
0
100
AcDbBlockEnd
  0
BLOCK
  5
BB9
330
BB8
100
AcDbEntity
  8
0
100
AcDbBlockBegin
  2
*D35
 70
     1
 10
0.0
 20
0.0
 30
0.0
  3
*D35
  1

  0
LINE
  5
192B
330
BB8
100
AcDbEntity
  8
M
 62
     0
100
AcDbLine
 10
1722.563816628354
 20
630.4519595806485
 30
0.0
 11
1702.644430522425
 21
630.4519595806485
 31
0.0
  0
LINE
  5
192C
330
BB8
100
AcDbEntity
  8
M
 62
     0
100
AcDbLine
 10
1717.644430522426
 20
604.0603071251687
 30
0.0
 11
1702.644430522425
 21
604.0603071251687
 31
0.0
  0
LINE
  5
192D
330
BB8
100
AcDbEntity
  8
M
 62
     0
100
AcDbLine
 10
1703.644430522426
 20
627.7019595806485
 30
0.0
 11
1703.644430522426
 21
606.8103071251687
 31
0.0
  0
SOLID
  5
192E
330
BB8
100
AcDbEntity
  8
M
 62
     0
100
AcDbTrace
 10
1703.186097189092
 20
627.7019595806485
 30
0.0
 11
1704.102763855759
 21
627.7019595806485
 31
0.0
 12
1703.644430522426
 22
630.4519595806485
 32
0.0
 13
1703.644430522426
 23
630.4519595806485
 33
0.0
  0
SOLID
  5
192F
330
BB8
100
AcDbEntity
  8
M
 62
     0
100
AcDbTrace
 10
1703.186097189092
 20
606.8103071251687
 30
0.0
 11
1704.102763855759
 21
606.8103071251687
 31
0.0
 12
1703.644430522426
 22
604.0603071251687
 32
0.0
 13
1703.644430522426
 23
604.0603071251687
 33
0.0
  0
MTEXT
  5
1930
330
BB8
100
AcDbEntity
  8
M
 62
     0
100
AcDbMText
 10
1700.561097189092
 20
617.2561333529088
 30
0.0
 40
3.5
 41
0.0
 71
     5
 72
     1
  1
\A1;26,5
 11
0.0000000000000001
 21
1.0
 31
0.0
1001
ACAD
1000
MTEXTBEGIN
1070
    73
1070
     1
1070
    44
1040
1.0
1070
    74
1070
     0
1000
MTEXTEND
1000
MTEXTBEGIN
1070
    73
1070
     1
1070
    44
1040
1.0
1070
    74
1070
     0
1000
MTEXTEND
  0
POINT
  5
1931
330
BB8
100
AcDbEntity
  8
DEFPOINTS
 62
     0
100
AcDbPoint
 10
1723.563816628354
 20
630.4519595806485
 30
0.0
  0
POINT
  5
1932
330
BB8
100
AcDbEntity
  8
DEFPOINTS
 62
     0
100
AcDbPoint
 10
1718.644430522425
 20
604.0603071251687
 30
0.0
  0
POINT
  5
1933
330
BB8
100
AcDbEntity
  8
DEFPOINTS
 62
     0
100
AcDbPoint
 10
1703.644430522426
 20
604.0603071251687
 30
0.0
  0
ENDBLK
  5
BC3
330
BB8
100
AcDbEntity
  8
0
100
AcDbBlockEnd
  0
BLOCK
  5
BC5
330
BC4
100
AcDbEntity
  8
0
100
AcDbBlockBegin
  2
*D36
 70
     1
 10
0.0
 20
0.0
 30
0.0
  3
*D36
  1

  0
LINE
  5
19F5
330
BC4
100
AcDbEntity
  8
M
 62
     0
100
AcDbLine
 10
1722.744430522425
 20
561.2263325289531
 30
0.0
 11
1702.644430522427
 21
561.2263325289531
 31
0.0
  0
LINE
  5
19F6
330
BC4
100
AcDbEntity
  8
M
 62
     0
100
AcDbLine
 10
1722.744430522425
 20
527.896332528953
 30
0.0
 11
1702.644430522427
 21
527.896332528953
 31
0.0
  0
LINE
  5
19F7
330
BC4
100
AcDbEntity
  8
M
 62
     0
100
AcDbLine
 10
1703.644430522427
 20
558.4763325289531
 30
0.0
 11
1703.644430522427
 21
530.646332528953
 31
0.0
  0
SOLID
  5
19F8
330
BC4
100
AcDbEntity
  8
M
 62
     0
100
AcDbTrace
 10
1703.186097189093
 20
558.4763325289531
 30
0.0
 11
1704.10276385576
 21
558.4763325289531
 31
0.0
 12
1703.644430522427
 22
561.2263325289531
 32
0.0
 13
1703.644430522427
 23
561.2263325289531
 33
0.0
  0
SOLID
  5
19F9
330
BC4
100
AcDbEntity
  8
M
 62
     0
100
AcDbTrace
 10
1703.186097189093
 20
530.646332528953
 30
0.0
 11
1704.10276385576
 21
530.646332528953
 31
0.0
 12
1703.644430522427
 22
527.896332528953
 32
0.0
 13
1703.644430522427
 23
527.896332528953
 33
0.0
  0
MTEXT
  5
19FA
330
BC4
100
AcDbEntity
  8
M
 62
     0
100
AcDbMText
 10
1700.561097189093
 20
544.5613325289533
 30
0.0
 40
3.5
 41
0.0
 71
     5
 72
     1
  1
\A1;33,5
 11
0.0000000000000001
 21
1.0
 31
0.0
1001
ACAD
1000
MTEXTBEGIN
1070
    73
1070
     1
1070
    44
1040
1.0
1070
    74
1070
     0
1000
MTEXTEND
1000
MTEXTBEGIN
1070
    73
1070
     1
1070
    44
1040
1.0
1070
    74
1070
     0
1000
MTEXTEND
  0
POINT
  5
19FB
330
BC4
100
AcDbEntity
  8
DEFPOINTS
 62
     0
100
AcDbPoint
 10
1723.744430522425
 20
561.2263325289531
 30
0.0
  0
POINT
  5
19FC
330
BC4
100
AcDbEntity
  8
DEFPOINTS
 62
     0
100
AcDbPoint
 10
1723.744430522425
 20
527.896332528953
 30
0.0
  0
POINT
  5
19FD
330
BC4
100
AcDbEntity
  8
DEFPOINTS
 62
     0
100
AcDbPoint
 10
1703.644430522427
 20
527.896332528953
 30
0.0
  0
ENDBLK
  5
BCF
330
BC4
100
AcDbEntity
  8
0
100
AcDbBlockEnd
  0
BLOCK
  5
BD1
330
BD0
100
AcDbEntity
  8
0
100
AcDbBlockBegin
  2
*D37
 70
     1
 10
0.0
 20
0.0
 30
0.0
  3
*D37
  1

  0
LINE
  5
1946
330
BD0
100
AcDbEntity
  8
M
 62
     0
100
AcDbLine
 10
1751.644430522426
 20
609.6103071251686
 30
0.0
 11
1767.644430522426
 21
609.6103071251686
 31
0.0
  0
LINE
  5
1947
330
BD0
100
AcDbEntity
  8
M
 62
     0
100
AcDbLine
 10
1751.64443052243
 20
410.3563325289529
 30
0.0
 11
1767.644430522426
 21
410.3563325289529
 31
0.0
  0
LINE
  5
1948
330
BD0
100
AcDbEntity
  8
M
 62
     0
100
AcDbLine
 10
1766.644430522426
 20
606.8603071251686
 30
0.0
 11
1766.644430522426
 21
413.1063325289529
 31
0.0
  0
SOLID
  5
1949
330
BD0
100
AcDbEntity
  8
M
 62
     0
100
AcDbTrace
 10
1766.186097189093
 20
606.8603071251686
 30
0.0
 11
1767.102763855759
 21
606.8603071251686
 31
0.0
 12
1766.644430522426
 22
609.6103071251686
 32
0.0
 13
1766.644430522426
 23
609.6103071251686
 33
0.0
  0
SOLID
  5
194A
330
BD0
100
AcDbEntity
  8
M
 62
     0
100
AcDbTrace
 10
1766.186097189092
 20
413.1063325289529
 30
0.0
 11
1767.102763855759
 21
413.1063325289529
 31
0.0
 12
1766.644430522426
 22
410.3563325289529
 32
0.0
 13
1766.644430522426
 23
410.3563325289529
 33
0.0
  0
MTEXT
  5
194B
330
BD0
100
AcDbEntity
  8
M
 62
     0
100
AcDbMText
 10
1763.894430522426
 20
509.983319827061
 30
0.0
 40
3.5
 41
0.0
 71
     5
 72
     1
  1
\A1;H
 11
0.0000000000000001
 21
1.0
 31
0.0
1001
ACAD
1000
MTEXTBEGIN
1070
    73
1070
     1
1070
    44
1040
1.0
1070
    74
1070
     0
1000
MTEXTEND
1000
MTEXTBEGIN
1070
    73
1070
     1
1070
    44
1040
1.0
1070
    74
1070
     0
1000
MTEXTEND
  0
POINT
  5
194C
330
BD0
100
AcDbEntity
  8
DEFPOINTS
 62
     0
100
AcDbPoint
 10
1750.644430522426
 20
609.6103071251686
 30
0.0
  0
POINT
  5
194D
330
BD0
100
AcDbEntity
  8
DEFPOINTS
 62
     0
100
AcDbPoint
 10
1750.64443052243
 20
410.3563325289529
 30
0.0
  0
POINT
  5
194E
330
BD0
100
AcDbEntity
  8
DEFPOINTS
 62
     0
100
AcDbPoint
 10
1766.644430522426
 20
410.3563325289529
 30
0.0
  0
ENDBLK
  5
BDB
330
BD0
100
AcDbEntity
  8
0
100
AcDbBlockEnd
  0
BLOCK
  5
C4C
330
BDC
100
AcDbEntity
  8
0
100
AcDbBlockBegin
  2
*D38
 70
     1
 10
0.0
 20
0.0
 30
0.0
  3
*D38
  1

  0
LINE
  5
1910
330
BDC
100
AcDbEntity
  8
M
 62
     0
100
AcDbLine
 10
1718.644430522425
 20
630.0603071251686
 30
0.0
 11
1718.644430522425
 21
646.1260708134848
 31
0.0
  0
LINE
  5
1911
330
BDC
100
AcDbEntity
  8
M
 62
     0
100
AcDbLine
 10
1752.144430522426
 20
607.0603071251687
 30
0.0
 11
1752.144430522426
 21
646.1260708134848
 31
0.0
  0
LINE
  5
1912
330
BDC
100
AcDbEntity
  8
M
 62
     0
100
AcDbLine
 10
1721.394430522425
 20
645.1260708134848
 30
0.0
 11
1749.394430522426
 21
645.1260708134848
 31
0.0
  0
SOLID
  5
1913
330
BDC
100
AcDbEntity
  8
M
 62
     0
100
AcDbTrace
 10
1721.394430522425
 20
645.5844041468182
 30
0.0
 11
1721.394430522425
 21
644.6677374801514
 31
0.0
 12
1718.644430522425
 22
645.1260708134848
 32
0.0
 13
1718.644430522425
 23
645.1260708134848
 33
0.0
  0
SOLID
  5
1914
330
BDC
100
AcDbEntity
  8
M
 62
     0
100
AcDbTrace
 10
1749.394430522426
 20
645.5844041468182
 30
0.0
 11
1749.394430522426
 21
644.6677374801514
 31
0.0
 12
1752.144430522426
 22
645.1260708134848
 32
0.0
 13
1752.144430522426
 23
645.1260708134848
 33
0.0
  0
MTEXT
  5
1915
330
BDC
100
AcDbEntity
  8
M
 62
     0
100
AcDbMText
 10
1735.394430522426
 20
647.8760708134848
 30
0.0
 40
3.5
 41
0.0
 71
     5
 72
     1
  1
\A1;33.5
1001
ACAD
1000
MTEXTBEGIN
1070
    73
1070
     1
1070
    44
1040
1.0
1070
    74
1070
     0
1000
MTEXTEND
1000
MTEXTBEGIN
1070
    73
1070
     1
1070
    44
1040
1.0
1070
    74
1070
     0
1000
MTEXTEND
  0
POINT
  5
1916
330
BDC
100
AcDbEntity
  8
DEFPOINTS
 62
     0
100
AcDbPoint
 10
1718.644430522425
 20
629.0603071251687
 30
0.0
  0
POINT
  5
1917
330
BDC
100
AcDbEntity
  8
DEFPOINTS
 62
     0
100
AcDbPoint
 10
1752.144430522426
 20
606.0603071251687
 30
0.0
  0
POINT
  5
1918
330
BDC
100
AcDbEntity
  8
DEFPOINTS
 62
     0
100
AcDbPoint
 10
1752.144430522426
 20
645.1260708134848
 30
0.0
  0
ENDBLK
  5
C56
330
BDC
100
AcDbEntity
  8
0
100
AcDbBlockEnd
  0
BLOCK
  5
1145
330
10AB
100
AcDbEntity
  8
0
100
AcDbBlockBegin
  2
ISO_A4
 70
     2
 10
0.0
 20
0.0
 30
0.0
  3
ISO_A4
  1

  0
LINE
  5
10AC
330
10AB
100
AcDbEntity
  8
KADER
 62
     8
100
AcDbLine
 10
302.0
 20
4.999999999999982
 30
0.0
 11
302.0
 21
14.99999999999998
 31
0.0
  0
LINE
  5
10AD
330
10AB
100
AcDbEntity
  8
KADER
 62
     8
100
AcDbLine
 10
302.0
 20
4.999999999999982
 30
0.0
 11
292.0
 21
4.999999999999983
 31
0.0
  0
LINE
  5
10AE
330
10AB
100
AcDbEntity
  8
KADER
 62
     8
100
AcDbLine
 10
302.0
 20
214.9999999999999
 30
0.0
 11
302.0
 21
204.9999999999999
 31
0.0
  0
LINE
  5
10AF
330
10AB
100
AcDbEntity
  8
KADER
 62
     8
100
AcDbLine
 10
302.0
 20
214.9999999999999
 30
0.0
 11
292.0
 21
214.9999999999999
 31
0.0
  0
LINE
  5
10B0
330
10AB
100
AcDbEntity
  8
KADER
 62
     8
100
AcDbLine
 10
15.0
 20
215.0
 30
0.0
 11
5.0
 21
215.0
 31
0.0
  0
LINE
  5
10B1
330
10AB
100
AcDbEntity
  8
KADER
 62
     8
100
AcDbLine
 10
5.0
 20
215.0
 30
0.0
 11
5.0
 21
205.0
 31
0.0
  0
LINE
  5
10B2
330
10AB
100
AcDbEntity
  8
KADER
 62
     8
100
AcDbLine
 10
5.0
 20
15.0
 30
0.0
 11
5.0
 21
5.0
 31
0.0
  0
LINE
  5
10B3
330
10AB
100
AcDbEntity
  8
KADER
 62
     8
100
AcDbLine
 10
5.0
 20
5.0
 30
0.0
 11
15.0
 21
5.0
 31
0.0
  0
LINE
  5
10B4
330
10AB
100
AcDbEntity
  8
KADER
 62
     1
100
AcDbLine
 10
292.0
 20
14.99999999999998
 30
0.0
 11
292.0
 21
204.9999999999999
 31
0.0
  0
LINE
  5
10B5
330
10AB
100
AcDbEntity
  8
KADER
 62
     1
100
AcDbLine
 10
292.0
 20
204.9999999999999
 30
0.0
 11
15.0
 21
205.0
 31
0.0
  0
LINE
  5
10B6
330
10AB
100
AcDbEntity
  8
KADER
 62
     1
100
AcDbLine
 10
15.0
 20
205.0
 30
0.0
 11
15.0
 21
15.0
 31
0.0
  0
LINE
  5
10B7
330
10AB
100
AcDbEntity
  8
KADER
 62
     1
100
AcDbLine
 10
15.0
 20
15.0
 30
0.0
 11
292.0
 21
14.99999999999998
 31
0.0
  0
LINE
  5
10B8
330
10AB
100
AcDbEntity
  8
KADER_VERDELING
100
AcDbLine
 10
153.8541563139426
 20
9.999999999999992
 30
0.0
 11
153.8541563139426
 21
14.99999999999999
 31
0.0
  0
LINE
  5
10B9
330
10AB
100
AcDbEntity
  8
KADER_VERDELING
100
AcDbLine
 10
20.0
 20
110.0
 30
0.0
 11
10.0
 21
110.0
 31
0.0
  0
LINE
  5
10BA
330
10AB
100
AcDbEntity
  8
KADER_VERDELING
100
AcDbLine
 10
15.0
 20
157.5
 30
0.0
 11
10.0
 21
157.5
 31
0.0
  0
TEXT
  5
10BB
330
10AB
100
AcDbEntity
  8
KADER_VERDELING
100
AcDbText
 10
11.71886931250492
 20
35.47010096938334
 30
0.0
 40
4.0
  1
1
  7
ISOCP
 72
     4
 11
12.71886931250492
 21
37.47010096938334
 31
0.0
100
AcDbText
  0
TEXT
  5
10BC
330
10AB
100
AcDbEntity
  8
KADER_VERDELING
100
AcDbText
 10
11.27629813158789
 20
82.87226677988181
 30
0.0
 40
4.0
  1
2
  7
ISOCP
 72
     4
 11
12.74562884024931
 21
84.97266048066922
 31
0.0
100
AcDbText
  0
TEXT
  5
10BD
330
10AB
100
AcDbEntity
  8
KADER_VERDELING
100
AcDbText
 10
10.92972468408117
 20
131.697584823364
 30
0.0
 40
4.0
  1
3
  7
ISOCP
 72
     4
 11
12.41256739655579
 21
133.6147421108894
 31
0.0
100
AcDbText
  0
TEXT
  5
10BE
330
10AB
100
AcDbEntity
  8
KADER_VERDELING
100
AcDbText
 10
10.5476510691117
 20
178.9159489505248
 30
0.0
 40
4.0
  1
4
  7
ISOCP
 72
     4
 11
12.1476510691117
 21
180.9159489505248
 31
0.0
100
AcDbText
  0
LINE
  5
10BF
330
10AB
100
AcDbEntity
  8
KADER_VERDELING
100
AcDbLine
 10
107.4999999999999
 20
14.99999999999999
 30
0.0
 11
107.4999999999999
 21
9.999999999999992
 31
0.0
  0
LINE
  5
10C0
330
10AB
100
AcDbEntity
  8
KADER_VERDELING
100
AcDbLine
 10
61.5
 20
14.99999999999999
 30
0.0
 11
61.5
 21
9.999999999999996
 31
0.0
  0
LINE
  5
10C1
330
10AB
100
AcDbEntity
  8
KADER_VERDELING
100
AcDbLine
 10
199.5
 20
14.99999999999999
 30
0.0
 11
199.5
 21
9.999999999999989
 31
0.0
  0
LINE
  5
10C2
330
10AB
100
AcDbEntity
  8
KADER_VERDELING
100
AcDbLine
 10
245.5
 20
14.99999999999998
 30
0.0
 11
245.5
 21
9.999999999999985
 31
0.0
  0
TEXT
  5
10C3
330
10AB
100
AcDbEntity
  8
KADER_VERDELING
100
AcDbText
 10
35.00369436276464
 20
9.34452757581516
 30
0.0
 40
4.0
  1
A
  7
ISOCP
 72
     4
 11
36.80369436276464
 21
11.34452757581515
 31
0.0
100
AcDbText
  0
TEXT
  5
10C4
330
10AB
100
AcDbEntity
  8
KADER_VERDELING
100
AcDbText
 10
84.1677435776212
 20
9.345613980805861
 30
0.0
 40
4.0
  1
B
  7
ISOCP
 72
     4
 11
85.76774357762122
 21
11.34561398080586
 31
0.0
100
AcDbText
  0
TEXT
  5
10C5
330
10AB
100
AcDbEntity
  8
KADER_VERDELING
100
AcDbText
 10
270.4175971190715
 20
9.021116724335577
 30
0.0
 40
4.0
  1
F
  7
ISOCP
 72
     4
 11
271.8175971190714
 21
11.02111672433557
 31
0.0
100
AcDbText
  0
TEXT
  5
10C6
330
10AB
100
AcDbEntity
  8
KADER_VERDELING
100
AcDbText
 10
35.56765121178256
 20
205.9868022030632
 30
0.0
 40
4.0
  1
A
  7
ISOCP
 72
     4
 11
37.36765121178255
 21
207.9868022030632
 31
0.0
100
AcDbText
  0
LINE
  5
10C7
330
10AB
100
AcDbEntity
  8
KADER_VERDELING
100
AcDbLine
 10
61.5
 20
210.0
 30
0.0
 11
61.5
 21
205.0
 31
0.0
  0
TEXT
  5
10C8
330
10AB
100
AcDbEntity
  8
KADER_VERDELING
100
AcDbText
 10
83.70161129903214
 20
205.9984364316005
 30
0.0
 40
4.0
  1
B
  7
ISOCP
 72
     4
 11
85.30161129903216
 21
207.9984364316005
 31
0.0
100
AcDbText
  0
LINE
  5
10C9
330
10AB
100
AcDbEntity
  8
KADER_VERDELING
100
AcDbLine
 10
107.4999999999999
 20
209.9999999999999
 30
0.0
 11
107.4999999999999
 21
204.9999999999999
 31
0.0
  0
TEXT
  5
10CA
330
10AB
100
AcDbEntity
  8
KADER_VERDELING
100
AcDbText
 10
129.0532062254501
 20
205.710359458123
 30
0.0
 40
4.0
  1
C
  7
ISOCP
 72
     4
 11
130.3600081739161
 21
207.710359458123
 31
0.0
100
AcDbText
  0
TEXT
  5
10CB
330
10AB
100
AcDbEntity
  8
KADER_VERDELING
100
AcDbText
 10
174.8971368227629
 20
205.7464181772217
 30
0.0
 40
4.0
  1
D
  7
ISOCP
 72
     4
 11
176.6110455524155
 21
207.7464181772217
 31
0.0
100
AcDbText
  0
LINE
  5
10CC
330
10AB
100
AcDbEntity
  8
KADER_VERDELING
100
AcDbLine
 10
199.5
 20
209.9999999999999
 30
0.0
 11
199.5
 21
204.9999999999999
 31
0.0
  0
TEXT
  5
10CD
330
10AB
100
AcDbEntity
  8
KADER_VERDELING
100
AcDbText
 10
221.9836503182936
 20
205.6865249790041
 30
0.0
 40
4.0
  1
E
  7
ISOCP
 72
     4
 11
223.3836503182936
 21
207.6865249790041
 31
0.0
100
AcDbText
  0
LINE
  5
10CE
330
10AB
100
AcDbEntity
  8
KADER_VERDELING
100
AcDbLine
 10
245.5
 20
209.9999999999999
 30
0.0
 11
245.5
 21
204.9999999999999
 31
0.0
  0
TEXT
  5
10CF
330
10AB
100
AcDbEntity
  8
KADER_VERDELING
100
AcDbText
 10
268.3562916097629
 20
205.7319128133757
 30
0.0
 40
4.0
  1
F
  7
ISOCP
 72
     4
 11
269.7562916097629
 21
207.7319128133757
 31
0.0
100
AcDbText
  0
LINE
  5
10D0
330
10AB
100
AcDbEntity
  8
KADER_TITTELHOEK
 62
     1
100
AcDbLine
 10
179.0
 20
24.99999999999999
 30
0.0
 11
292.0
 21
24.99999999999999
 31
0.0
  0
LINE
  5
10D1
330
10AB
100
AcDbEntity
  8
KADER_TITTELHOEK
 62
     1
100
AcDbLine
 10
122.0
 20
34.99999999999999
 30
0.0
 11
292.0
 21
34.99999999999999
 31
0.0
  0
LINE
  5
10D2
330
10AB
100
AcDbEntity
  8
KADER_TITTELHOEK
 62
     1
100
AcDbLine
 10
122.0
 20
45.0
 30
0.0
 11
292.0
 21
45.0
 31
0.0
  0
LINE
  5
10D3
330
10AB
100
AcDbEntity
  8
KADER_TITTELHOEK
 62
     1
100
AcDbLine
 10
122.0
 20
14.99999999999999
 30
0.0
 11
122.0
 21
45.0
 31
0.0
  0
LINE
  5
10D4
330
10AB
100
AcDbEntity
  8
KADER_TITTELHOEK
 62
     1
100
AcDbLine
 10
179.0
 20
14.99999999999999
 30
0.0
 11
179.0
 21
34.99999999999999
 31
0.0
  0
LINE
  5
10D5
330
10AB
100
AcDbEntity
  8
KADER_TITTELHOEK
 62
     1
100
AcDbLine
 10
272.0
 20
14.99999999999999
 30
0.0
 11
272.0
 21
24.99999999999999
 31
0.0
  0
LINE
  5
10D6
330
10AB
100
AcDbEntity
  8
KADER_TITTELHOEK
 62
     1
100
AcDbLine
 10
257.0
 20
14.99999999999999
 30
0.0
 11
257.0
 21
24.99999999999999
 31
0.0
  0
LINE
  5
10D7
330
10AB
100
AcDbEntity
  8
KADER_TITTELHOEK
 62
     1
100
AcDbLine
 10
272.0
 20
34.99999999999999
 30
0.0
 11
272.0
 21
45.0
 31
0.0
  0
LINE
  5
10D8
330
10AB
100
AcDbEntity
  8
KADER_TITTELHOEK
 62
     1
100
AcDbLine
 10
242.0
 20
34.99999999999999
 30
0.0
 11
242.0
 21
45.0
 31
0.0
  0
LINE
  5
10D9
330
10AB
100
AcDbEntity
  8
KADER_TITTELHOEK
 62
     1
100
AcDbLine
 10
217.0
 20
34.99999999999999
 30
0.0
 11
217.0
 21
45.0
 31
0.0
  0
LINE
  5
10DA
330
10AB
100
AcDbEntity
  8
KADER_TITTELHOEK
 62
     1
100
AcDbLine
 10
179.0
 20
34.99999999999999
 30
0.0
 11
179.0
 21
45.0
 31
0.0
  0
LINE
  5
10DB
330
10AB
100
AcDbEntity
  8
KADER_TITTELHOEK
 62
     1
100
AcDbLine
 10
154.0
 20
34.99999999999999
 30
0.0
 11
154.0
 21
45.0
 31
0.0
  0
LINE
  5
10DC
330
10AB
100
AcDbEntity
  8
KADER_TITTELHOEK
 62
     1
100
AcDbLine
 10
122.0
 20
51.0
 30
0.0
 11
292.0
 21
51.0
 31
0.0
  0
LINE
  5
10DD
330
10AB
100
AcDbEntity
  8
KADER_TITTELHOEK
 62
     1
100
AcDbLine
 10
137.0
 20
45.0
 30
0.0
 11
137.0
 21
51.0
 31
0.0
  0
LINE
  5
10DE
330
10AB
100
AcDbEntity
  8
KADER_TITTELHOEK
 62
     1
100
AcDbLine
 10
122.0
 20
45.0
 30
0.0
 11
122.0
 21
51.0
 31
0.0
  0
LINE
  5
10DF
330
10AB
100
AcDbEntity
  8
KADER_TITTELHOEK
 62
     1
100
AcDbLine
 10
154.0
 20
45.0
 30
0.0
 11
154.0
 21
51.0
 31
0.0
  0
LINE
  5
10E0
330
10AB
100
AcDbEntity
  8
KADER_TITTELHOEK
 62
     1
100
AcDbLine
 10
242.0
 20
45.0
 30
0.0
 11
242.0
 21
51.0
 31
0.0
  0
LINE
  5
10E1
330
10AB
100
AcDbEntity
  8
KADER_TITTELHOEK
 62
     1
100
AcDbLine
 10
121.9999999999999
 20
199.0
 30
0.0
 11
121.9999999999999
 21
205.0
 31
0.0
  0
LINE
  5
10E2
330
10AB
100
AcDbEntity
  8
KADER_TITTELHOEK
 62
     1
100
AcDbLine
 10
121.9999999999999
 20
199.0
 30
0.0
 11
292.0
 21
198.9999999999999
 31
0.0
  0
LINE
  5
10E3
330
10AB
100
AcDbEntity
  8
KADER_TITTELHOEK
 62
     1
100
AcDbLine
 10
133.9999999999999
 20
199.0
 30
0.0
 11
133.9999999999999
 21
205.0
 31
0.0
  0
LINE
  5
10E4
330
10AB
100
AcDbEntity
  8
KADER_TITTELHOEK
 62
     1
100
AcDbLine
 10
243.0
 20
199.0
 30
0.0
 11
243.0
 21
205.0
 31
0.0
  0
LINE
  5
10E5
330
10AB
100
AcDbEntity
  8
KADER_TITTELHOEK
 62
     1
100
AcDbLine
 10
263.0
 20
198.9999999999999
 30
0.0
 11
263.0
 21
204.9999999999999
 31
0.0
  0
LINE
  5
10E6
330
10AB
100
AcDbEntity
  8
KADER_TITTELHOEK
 62
     1
100
AcDbLine
 10
278.0
 20
198.9999999999999
 30
0.0
 11
278.0
 21
204.9999999999999
 31
0.0
  0
TEXT
  5
10E7
330
10AB
100
AcDbEntity
  8
KADER_TITTELHOEK
 62
     7
100
AcDbText
 10
124.0
 20
46.74999999999999
 30
0.0
 40
2.5
  1
Stuknr.
  7
ISOCP
 11
124.0
 21
48.0
 31
0.0
100
AcDbText
 73
     2
  0
TEXT
  5
10E8
330
10AB
100
AcDbEntity
  8
KADER_TITTELHOEK
 62
     7
100
AcDbText
 10
124.0
 20
40.75
 30
0.0
 40
2.5
  1
Getekend
  7
ISOCP
 11
124.0
 21
42.0
 31
0.0
100
AcDbText
 73
     2
  0
TEXT
  5
10E9
330
10AB
100
AcDbEntity
  8
KADER_TITTELHOEK
 62
     7
100
AcDbText
 10
274.0
 20
40.75
 30
0.0
 40
2.5
  1
Schaal
  7
ISOCP
 11
274.0
 21
42.0
 31
0.0
100
AcDbText
 73
     2
  0
TEXT
  5
10EA
330
10AB
100
AcDbEntity
  8
KADER_TITTELHOEK
 62
     7
100
AcDbText
 10
244.0
 20
40.75
 30
0.0
 40
2.5
  1
Datum
  7
ISOCP
 11
244.0
 21
42.0
 31
0.0
100
AcDbText
 73
     2
  0
TEXT
  5
10EB
330
10AB
100
AcDbEntity
  8
KADER_TITTELHOEK
 62
     7
100
AcDbText
 10
219.0
 20
40.75
 30
0.0
 40
2.5
  1
Bestand
  7
ISOCP
 11
219.0
 21
42.0
 31
0.0
100
AcDbText
 73
     2
  0
TEXT
  5
10EC
330
10AB
100
AcDbEntity
  8
KADER_TITTELHOEK
 62
     7
100
AcDbText
 10
181.0
 20
40.75
 30
0.0
 40
2.5
  1
Gewijzigd - datum
  7
ISOCP
 11
181.0
 21
42.0
 31
0.0
100
AcDbText
 73
     2
  0
TEXT
  5
10ED
330
10AB
100
AcDbEntity
  8
KADER_TITTELHOEK
 62
     7
100
AcDbText
 10
156.0
 20
40.75
 30
0.0
 40
2.5
  1
Controle
  7
ISOCP
 11
156.0
 21
42.0
 31
0.0
100
AcDbText
 73
     2
  0
TEXT
  5
10EE
330
10AB
100
AcDbEntity
  8
KADER_TITTELHOEK
 62
     7
100
AcDbText
 10
156.0
 20
46.74999999999999
 30
0.0
 40
2.5
  1
Titel/Naam, materiaal, bemating enz
  7
ISOCP
 11
156.0
 21
48.0
 31
0.0
100
AcDbText
 73
     2
  0
TEXT
  5
10EF
330
10AB
100
AcDbEntity
  8
KADER_TITTELHOEK
 62
     7
100
AcDbText
 10
139.6676742291358
 20
46.97240517337684
 30
0.0
 40
2.5
  1
Aantal
  7
ISOCP
 11
139.6676742291358
 21
48.22240517337684
 31
0.0
100
AcDbText
 73
     2
  0
TEXT
  5
10F0
330
10AB
100
AcDbEntity
  8
KADER_TITTELHOEK
 62
     7
100
AcDbText
 10
244.0
 20
46.74999999999999
 30
0.0
 40
2.5
  1
Artikel Nr./Referentie
  7
ISOCP
 11
244.0
 21
48.0
 31
0.0
100
AcDbText
 73
     2
  0
TEXT
  5
10F1
330
10AB
100
AcDbEntity
  8
KADER_TITTELHOEK
 62
     7
100
AcDbText
 10
123.5441668296345
 20
200.7499999999999
 30
0.0
 40
2.5
  1
RevNr.
  7
ISOCP
 11
123.5441668296345
 21
202.0
 31
0.0
100
AcDbText
 73
     2
  0
TEXT
  5
10F2
330
10AB
100
AcDbEntity
  8
KADER_TITTELHOEK
 62
     7
100
AcDbText
 10
135.9999999999999
 20
200.7499999999999
 30
0.0
 40
2.5
  1
Revisie nota
  7
ISOCP
 11
135.9999999999999
 21
202.0
 31
0.0
100
AcDbText
 73
     2
  0
TEXT
  5
10F3
330
10AB
100
AcDbEntity
  8
KADER_TITTELHOEK
 62
     7
100
AcDbText
 10
244.9999999999999
 20
200.7499999999999
 30
0.0
 40
2.5
  1
Datum
  7
ISOCP
 11
244.9999999999999
 21
201.9999999999999
 31
0.0
100
AcDbText
 73
     2
  0
TEXT
  5
10F4
330
10AB
100
AcDbEntity
  8
KADER_TITTELHOEK
 62
     7
100
AcDbText
 10
263.8858869489518
 20
200.7499999999999
 30
0.0
 40
2.5
  1
Handtek.
  7
ISOCP
 11
263.8858869489518
 21
201.9999999999999
 31
0.0
100
AcDbText
 73
     2
  0
TEXT
  5
10F5
330
10AB
100
AcDbEntity
  8
KADER_TITTELHOEK
 62
     7
100
AcDbText
 10
278.5581061433595
 20
200.7499999999999
 30
0.0
 40
2.5
  1
Controle
  7
ISOCP
 11
278.5581061433595
 21
201.9999999999999
 31
0.0
100
AcDbText
 73
     2
  0
ATTDEF
  5
10F6
330
10AB
100
AcDbEntity
  8
KADER_TITTELHOEK
 62
     6
100
AcDbText
 10
211.3792690442242
 20
27.49999999999999
 30
0.0
 40
5.0
  1
XXX
  7
ISOCP
 72
     4
 11
218.1292690442242
 21
29.99999999999999
 31
0.0
100
AcDbAttributeDefinition
  3
Title / Name
  2
TITLE
 70
     8
  0
ATTDEF
  5
10F7
330
10AB
100
AcDbEntity
  8
KADER_TITTELHOEK
 62
     6
100
AcDbText
 10
214.5628750622781
 20
18.49999999999999
 30
0.0
 40
3.0
  1
XXX
  7
ISOCP
 72
     4
 11
218.6128750622781
 21
19.99999999999999
 31
0.0
100
AcDbAttributeDefinition
  3
Sub tittel
  2
SUB_TITTEL
 70
     8
  0
ATTDEF
  5
10F8
330
10AB
100
AcDbEntity
  8
KADER_TITTELHOEK
 62
     7
100
AcDbText
 10
124.0
 20
36.75
 30
0.0
 40
2.5
  1
XXX
  7
ISOCP
 11
124.0
 21
38.0
 31
0.0
100
AcDbAttributeDefinition
  3
Getekend door
  2
GETEKEND_DOOR
 70
     8
 74
     2
  0
ATTDEF
  5
10F9
330
10AB
100
AcDbEntity
  8
KADER_TITTELHOEK
 62
     7
100
AcDbText
 10
156.0
 20
36.75
 30
0.0
 40
2.5
  1
XXX
  7
ISOCP
 11
156.0
 21
38.0
 31
0.0
100
AcDbAttributeDefinition
  3
Gecontroleerd door:
  2
CHECKED_BY
 70
     8
 74
     2
  0
ATTDEF
  5
10FA
330
10AB
100
AcDbEntity
  8
KADER_TITTELHOEK
 62
     7
100
AcDbText
 10
181.0
 20
36.75
 30
0.0
 40
2.5
  1
XXX - 00/00/00
  7
ISOCP
 11
181.0
 21
38.0
 31
0.0
100
AcDbAttributeDefinition
  3
Gewijzigd - datum
  2
APPROVED_BY_DATE
 70
     8
 74
     2
  0
ATTDEF
  5
10FB
330
10AB
100
AcDbEntity
  8
KADER_TITTELHOEK
 62
     7
100
AcDbText
 10
218.2654983431593
 20
37.05
 30
0.0
 40
1.9
  1
XXX
  7
ISOCP
 11
218.2654983431593
 21
38.0
 31
0.0
100
AcDbAttributeDefinition
  3
Bestandsnaam
  2
FILENAME
 70
     8
 74
     2
  0
ATTDEF
  5
10FC
330
10AB
100
AcDbEntity
  8
KADER_TITTELHOEK
 62
     7
100
AcDbText
 10
244.0
 20
36.75
 30
0.0
 40
2.5
  1
00/00/00
  7
ISOCP
 11
244.0
 21
38.0
 31
0.0
100
AcDbAttributeDefinition
  3
Datum
  2
DATE
 70
     8
 74
     2
  0
ATTDEF
  5
10FD
330
10AB
100
AcDbEntity
  8
KADER_TITTELHOEK
 62
     7
100
AcDbText
 10
274.0
 20
36.75
 30
0.0
 40
2.5
  1
1:1
  7
ISOCP
 11
274.0
 21
38.0
 31
0.0
100
AcDbAttributeDefinition
  3
Schaal
  2
SCALE
 70
     8
 74
     2
  0
TEXT
  5
10FE
330
10AB
100
AcDbEntity
  8
KADER_VERDELING
100
AcDbText
 10
293.6368378519511
 20
36.96626471010802
 30
0.0
 40
4.0
  1
1
  7
ISOCP
 72
     4
 11
294.636837851951
 21
38.96626471010802
 31
0.0
100
AcDbText
  0
TEXT
  5
10FF
330
10AB
100
AcDbEntity
  8
KADER_VERDELING
100
AcDbText
 10
292.969525199021
 20
179.0625897137481
 30
0.0
 40
4.0
  1
4
  7
ISOCP
 72
     4
 11
294.5695251990211
 21
181.0625897137481
 31
0.0
100
AcDbText
  0
MTEXT
  5
1100
330
10AB
100
AcDbEntity
  8
KADER_TITTELHOEK
 62
   160
100
AcDbMText
 10
127.2825832610423
 20
25.47581605291417
 30
0.0
 40
2.0625
 41
47.33301038168969
 71
     1
 72
     5
  1
\fTimes New Roman|b0|i0|c0|p18;INNOVATION  IN  VENTILATION
1001
ACAD
1000
MTEXTBEGIN
1070
    73
1070
     1
1070
    44
1040
1.0
1070
    74
1070
     0
1000
MTEXTEND
1000
MTEXTBEGIN
1070
    73
1070
     1
1070
    44
1040
1.0
1070
    74
1070
     0
1000
MTEXTEND
  0
MTEXT
  5
1101
330
10AB
100
AcDbEntity
  8
KADER_TITTELHOEK
 62
   160
100
AcDbMText
 10
140.5100717789433
 20
31.63394233220548
 30
0.0
 40
5.0295
 41
38.25306583304192
 71
     1
 72
     5
  1
\fSwis721 Blk BT|b0|i0|c0|p34;RENSON
1001
ACAD
1000
MTEXTBEGIN
1070
    73
1070
     1
1070
    44
1040
1.0
1070
    74
1070
     0
1000
MTEXTEND
1000
MTEXTBEGIN
1070
    73
1070
     1
1070
    44
1040
1.0
1070
    74
1070
     0
1000
MTEXTEND
  0
HATCH
  5
1102
330
10AB
100
AcDbEntity
  8
KADER_TITTELHOEK
 62
   160
100
AcDbHatch
 10
0.0
 20
0.0
 30
0.0
210
0.0
220
0.0
230
1.0
  2
SOLID
 70
     1
 71
     1
 91
        5
 92
        7
 72
     0
 73
     1
 93
        3
 10
137.1377540629619
 20
32.06944067523647
 10
131.7870806969857
 20
34.63776389090457
 10
126.4364073310097
 20
32.06944067523647
 97
        1
330
1104
 92
        7
 72
     0
 73
     1
 93
        4
 10
130.7169460237905
 20
31.67374848464782
 10
127.3460218032256
 20
31.67374848464783
 10
127.3460218032256
 20
26.64411552063028
 10
130.7169460237905
 20
26.64411552063029
 97
        1
330
1103
 92
        7
 72
     1
 73
     1
 93
        5
 10
132.8572153701808
 20
31.67374848464782
 42
0.0
 10
132.8572153701808
 20
31.1357629977026
 42
-0.0955472907599551
 10
134.2947162352096
 20
30.70890720365738
 42
0.1381186475286537
 10
136.2281395907458
 20
30.30758287354148
 42
0.0
 10
136.2281395907458
 20
31.67374848464783
 42
0.0
 97
        1
330
110B
 92
        7
 72
     1
 73
     1
 93
        6
 10
134.1485579218061
 20
29.30061483374749
 42
0.1366923164257738
 10
136.2281395907458
 20
28.86287532009465
 42
0.0
 10
136.2281395907464
 20
29.54346585555685
 42
-0.1381186475289333
 10
134.2947162352059
 20
29.94479018567606
 42
0.0955472907596634
 10
132.8572153701808
 20
30.37164597972378
 42
0.0
 10
132.8572153701808
 20
29.69010072420473
 42
-0.093385039562931
 97
        3
330
1115
330
110A
330
1105
 92
        7
 72
     1
 73
     1
 93
        5
 10
132.8572153701808
 20
26.64411552063028
 42
0.0
 10
136.2281395907458
 20
26.64411552063028
 42
0.0
 10
136.2281395907454
 20
28.09555592404671
 42
-0.1366923164245176
 10
134.1485579218229
 20
28.53329543769563
 42
0.0933850395640851
 10
132.8572153701808
 20
28.92278132815101
 42
0.0
 97
        1
330
1109
 75
     0
 76
     1
 47
0.0204263905011963
 98
        5
 10
133.3621313360244
 20
32.88459439653527
 10
129.7441819717731
 20
29.89723436504768
 10
134.281948921606
 20
31.26069615197908
 10
133.3468013343762
 20
29.86659518056713
 10
133.2548193815215
 20
27.59926558806932
  0
LWPOLYLINE
  5
1103
102
{ACAD_REACTORS
330
1102
102
}
330
10AB
100
AcDbEntity
  8
KADER_TITTELHOEK
 62
   160
100
AcDbPolyline
 90
        4
 70
     1
 43
0.0
 10
127.3460218032256
 20
26.64411552063028
 10
127.3460218032256
 20
31.67374848464782
 10
130.7169460237905
 20
31.67374848464782
 10
130.7169460237905
 20
26.64411552063028
  0
LWPOLYLINE
  5
1104
102
{ACAD_REACTORS
330
1102
102
}
330
10AB
100
AcDbEntity
  8
KADER_TITTELHOEK
 62
   160
100
AcDbPolyline
 90
        4
 70
     1
 43
0.0
 10
126.4364073310097
 20
32.06944067523647
 10
131.7870806969857
 20
34.63776389090457
 10
137.1377540629619
 20
32.06944067523647
 10
126.4364073310097
 20
32.06944067523647
  0
ARC
  5
1105
102
{ACAD_REACTORS
330
1102
102
}
330
10AB
100
AcDbEntity
  8
KADER_TITTELHOEK
 62
   160
100
AcDbCircle
 10
135.9739826058469
 20
32.814078350727
 30
0.0
 40
3.959368783310191
100
AcDbArc
 50
242.5458068428884
 51
273.6804204268458
  0
ARC
  5
1106
330
10AB
100
AcDbEntity
  8
KADER_TITTELHOEK
 62
   160
100
AcDbCircle
 10
135.9739826058349
 20
31.9603525322663
 30
0.0
 40
3.642349588521795
100
AcDbArc
 50
242.5458068431327
 51
274.0012539636876
  0
ARC
  5
1107
330
10AB
100
AcDbEntity
  8
KADER_TITTELHOEK
 62
   160
100
AcDbCircle
 10
135.9739826058469
 20
34.03066312044807
 30
0.0
 40
3.959368783310191
100
AcDbArc
 50
242.5458068428884
 51
273.6804204268458
  0
ARC
  5
1108
330
10AB
100
AcDbEntity
  8
KADER_TITTELHOEK
 62
   160
100
AcDbCircle
 10
135.9739826058349
 20
33.17693730198737
 30
0.0
 40
3.642349588521795
100
AcDbArc
 50
242.5458068431327
 51
274.0012539636876
  0
LWPOLYLINE
  5
1109
102
{ACAD_REACTORS
330
1102
102
}
330
10AB
100
AcDbEntity
  8
KADER_TITTELHOEK
 62
   160
100
AcDbPolyline
 90
        5
 70
     1
 43
0.0
 10
134.1485579218058
 20
28.5332954377045
 42
0.0933850395627545
 10
132.8572153701808
 20
28.92278132815101
 10
132.8572153701808
 20
26.64411552063028
 10
136.2281395907458
 20
26.64411552063028
 10
136.2281395907454
 20
28.09555592404671
 42
-0.1366923164257538
  0
LWPOLYLINE
  5
110A
102
{ACAD_REACTORS
330
1102
102
}
330
10AB
100
AcDbEntity
  8
KADER_TITTELHOEK
 62
   160
100
AcDbPolyline
 90
        6
 70
     1
 43
0.0
 10
136.2281395907464
 20
29.54346585555685
 42
-0.138118647529108
 10
134.2947162352036
 20
29.94479018567721
 42
0.0955472907595064
 10
132.8572153701808
 20
30.37164597972411
 10
132.8572153701808
 20
29.69010072420473
 42
-0.0933850395629087
 10
134.1485579218058
 20
29.30061483374765
 42
0.1366923164257877
 10
136.2281395907458
 20
28.86287532009463
  0
LWPOLYLINE
  5
110B
102
{ACAD_REACTORS
330
1102
102
}
330
10AB
100
AcDbEntity
  8
KADER_TITTELHOEK
 62
   160
100
AcDbPolyline
 90
        5
 70
     1
 43
0.0
 10
136.2281395907458
 20
30.30758287354148
 42
-0.1381186475291241
 10
134.2947162352036
 20
30.70890720366048
 42
0.0955472907595267
 10
132.8572153701808
 20
31.1357629977026
 10
132.8572153701808
 20
31.67374848464782
 10
136.2281395907458
 20
31.67374848464782
  0
ARC
  5
110C
330
10AB
100
AcDbEntity
  8
KADER_TITTELHOEK
 62
   160
100
AcDbCircle
 10
132.4692915511487
 20
27.28505248714099
 30
0.0
 40
3.642349588549349
100
AcDbArc
 50
62.54580684289827
 51
83.8861901713423
  0
ARC
  5
110D
330
10AB
100
AcDbEntity
  8
KADER_TITTELHOEK
 62
   160
100
AcDbCircle
 10
132.4692915511469
 20
27.12567429822231
 30
0.0
 40
3.800859185948477
100
AcDbArc
 50
84.14206997181601
 51
117.4541931571088
  0
ARC
  5
110E
330
10AB
100
AcDbEntity
  8
KADER_TITTELHOEK
 62
   160
100
AcDbCircle
 10
132.4692915511463
 20
25.90908952850142
 30
0.0
 40
3.800859185948353
100
AcDbArc
 50
84.14206997180681
 51
117.4541931570996
  0
ARC
  5
110F
330
10AB
100
AcDbEntity
  8
KADER_TITTELHOEK
 62
   160
100
AcDbCircle
 10
132.4692915511463
 20
25.37405001429947
 30
0.0
 40
3.800859185948287
100
AcDbArc
 50
84.14206997180668
 51
117.4541931571002
  0
ARC
  5
1110
330
10AB
100
AcDbEntity
  8
KADER_TITTELHOEK
 62
   160
100
AcDbCircle
 10
132.4692915511463
 20
26.59063478402054
 30
0.0
 40
3.800859185948287
100
AcDbArc
 50
84.14206997180668
 51
117.4541931571002
  0
LINE
  5
1111
330
10AB
100
AcDbEntity
  8
KADER_TITTELHOEK
 62
   160
100
AcDbLine
 10
130.7169460237891
 20
28.74685533096964
 30
0.0
 11
130.7169460237891
 21
29.28189484517167
 31
0.0
  0
LINE
  5
1112
330
10AB
100
AcDbEntity
  8
KADER_TITTELHOEK
 62
   160
100
AcDbLine
 10
130.7169460237891
 20
29.96344010069071
 30
0.0
 11
130.7169460237891
 21
30.49847961489239
 31
0.0
  0
ARC
  5
1113
330
10AB
100
AcDbEntity
  8
KADER_TITTELHOEK
 62
   160
100
AcDbCircle
 10
132.4692915511487
 20
26.06846771741992
 30
0.0
 40
3.642349588549349
100
AcDbArc
 50
62.54580684289827
 51
83.8861901713423
  0
ARC
  5
1114
330
10AB
100
AcDbEntity
  8
KADER_TITTELHOEK
 62
   160
100
AcDbCircle
 10
132.4692915511664
 20
25.2147418989362
 30
0.0
 40
3.959368783344437
100
AcDbArc
 50
62.54580684320847
 51
84.37735834408702
  0
ARC
  5
1115
102
{ACAD_REACTORS
330
1102
102
}
330
10AB
100
AcDbEntity
  8
KADER_TITTELHOEK
 62
   160
100
AcDbCircle
 10
132.4692915511664
 20
26.43132666865727
 30
0.0
 40
3.959368783344437
100
AcDbArc
 50
62.54580684320847
 51
84.37735834408702
  0
ARC
  5
1116
330
10AB
100
AcDbEntity
  8
KADER_TITTELHOEK
 62
   160
100
AcDbCircle
 10
135.9739826058693
 20
32.12018794911892
 30
0.0
 40
3.800859185920012
100
AcDbArc
 50
273.8341321930041
 51
297.4541931572057
  0
ARC
  5
1117
330
10AB
100
AcDbEntity
  8
KADER_TITTELHOEK
 62
   160
100
AcDbCircle
 10
135.9739826058686
 20
32.6552274633206
 30
0.0
 40
3.800859185919999
100
AcDbArc
 50
273.8341321930041
 51
297.4541931572057
  0
ARC
  5
1118
330
10AB
100
AcDbEntity
  8
KADER_TITTELHOEK
 62
   160
100
AcDbCircle
 10
135.9739826058693
 20
33.33677271883999
 30
0.0
 40
3.800859185920012
100
AcDbArc
 50
273.8341321930041
 51
297.4541931572057
  0
ARC
  5
1119
330
10AB
100
AcDbEntity
  8
KADER_TITTELHOEK
 62
   160
100
AcDbCircle
 10
135.9739826058686
 20
33.87181223304167
 30
0.0
 40
3.800859185919999
100
AcDbArc
 50
273.8341321930041
 51
297.4541931572057
  0
ARC
  5
111A
330
10AB
100
AcDbEntity
  8
KADER_TITTELHOEK
 62
   160
100
AcDbCircle
 10
136.2281715826028
 20
28.32735844586437
 30
0.0
 40
0.0004784308474229
100
AcDbArc
 50
93.83413218306445
 51
266.1658677354291
  0
ARC
  5
111B
330
10AB
100
AcDbEntity
  8
KADER_TITTELHOEK
 62
   160
100
AcDbCircle
 10
136.2281715826028
 20
29.54394321558543
 30
0.0
 40
0.0004784308474229
100
AcDbArc
 50
93.83413218306445
 51
266.1658677354291
  0
LINE
  5
111C
330
10AB
100
AcDbEntity
  8
KADER_TITTELHOEK
 62
   160
100
AcDbLine
 10
137.726328133219
 20
29.28242214667875
 30
0.0
 11
137.7263281332197
 21
28.74738263247706
 31
0.0
  0
LINE
  5
111D
330
10AB
100
AcDbEntity
  8
KADER_TITTELHOEK
 62
   160
100
AcDbLine
 10
137.726328133219
 20
30.49900691639981
 30
0.0
 11
137.7263281332197
 21
29.96396740219813
 31
0.0
  0
LINE
  5
111E
330
10AB
100
AcDbEntity
  8
KADER_TITTELHOEK
 62
     1
100
AcDbLine
 10
272.0
 20
34.99999999999999
 30
0.0
 11
272.0
 21
24.99999999999999
 31
0.0
  0
LINE
  5
111F
330
10AB
100
AcDbEntity
  8
KADER_TITTELHOEK
 62
     1
100
AcDbLine
 10
257.0
 20
34.99999999999999
 30
0.0
 11
257.0
 21
24.99999999999999
 31
0.0
  0
TEXT
  5
1120
330
10AB
100
AcDbEntity
  8
KADER_TITTELHOEK
 62
     7
100
AcDbText
 10
257.4649401965202
 20
20.74999999999999
 30
0.0
 40
2.5
  1
Bladzijde
  7
ISOCP
 11
257.4649401965202
 21
21.99999999999999
 31
0.0
100
AcDbText
 73
     2
  0
TEXT
  5
1121
330
10AB
100
AcDbEntity
  8
KADER_TITTELHOEK
 62
     7
100
AcDbText
 10
274.724845102897
 20
31.27717363634792
 30
0.0
 40
2.375
  1
Formaat
100
AcDbText
  0
ATTDEF
  5
1122
330
10AB
100
AcDbEntity
  8
KADER_TITTELHOEK
 62
     7
100
AcDbText
 10
259.0
 20
26.74999999999999
 30
0.0
 40
2.5
  1
0
  7
ISOCP
 11
259.0
 21
27.99999999999999
 31
0.0
100
AcDbAttributeDefinition
  3
Versie
  2
EDITION
 70
     8
 74
     2
  0
TEXT
  5
1123
330
10AB
100
AcDbEntity
  8
KADER_TITTELHOEK
 62
     7
100
AcDbText
 10
259.0
 20
30.74999999999999
 30
0.0
 40
2.5
  1
Versie
  7
ISOCP
 11
259.0
 21
31.99999999999999
 31
0.0
100
AcDbText
 73
     2
  0
LINE
  5
1124
330
10AB
100
AcDbEntity
  8
KADER_TITTELHOEK
  6
CENTER
 62
     7
100
AcDbLine
 10
289.0534642956679
 20
19.73047404818043
 30
0.0
 11
274.930552946756
 21
19.73047404818043
 31
0.0
  0
LWPOLYLINE
  5
1125
330
10AB
100
AcDbEntity
  8
KADER_TITTELHOEK
 62
     1
100
AcDbPolyline
 90
        4
 70
     1
 43
0.0
 10
282.4355529467561
 20
17.59297404818038
 10
282.4355529467561
 20
21.86797404818025
 10
275.7855529467562
 20
21.01297404818045
 10
275.7855529467562
 20
18.4479740481804
  0
LINE
  5
1126
330
10AB
100
AcDbEntity
  8
KADER_TITTELHOEK
  6
CENTER
 62
     7
100
AcDbLine
 10
286.0609642956678
 20
16.73797404818037
 30
0.0
 11
286.0609642956678
 21
22.72297404818027
 31
0.0
  0
CIRCLE
  5
1127
330
10AB
100
AcDbEntity
  8
KADER_TITTELHOEK
 62
     1
100
AcDbCircle
 10
286.0609642956678
 20
19.73047404818043
 30
0.0
 40
2.137499999999999
  0
CIRCLE
  5
1128
330
10AB
100
AcDbEntity
  8
KADER_TITTELHOEK
 62
     1
100
AcDbCircle
 10
286.0609642956678
 20
19.73047404818043
 30
0.0
 40
1.282499999999999
  0
ATTDEF
  5
1129
330
10AB
100
AcDbEntity
  8
KADER_TITTELHOEK
 62
     7
100
AcDbText
 10
259.0
 20
16.74999999999999
 30
0.0
 40
2.5
  1
1/1
  7
ISOCP
 11
259.0
 21
17.99999999999999
 31
0.0
100
AcDbAttributeDefinition
  3
Bladzijde
  2
SHEET
 70
     8
 74
     2
  0
TEXT
  5
112A
330
10AB
100
AcDbEntity
  8
KADER_TITTELHOEK
 62
     6
100
AcDbText
 10
279.0060321527489
 20
26.96862031261502
 30
0.0
 40
2.375
  1
A4
100
AcDbText
  0
MTEXT
  5
112B
330
10AB
100
AcDbEntity
  8
KADER_TITTELHOEK
 62
     7
100
AcDbMText
 10
150.8891053133315
 20
22.75625327823888
 30
0.0
 40
1.5
 41
54.25
 71
     2
 72
     5
  1
\fTimes New Roman|b0|i0|c0|p18;Industriezone "Flanders field"\P8790 Waregem (Belgium)\PTel. 056/62.71.11     Fax. 056/60.28.51
1001
ACAD
1000
MTEXTBEGIN
1070
    73
1070
     1
1070
    44
1040
1.0
1070
    74
1070
     0
1000
MTEXTEND
1000
MTEXTBEGIN
1070
    73
1070
     1
1070
    44
1040
1.0
1070
    74
1070
     0
1000
MTEXTEND
  0
TEXT
  5
112C
330
10AB
100
AcDbEntity
  8
KADER_VERDELING
100
AcDbText
 10
293.5782711702462
 20
131.8329408780864
 30
0.0
 40
4.0
  1
3
  7
ISOCP
 72
     4
 11
295.0611138827209
 21
133.7500981656118
 31
0.0
100
AcDbText
  0
TEXT
  5
112D
330
10AB
100
AcDbEntity
  8
KADER_VERDELING
100
AcDbText
 10
293.5023429994696
 20
83.50546237748213
 30
0.0
 40
4.0
  1
2
  7
ISOCP
 72
     4
 11
294.9716737081309
 21
85.60585607826954
 31
0.0
100
AcDbText
  0
LINE
  5
112E
330
10AB
100
AcDbEntity
  8
KADER_VERDELING
100
AcDbLine
 10
153.5
 20
204.9999999999999
 30
0.0
 11
153.5
 21
209.9999999999999
 31
0.0
  0
TEXT
  5
112F
330
10AB
100
AcDbEntity
  8
KADER_VERDELING
100
AcDbText
 10
127.472848387761
 20
9.345613980805865
 30
0.0
 40
4.0
  1
C
  7
ISOCP
 72
     4
 11
128.779650336227
 21
11.34561398080586
 31
0.0
100
AcDbText
  0
LINE
  5
1130
330
10AB
100
AcDbEntity
  8
KADER_VERDELING
100
AcDbLine
 10
297.0
 20
157.5
 30
0.0
 11
292.0
 21
157.5
 31
0.0
  0
LINE
  5
1131
330
10AB
100
AcDbEntity
  8
KADER_VERDELING
100
AcDbLine
 10
297.0
 20
109.9999999999999
 30
0.0
 11
287.0
 21
109.9999999999999
 31
0.0
  0
LINE
  5
1132
330
10AB
100
AcDbEntity
  8
KADER_VERDELING
100
AcDbLine
 10
297.0
 20
62.5
 30
0.0
 11
292.0
 21
62.5
 31
0.0
  0
MTEXT
  5
1133
330
10AB
100
AcDbEntity
  8
KADER_ONTWERP
100
AcDbMText
 10
94.27964244355507
 20
91.55665012899531
 30
0.0
 40
15.0
 41
156.6
 71
     1
 72
     5
  1
\fPoster Bodoni|b0|i0|c0|p18;ONTWERP
 11
0.8660254037844387
 21
0.5
 31
0.0
1001
ACAD
1000
MTEXTBEGIN
1070
    73
1070
     1
1070
    44
1040
1.0
1070
    74
1070
     0
1000
MTEXTEND
1000
MTEXTBEGIN
1070
    73
1070
     1
1070
    44
1040
1.0
1070
    74
1070
     0
1000
MTEXTEND
  0
LWPOLYLINE
  5
1134
330
10AB
100
AcDbEntity
  8
KADER_ONTWERP
100
AcDbPolyline
 90
        2
 70
     0
 43
0.9
 10
55.45913706906254
 20
81.04371333390224
 10
236.4021740972146
 20
184.8589637523965
  0
LWPOLYLINE
  5
1135
330
10AB
100
AcDbEntity
  8
KADER_ONTWERP
100
AcDbPolyline
 90
        2
 70
     0
 43
0.9
 10
72.10445992502673
 20
50.47748120983147
 10
253.0474969531787
 20
154.2927316283257
  0
LWPOLYLINE
  5
1136
330
10AB
100
AcDbEntity
  8
KADER_TER_GOEDKEURING
100
AcDbPolyline
 90
        2
 70
     0
 43
0.9
 10
39.43779697652175
 20
69.22778316655842
 10
254.1010619457812
 20
192.3898620973327
  0
LWPOLYLINE
  5
1137
330
10AB
100
AcDbEntity
  8
KADER_TER_GOEDKEURING
100
AcDbPolyline
 90
        2
 70
     0
 43
0.9
 10
55.38559599140318
 20
38.26134988844373
 10
270.8129825347902
 20
161.8618401218639
  0
MTEXT
  5
1138
330
10AB
100
AcDbEntity
  8
KADER_TER_GOEDKEURING
100
AcDbMText
 10
53.10562203227982
 20
64.52300709972837
 30
0.0
 40
14.0
 41
325.57
 71
     1
 72
     5
  1
\fPoster Bodoni|b0|i0|c0|p18;TER GOEDKEURING
 11
0.8660254037844387
 21
0.5
 31
0.0
1001
ACAD
1000
MTEXTBEGIN
1070
    73
1070
     1
1070
    44
1040
1.0
1070
    74
1070
     0
1000
MTEXTEND
1000
MTEXTBEGIN
1070
    73
1070
     1
1070
    44
1040
1.0
1070
    74
1070
     0
1000
MTEXTEND
  0
LINE
  5
1139
330
10AB
100
AcDbEntity
  8
KADER_COPYVERBOD
100
AcDbLine
 10
6.745317295064069
 20
57.94838729812818
 30
0.0
 11
6.745317295064097
 21
128.6234897709705
 31
0.0
  0
TEXT
  5
113A
330
10AB
100
AcDbEntity
  8
KADER_COPYVERBOD
100
AcDbText
 10
8.822040723353888
 20
16.35922902965408
 30
0.0
 40
1.9
  1
Deze tekening is eigendom van NV RENSON, en mag niet gecopieerd, noch getoond worden aan derden zonder schriftelijke toestemming.
 50
90.0
  7
ISOCP
 72
     1
 11
8.822040723353893
 21
92.84135402965331
 31
0.0
100
AcDbText
  0
LINE
  5
113B
330
10AB
100
AcDbEntity
  8
KADER_COPYVERBOD
100
AcDbLine
 10
6.745317295064097
 20
128.6234897709705
 30
0.0
 11
6.745317295064097
 21
132.3990919373177
 31
0.0
  0
LINE
  5
113C
330
10AB
100
AcDbEntity
  8
KADER_COPYVERBOD
100
AcDbLine
 10
6.745317295064069
 20
57.94838729812818
 30
0.0
 11
6.745317295064069
 21
53.27863267039219
 31
0.0
  0
LINE
  5
113D
330
10AB
100
AcDbEntity
  8
KADER_COPYVERBOD
100
AcDbLine
 10
6.745317295064097
 20
132.3990919373177
 30
0.0
 11
6.745317295064097
 21
169.8941084327548
 31
0.0
  0
LINE
  5
113E
330
10AB
100
AcDbEntity
  8
KADER_COPYVERBOD
100
AcDbLine
 10
6.745317295064097
 20
169.8941084327548
 30
0.0
 11
9.535985143726975
 21
169.8941084327548
 31
0.0
  0
LINE
  5
113F
330
10AB
100
AcDbEntity
  8
KADER_COPYVERBOD
100
AcDbLine
 10
9.535985143726975
 20
169.8941084327548
 30
0.0
 11
9.535985143726975
 21
15.16834324805631
 31
0.0
  0
LINE
  5
1140
330
10AB
100
AcDbEntity
  8
KADER_COPYVERBOD
100
AcDbLine
 10
9.535985143726975
 20
15.16834324805631
 30
0.0
 11
6.745317295064069
 21
15.16834324805631
 31
0.0
  0
LINE
  5
1141
330
10AB
100
AcDbEntity
  8
KADER_COPYVERBOD
100
AcDbLine
 10
6.745317295064069
 20
53.27863267039219
 30
0.0
 11
6.745317295064069
 21
15.16834324805631
 31
0.0
  0
LINE
  5
1142
330
10AB
100
AcDbEntity
  8
KADER_VERDELING
100
AcDbLine
 10
15.0
 20
62.65768149588802
 30
0.0
 11
10.0
 21
62.65768149588803
 31
0.0
  0
TEXT
  5
1143
330
10AB
100
AcDbEntity
  8
KADER_VERDELING
100
AcDbText
 10
177.2494429403298
 20
9.345613980805859
 30
0.0
 40
4.0
  1
D
  7
ISOCP
 72
     4
 11
178.9633516699824
 21
11.34561398080586
 31
0.0
100
AcDbText
  0
TEXT
  5
1144
330
10AB
100
AcDbEntity
  8
KADER_VERDELING
100
AcDbText
 10
220.5752584285882
 20
9.345613980805863
 30
0.0
 40
4.0
  1
E
  7
ISOCP
 72
     4
 11
221.9752584285882
 21
11.34561398080586
 31
0.0
100
AcDbText
  0
ENDBLK
  5
1146
330
10AB
100
AcDbEntity
  8
0
100
AcDbBlockEnd
  0
BLOCK
  5
1189
330
1182
100
AcDbEntity
  8
0
100
AcDbBlockBegin
  2
TITELHOEK
 70
     2
 10
0.0
 20
0.0
 30
0.0
  3
TITELHOEK
  1

  0
ATTDEF
  5
1183
330
1182
100
AcDbEntity
  8
KADER_TITTELHOEK
 62
     6
100
AcDbText
 10
-72.06248763049302
 20
12.70315867485301
 30
0.0
 40
5.0
  1
XXX
  7
ISOCP
 72
     1
 11
-65.31248763049302
 21
12.70315867485301
 31
0.0
100
AcDbAttributeDefinition
  3
Titel
  2
TITEL
 70
     0
  0
ATTDEF
  5
1184
330
1182
100
AcDbEntity
  8
KADER_TITTELHOEK
 62
     6
100
AcDbText
 10
-68.46248763049302
 20
3.972199981230126
 30
0.0
 40
3.0
  1
xxx
  7
ISOCP
 72
     1
 11
-65.31248763049302
 21
3.972199981230126
 31
0.0
100
AcDbAttributeDefinition
  3
Ondertitel
  2
ONDERTITEL
 70
     0
  0
ATTDEF
  5
1185
330
1182
100
AcDbEntity
  8
0
100
AcDbText
 10
-151.4338304964452
 20
21.9122644016448
 30
0.0
 40
2.0
  1

  7
ISOCP
100
AcDbAttributeDefinition
  3
Getekend
  2
GETEKEND
 70
     0
  0
ATTDEF
  5
1186
330
1182
100
AcDbEntity
  8
0
100
AcDbText
 10
-95.81381698011467
 20
21.9122644016448
 30
0.0
 40
2.0
  1
\00000\
  7
ISOCP
100
AcDbAttributeDefinition
  3
Bestand
  2
BESTAND
 70
     0
  0
ATTDEF
  5
1187
330
1182
100
AcDbEntity
  8
0
100
AcDbText
 10
-51.20436332765468
 20
21.9122644016448
 30
0.0
 40
2.0
  1
00/00/00
  7
ISOCP
100
AcDbAttributeDefinition
  3
Datum
  2
DATUM
 70
     0
  0
TEXT
  5
1188
330
1182
100
AcDbEntity
  8
KADER_TITTELHOEK
 62
     7
100
AcDbText
 10
-18.0
 20
21.79224134503501
 30
0.0
 40
2.5
  1
Schaal:
  7
ISOCP
 11
-18.0
 21
23.04224134503501
 31
0.0
100
AcDbText
 73
     2
  0
ENDBLK
  5
118A
330
1182
100
AcDbEntity
  8
0
100
AcDbBlockEnd
  0
BLOCK
  5
1193
330
118B
100
AcDbEntity
  8
0
100
AcDbBlockBegin
  2
FRANS
 70
     2
 10
0.0
 20
0.0
 30
0.0
  3
FRANS
  1

  0
ATTDEF
  5
118C
330
118B
100
AcDbEntity
  8
FRANS
 62
     6
100
AcDbText
 10
-72.06248763049302
 20
12.70315867485301
 30
0.0
 40
5.0
  1
XXX
  7
ISOCP
 72
     1
 11
-65.31248763049302
 21
12.70315867485301
 31
0.0
100
AcDbAttributeDefinition
  3
Titel
  2
TITEL
 70
     0
  0
ATTDEF
  5
118D
330
118B
100
AcDbEntity
  8
FRANS
 62
     6
100
AcDbText
 10
-68.46248763049302
 20
3.972199981230136
 30
0.0
 40
3.0
  1
xxx
  7
ISOCP
 72
     1
 11
-65.31248763049302
 21
3.972199981230136
 31
0.0
100
AcDbAttributeDefinition
  3
Ondertitel
  2
ONDERTITEL
 70
     0
  0
ATTDEF
  5
118E
330
118B
100
AcDbEntity
  8
FRANS
100
AcDbText
 10
-154.8505628401147
 20
21.9122644016448
 30
0.0
 40
2.0
  1
naam
  7
ISOCP
100
AcDbAttributeDefinition
  3
Getekend:
  2
GETEKEND:
 70
     0
  0
ATTDEF
  5
118F
330
118B
100
AcDbEntity
  8
FRANS
100
AcDbText
 10
-98.66109627596472
 20
21.9122644016448
 30
0.0
 40
2.0
  1
\00000\
  7
ISOCP
100
AcDbAttributeDefinition
  3
Bestand:
  2
BESTAND:
 70
     0
  0
ATTDEF
  5
1190
330
118B
100
AcDbEntity
  8
FRANS
100
AcDbText
 10
-36.16138872266924
 20
21.9122644016448
 30
0.0
 40
2.0
  1
00/00/00
  7
ISOCP
100
AcDbAttributeDefinition
  3
Datum:
  2
DATUM:
 70
     0
  0
ATTDEF
  5
1191
330
118B
100
AcDbEntity
  8
FRANS
100
AcDbText
 10
-5.465356667221954
 20
21.93024149312397
 30
0.0
 40
2.0
  1
1/x
  7
ISOCP
100
AcDbAttributeDefinition
  3
Schaal:
  2
SCHAAL:
 70
     0
  0
ATTDEF
  5
1192
330
118B
100
AcDbEntity
  8
FRANS
 62
     6
100
AcDbText
 10
-11.44391450394095
 20
11.88034664844783
 30
0.0
 40
3.0
  1
Ax
  7
ISOCP
100
AcDbAttributeDefinition
  3
Formaat:
  2
FORMAAT:
 70
     0
  0
ENDBLK
  5
1194
330
118B
100
AcDbEntity
  8
0
100
AcDbBlockEnd
  0
BLOCK
  5
119D
330
1195
100
AcDbEntity
  8
0
100
AcDbBlockBegin
  2
NEDERLANDS
 70
     2
 10
0.0
 20
0.0
 30
0.0
  3
NEDERLANDS
  1

  0
ATTDEF
  5
1196
330
1195
100
AcDbEntity
  8
NEDERLANDS
 62
     6
100
AcDbText
 10
-72.06248763049302
 20
12.70315867485301
 30
0.0
 40
5.0
  1
XXX
  7
ISOCP
 72
     1
 11
-65.31248763049302
 21
12.70315867485301
 31
0.0
100
AcDbAttributeDefinition
  3
Titel
  2
TITEL
 70
     0
  0
ATTDEF
  5
1197
330
1195
100
AcDbEntity
  8
NEDERLANDS
 62
     6
100
AcDbText
 10
-68.46248763049302
 20
3.972199981230126
 30
0.0
 40
3.0
  1
xxx
  7
ISOCP
 72
     1
 11
-65.31248763049302
 21
3.972199981230126
 31
0.0
100
AcDbAttributeDefinition
  3
Ondertitel
  2
ONDERTITEL
 70
     0
  0
ATTDEF
  5
1198
330
1195
100
AcDbEntity
  8
NEDERLANDS
100
AcDbText
 10
-151.4338304964452
 20
21.9122644016448
 30
0.0
 40
2.0
  1

  7
ISOCP
100
AcDbAttributeDefinition
  3
Getekend
  2
GETEKEND:
 70
     0
  0
ATTDEF
  5
1199
330
1195
100
AcDbEntity
  8
NEDERLANDS
100
AcDbText
 10
-95.81381698011467
 20
21.9122644016448
 30
0.0
 40
2.0
  1
\00000\
  7
ISOCP
100
AcDbAttributeDefinition
  3
Bestand
  2
BESTAND:
 70
     0
  0
ATTDEF
  5
119A
330
1195
100
AcDbEntity
  8
NEDERLANDS
100
AcDbText
 10
-33.4779302986729
 20
21.9122644016448
 30
0.0
 40
2.0
  1
00/00/00
  7
ISOCP
100
AcDbAttributeDefinition
  3
Datum
  2
DATUM:
 70
     0
  0
ATTDEF
  5
119B
330
1195
100
AcDbEntity
  8
NEDERLANDS
100
AcDbText
 10
-6.655501056256639
 20
21.93024149312397
 30
0.0
 40
2.0
  1
1/x
  7
ISOCP
100
AcDbAttributeDefinition
  3
Schaal:
  2
SCHAAL:
 70
     0
  0
ATTDEF
  5
119C
330
1195
100
AcDbEntity
  8
NEDERLANDS
 62
     6
100
AcDbText
 10
-12.02963951856469
 20
11.88034664844782
 30
0.0
 40
3.0
  1
Ax
  7
ISOCP
100
AcDbAttributeDefinition
  3
Formaat:
  2
FORMAAT:
 70
     0
  0
ENDBLK
  5
119E
330
1195
100
AcDbEntity
  8
0
100
AcDbBlockEnd
  0
BLOCK
  5
11A7
330
119F
100
AcDbEntity
  8
0
100
AcDbBlockBegin
  2
ENGELS
 70
     2
 10
0.0
 20
0.0
 30
0.0
  3
ENGELS
  1

  0
ATTDEF
  5
11A0
330
119F
100
AcDbEntity
  8
ENGELS
 62
     6
100
AcDbText
 10
-72.06248763049302
 20
12.70315867485307
 30
0.0
 40
5.0
  1
XXX
  7
ISOCP
 72
     1
 11
-65.31248763049302
 21
12.70315867485307
 31
0.0
100
AcDbAttributeDefinition
  3
Titel
  2
TITEL
 70
     0
  0
ATTDEF
  5
11A1
330
119F
100
AcDbEntity
  8
ENGELS
 62
     6
100
AcDbText
 10
-68.46248763049302
 20
3.972199981230136
 30
0.0
 40
3.0
  1
xxx
  7
ISOCP
 72
     1
 11
-65.31248763049302
 21
3.972199981230136
 31
0.0
100
AcDbAttributeDefinition
  3
Ondertitel
  2
ONDERTITEL
 70
     0
  0
ATTDEF
  5
11A2
330
119F
100
AcDbEntity
  8
ENGELS
100
AcDbText
 10
-151.9921787108177
 20
21.91226440164475
 30
0.0
 40
2.0
  1
naam
  7
ISOCP
100
AcDbAttributeDefinition
  3
Getekend:
  2
GETEKEND:
 70
     0
  0
ATTDEF
  5
11A3
330
119F
100
AcDbEntity
  8
ENGELS
100
AcDbText
 10
-103.2584410960809
 20
21.91226440164475
 30
0.0
 40
2.0
  1
\00000\
  7
ISOCP
100
AcDbAttributeDefinition
  3
Bestand:
  2
BESTAND:
 70
     0
  0
ATTDEF
  5
11A4
330
119F
100
AcDbEntity
  8
ENGELS
100
AcDbText
 10
-35.90569530076595
 20
21.91226440164475
 30
0.0
 40
2.0
  1
00/00/00
  7
ISOCP
100
AcDbAttributeDefinition
  3
Datum:
  2
DATUM:
 70
     0
  0
ATTDEF
  5
11A5
330
119F
100
AcDbEntity
  8
ENGELS
100
AcDbText
 10
-7.955986058665189
 20
21.74634190765255
 30
0.0
 40
2.0
  1
1/x
  7
ISOCP
100
AcDbAttributeDefinition
  3
Schaal:
  2
SCHAAL:
 70
     0
  0
ATTDEF
  5
11A6
330
119F
100
AcDbEntity
  8
ENGELS
 62
     6
100
AcDbText
 10
-12.33656172194059
 20
11.6255077142182
 30
0.0
 40
3.0
  1
Ax
  7
ISOCP
100
AcDbAttributeDefinition
  3
Formaat:
  2
FORMAAT:
 70
     0
  0
ENDBLK
  5
11A8
330
119F
100
AcDbEntity
  8
0
100
AcDbBlockEnd
  0
BLOCK
  5
11B1
330
11A9
100
AcDbEntity
  8
0
100
AcDbBlockBegin
  2
DUITS
 70
     2
 10
0.0
 20
0.0
 30
0.0
  3
DUITS
  1

  0
ATTDEF
  5
11AA
330
11A9
100
AcDbEntity
  8
DUITS
 62
     6
100
AcDbText
 10
-72.06248763049302
 20
12.70315867485307
 30
0.0
 40
5.0
  1
XXX
  7
ISOCP
 72
     1
 11
-65.31248763049302
 21
12.70315867485307
 31
0.0
100
AcDbAttributeDefinition
  3
Titel
  2
TITEL
 70
     0
  0
ATTDEF
  5
11AB
330
11A9
100
AcDbEntity
  8
DUITS
 62
     6
100
AcDbText
 10
-68.46248763049302
 20
3.972199981230136
 30
0.0
 40
3.0
  1
xxx
  7
ISOCP
 72
     1
 11
-65.31248763049302
 21
3.972199981230136
 31
0.0
100
AcDbAttributeDefinition
  3
Ondertitel
  2
ONDERTITEL
 70
     0
  0
ATTDEF
  5
11AC
330
11A9
100
AcDbEntity
  8
DUITS
100
AcDbText
 10
-154.6465747809038
 20
21.91226440164475
 30
0.0
 40
2.0
  1
naam
  7
ISOCP
100
AcDbAttributeDefinition
  3
Getekend:
  2
GETEKEND:
 70
     0
  0
ATTDEF
  5
11AD
330
11A9
100
AcDbEntity
  8
DUITS
100
AcDbText
 10
-95.81381698011455
 20
21.91226440164475
 30
0.0
 40
2.0
  1
\00000\
  7
ISOCP
100
AcDbAttributeDefinition
  3
Bestand:
  2
BESTAND:
 70
     0
  0
ATTDEF
  5
11AE
330
11A9
100
AcDbEntity
  8
DUITS
100
AcDbText
 10
-33.33580658870073
 20
21.91226440164475
 30
0.0
 40
2.0
  1
00/00/00
  7
ISOCP
100
AcDbAttributeDefinition
  3
Datum:
  2
DATUM:
 70
     0
  0
ATTDEF
  5
11AF
330
11A9
100
AcDbEntity
  8
DUITS
100
AcDbText
 10
-4.502462400000808
 20
21.79628293757652
 30
0.0
 40
2.0
  1
1/x
  7
ISOCP
100
AcDbAttributeDefinition
  3
Schaal:
  2
SCHAAL:
 70
     0
  0
ATTDEF
  5
11B0
330
11A9
100
AcDbEntity
  8
DUITS
 62
     6
100
AcDbText
 10
-12.37267061682405
 20
11.83338597813328
 30
0.0
 40
3.0
  1
Ax
  7
ISOCP
100
AcDbAttributeDefinition
  3
Formaat:
  2
FORMAAT:
 70
     0
  0
ENDBLK
  5
11B2
330
11A9
100
AcDbEntity
  8
0
100
AcDbBlockEnd
  0
BLOCK
  5
1240
330
11B8
100
AcDbEntity
  8
0
100
AcDbBlockBegin
  2
ISO_A4HOR
 70
     2
 10
0.0
 20
0.0
 30
0.0
  3
ISO_A4HOR
  1

  0
TEXT
  5
185F
330
11B8
100
AcDbEntity
  8
T_NEDERLANDS
 62
     7
100
AcDbText
 10
124.0
 20
36.79224134503499
 30
0.0
 40
2.5
  1
Getekend:
  7
ISOCP
 11
124.0
 21
38.04224134503499
 31
0.0
100
AcDbText
 73
     2
  0
TEXT
  5
1860
330
11B8
100
AcDbEntity
  8
T_NEDERLANDS
 62
     7
100
AcDbText
 10
181.2956427838332
 20
36.79224134503499
 30
0.0
 40
2.5
  1
Bestand:
  7
ISOCP
 11
181.2956427838332
 21
38.04224134503499
 31
0.0
100
AcDbText
 73
     2
  0
TEXT
  5
1861
330
11B8
100
AcDbEntity
  8
T_NEDERLANDS
 62
     7
100
AcDbText
 10
246.4139453984888
 20
36.79224134503499
 30
0.0
 40
2.5
  1
Datum:
  7
ISOCP
 11
246.4139453984888
 21
38.04224134503499
 31
0.0
100
AcDbText
 73
     2
  0
TEXT
  5
1862
330
11B8
100
AcDbEntity
  8
T_NEDERLANDS
 62
     7
100
AcDbText
 10
273.9734674975514
 20
31.27717363634792
 30
0.0
 40
2.5
  1
Formaat:
  7
ISOCP
100
AcDbText
  0
TEXT
  5
1863
330
11B8
100
AcDbEntity
  8
T_NEDERLANDS
 62
     7
100
AcDbText
 10
274.0
 20
36.79224134503499
 30
0.0
 40
2.5
  1
Schaal:
  7
ISOCP
 11
274.0
 21
38.04224134503499
 31
0.0
100
AcDbText
 73
     2
  0
TEXT
  5
1864
330
11B8
100
AcDbEntity
  8
T_ENGELS
 62
     7
100
AcDbText
 10
124.0
 20
36.79224134503499
 30
0.0
 40
2.5
  1
Drawn by:
  7
ISOCP
 11
124.0
 21
38.04224134503499
 31
0.0
100
AcDbText
 73
     2
  0
TEXT
  5
1865
330
11B8
100
AcDbEntity
  8
T_ENGELS
 62
     7
100
AcDbText
 10
181.2956427838332
 20
36.79224134503499
 30
0.0
 40
2.5
  1
File:
  7
ISOCP
 11
181.2956427838332
 21
38.04224134503499
 31
0.0
100
AcDbText
 73
     2
  0
TEXT
  5
1866
330
11B8
100
AcDbEntity
  8
T_ENGELS
 62
     7
100
AcDbText
 10
246.9640293399445
 20
36.79224134503499
 30
0.0
 40
2.5
  1
Date:
  7
ISOCP
 11
246.9640293399445
 21
38.04224134503499
 31
0.0
100
AcDbText
 73
     2
  0
TEXT
  5
1867
330
11B8
100
AcDbEntity
  8
T_ENGELS
 62
     7
100
AcDbText
 10
273.9144666752156
 20
31.27717363634792
 30
0.0
 40
2.5
  1
Size:
  7
ISOCP
100
AcDbText
  0
TEXT
  5
1868
330
11B8
100
AcDbEntity
  8
T_ENGELS
 62
     7
100
AcDbText
 10
274.0
 20
36.79224134503499
 30
0.0
 40
2.5
  1
Scale:
  7
ISOCP
 11
274.0
 21
38.04224134503499
 31
0.0
100
AcDbText
 73
     2
  0
TEXT
  5
1869
330
11B8
100
AcDbEntity
  8
T_DUITS
 62
     7
100
AcDbText
 10
274.0
 20
37.04224134503499
 30
0.0
 40
2.0
  1
Masstab:
  7
ISOCP
 11
274.0
 21
38.04224134503499
 31
0.0
100
AcDbText
 73
     2
  0
TEXT
  5
186A
330
11B8
100
AcDbEntity
  8
T_DUITS
 62
     7
100
AcDbText
 10
274.0081323163638
 20
31.27717363634792
 30
0.0
 40
2.5
  1
Format:
  7
ISOCP
100
AcDbText
  0
TEXT
  5
186B
330
11B8
100
AcDbEntity
  8
T_DUITS
 62
     7
100
AcDbText
 10
246.5560691084608
 20
36.79224134503499
 30
0.0
 40
2.5
  1
Datum:
  7
ISOCP
 11
246.5560691084608
 21
38.04224134503499
 31
0.0
100
AcDbText
 73
     2
  0
TEXT
  5
186C
330
11B8
100
AcDbEntity
  8
T_DUITS
 62
     7
100
AcDbText
 10
181.2956427838332
 20
36.79224134503499
 30
0.0
 40
2.5
  1
Bestand:
  7
ISOCP
 11
181.2956427838332
 21
38.04224134503499
 31
0.0
100
AcDbText
 73
     2
  0
TEXT
  5
186D
330
11B8
100
AcDbEntity
  8
T_DUITS
 62
     7
100
AcDbText
 10
124.0
 20
36.79224134503499
 30
0.0
 40
2.5
  1
Zeichen:
  7
ISOCP
 11
124.0
 21
38.04224134503499
 31
0.0
100
AcDbText
 73
     2
  0
TEXT
  5
186E
330
11B8
100
AcDbEntity
  8
T_FRANS
 62
     7
100
AcDbText
 10
274.1182981874874
 20
31.27717363634792
 30
0.0
 40
2.5
  1
Format:
  7
ISOCP
100
AcDbText
  0
TEXT
  5
186F
330
11B8
100
AcDbEntity
  8
T_FRANS
 62
     7
100
AcDbText
 10
124.0
 20
36.79224134503499
 30
0.0
 40
2.5
  1
Auteur:
  7
ISOCP
 11
124.0
 21
38.04224134503499
 31
0.0
100
AcDbText
 73
     2
  0
TEXT
  5
1870
330
11B8
100
AcDbEntity
  8
T_FRANS
 62
     7
100
AcDbText
 10
181.2956427838332
 20
36.79224134503499
 30
0.0
 40
2.5
  1
Fichier:
  7
ISOCP
 11
181.2956427838332
 21
38.04224134503499
 31
0.0
100
AcDbText
 73
     2
  0
TEXT
  5
1871
330
11B8
100
AcDbEntity
  8
T_FRANS
 62
     7
100
AcDbText
 10
274.0
 20
36.79224134503499
 30
0.0
 40
2.5
  1
Échelle:
  7
ISOCP
 11
274.0
 21
38.04224134503499
 31
0.0
100
AcDbText
 73
     2
  0
TEXT
  5
1872
330
11B8
100
AcDbEntity
  8
T_FRANS
 62
     7
100
AcDbText
 10
246.767585124345
 20
36.79224134503499
 30
0.0
 40
2.5
  1
Date:
  7
ISOCP
 11
246.767585124345
 21
38.04224134503499
 31
0.0
100
AcDbText
 73
     2
  0
LINE
  5
1873
330
11B8
100
AcDbEntity
  8
KADER
 62
     1
100
AcDbLine
 10
292.0
 20
14.99999999999998
 30
0.0
 11
292.0
 21
204.9999999999999
 31
0.0
  0
LINE
  5
1874
330
11B8
100
AcDbEntity
  8
KADER_COPYVERBOD
100
AcDbLine
 10
178.0430825127186
 20
203.0219583976475
 30
0.0
 11
248.718184985561
 21
203.0219583976474
 31
0.0
  0
LINE
  5
1875
330
11B8
100
AcDbEntity
  8
KADER
 62
     1
100
AcDbLine
 10
292.0
 20
204.9999999999999
 30
0.0
 11
15.0
 21
205.0
 31
0.0
  0
TEXT
  5
1876
330
11B8
100
AcDbEntity
  8
KADER_COPYVERBOD
100
AcDbText
 10
136.4539242442446
 20
200.9452349693577
 30
0.0
 40
1.9
  1
Deze tekening is eigendom van NV RENSON, en mag niet gecopieerd, noch getoond worden aan derden zonder schriftelijke toestemming.
  7
ISOCP
 72
     1
 11
212.9360492442438
 21
200.9452349693577
 31
0.0
100
AcDbText
  0
LINE
  5
1877
330
11B8
100
AcDbEntity
  8
KADER_COPYVERBOD
100
AcDbLine
 10
289.9888036473453
 20
200.2312905489846
 30
0.0
 11
135.2630384626468
 21
200.2312905489846
 31
0.0
  0
LINE
  5
1878
330
11B8
100
AcDbEntity
  8
KADER_VERDELING
100
AcDbLine
 10
20.0
 20
110.0
 30
0.0
 11
10.0
 21
110.0
 31
0.0
  0
TEXT
  5
1879
330
11B8
100
AcDbEntity
  8
KADER_VERDELING
100
AcDbText
 10
11.27629813158789
 20
82.87226677988181
 30
0.0
 40
4.0
  1
2
  7
ISOCP
 72
     4
 11
12.74562884024931
 21
84.97266048066922
 31
0.0
100
AcDbText
  0
TEXT
  5
187A
330
11B8
100
AcDbEntity
  8
KADER_VERDELING
100
AcDbText
 10
10.92972468408117
 20
131.697584823364
 30
0.0
 40
4.0
  1
3
  7
ISOCP
 72
     4
 11
12.41256739655579
 21
133.6147421108894
 31
0.0
100
AcDbText
  0
TEXT
  5
187B
330
11B8
100
AcDbEntity
  8
KADER_VERDELING
100
AcDbText
 10
10.5476510691117
 20
178.9159489505248
 30
0.0
 40
4.0
  1
4
  7
ISOCP
 72
     4
 11
12.1476510691117
 21
180.9159489505248
 31
0.0
100
AcDbText
  0
LINE
  5
187C
330
11B8
100
AcDbEntity
  8
KADER_VERDELING
100
AcDbLine
 10
15.0
 20
157.5
 30
0.0
 11
10.0
 21
157.5
 31
0.0
  0
LINE
  5
187D
330
11B8
100
AcDbEntity
  8
KADER
 62
     8
100
AcDbLine
 10
5.099999999999999
 20
214.9
 30
0.0
 11
5.099999999999999
 21
205.0
 31
0.0
  0
LINE
  5
187E
330
11B8
100
AcDbEntity
  8
KADER
 62
     8
100
AcDbLine
 10
15.0
 20
214.9
 30
0.0
 11
5.099999999999999
 21
214.9
 31
0.0
  0
TEXT
  5
187F
330
11B8
100
AcDbEntity
  8
KADER_VERDELING
100
AcDbText
 10
35.56765121178256
 20
205.9868022030632
 30
0.0
 40
4.0
  1
A
  7
ISOCP
 72
     4
 11
37.36765121178255
 21
207.9868022030632
 31
0.0
100
AcDbText
  0
LINE
  5
1880
330
11B8
100
AcDbEntity
  8
KADER_VERDELING
100
AcDbLine
 10
61.5
 20
210.0
 30
0.0
 11
61.5
 21
205.0
 31
0.0
  0
TEXT
  5
1881
330
11B8
100
AcDbEntity
  8
KADER_VERDELING
100
AcDbText
 10
83.70161129903214
 20
205.9984364316005
 30
0.0
 40
4.0
  1
B
  7
ISOCP
 72
     4
 11
85.30161129903216
 21
207.9984364316005
 31
0.0
100
AcDbText
  0
LINE
  5
1882
330
11B8
100
AcDbEntity
  8
KADER_COPYVERBOD
100
AcDbLine
 10
173.3733278849826
 20
203.0219583976475
 30
0.0
 11
135.2630384626468
 21
203.0219583976476
 31
0.0
  0
LINE
  5
1883
330
11B8
100
AcDbEntity
  8
KADER_VERDELING
100
AcDbLine
 10
107.4999999999999
 20
209.9999999999999
 30
0.0
 11
107.4999999999999
 21
204.9999999999999
 31
0.0
  0
TEXT
  5
1884
330
11B8
100
AcDbEntity
  8
KADER_VERDELING
100
AcDbText
 10
129.0532062254501
 20
205.710359458123
 30
0.0
 40
4.0
  1
C
  7
ISOCP
 72
     4
 11
130.3600081739161
 21
207.710359458123
 31
0.0
100
AcDbText
  0
LINE
  5
1885
330
11B8
100
AcDbEntity
  8
KADER_COPYVERBOD
100
AcDbLine
 10
135.2630384626468
 20
200.2312905489846
 30
0.0
 11
135.2630384626468
 21
203.0219583976476
 31
0.0
  0
LINE
  5
1886
330
11B8
100
AcDbEntity
  8
KADER_VERDELING
100
AcDbLine
 10
153.5
 20
204.9999999999999
 30
0.0
 11
153.5
 21
209.9999999999999
 31
0.0
  0
TEXT
  5
1887
330
11B8
100
AcDbEntity
  8
KADER_VERDELING
100
AcDbText
 10
174.8971368227629
 20
205.7464181772217
 30
0.0
 40
4.0
  1
D
  7
ISOCP
 72
     4
 11
176.6110455524155
 21
207.7464181772217
 31
0.0
100
AcDbText
  0
LINE
  5
1888
330
11B8
100
AcDbEntity
  8
KADER_COPYVERBOD
100
AcDbLine
 10
178.0430825127186
 20
203.0219583976475
 30
0.0
 11
173.3733278849826
 21
203.0219583976475
 31
0.0
  0
TEXT
  5
1889
330
11B8
100
AcDbEntity
  8
KADER_VERDELING
100
AcDbText
 10
293.5023429994696
 20
83.50546237748213
 30
0.0
 40
4.0
  1
2
  7
ISOCP
 72
     4
 11
294.9716737081309
 21
85.60585607826954
 31
0.0
100
AcDbText
  0
LINE
  5
188A
330
11B8
100
AcDbEntity
  8
KADER_VERDELING
100
AcDbLine
 10
297.0
 20
109.9999999999999
 30
0.0
 11
287.0
 21
109.9999999999999
 31
0.0
  0
TEXT
  5
188B
330
11B8
100
AcDbEntity
  8
KADER_VERDELING
100
AcDbText
 10
293.5782711702462
 20
131.8329408780864
 30
0.0
 40
4.0
  1
3
  7
ISOCP
 72
     4
 11
295.0611138827209
 21
133.7500981656118
 31
0.0
100
AcDbText
  0
LINE
  5
188C
330
11B8
100
AcDbEntity
  8
KADER_COPYVERBOD
100
AcDbLine
 10
252.4937871519082
 20
203.0219583976474
 30
0.0
 11
289.9888036473453
 21
203.0219583976474
 31
0.0
  0
LINE
  5
188D
330
11B8
100
AcDbEntity
  8
KADER_VERDELING
100
AcDbLine
 10
199.5
 20
209.9999999999999
 30
0.0
 11
199.5
 21
204.9999999999999
 31
0.0
  0
TEXT
  5
188E
330
11B8
100
AcDbEntity
  8
KADER_VERDELING
100
AcDbText
 10
221.9836503182936
 20
205.6865249790041
 30
0.0
 40
4.0
  1
E
  7
ISOCP
 72
     4
 11
223.3836503182936
 21
207.6865249790041
 31
0.0
100
AcDbText
  0
LINE
  5
188F
330
11B8
100
AcDbEntity
  8
KADER_VERDELING
100
AcDbLine
 10
245.5
 20
209.9999999999999
 30
0.0
 11
245.5
 21
204.9999999999999
 31
0.0
  0
LINE
  5
1890
330
11B8
100
AcDbEntity
  8
KADER_COPYVERBOD
100
AcDbLine
 10
248.718184985561
 20
203.0219583976474
 30
0.0
 11
252.4937871519082
 21
203.0219583976474
 31
0.0
  0
TEXT
  5
1891
330
11B8
100
AcDbEntity
  8
KADER_VERDELING
100
AcDbText
 10
268.3562916097629
 20
205.7319128133757
 30
0.0
 40
4.0
  1
F
  7
ISOCP
 72
     4
 11
269.7562916097629
 21
207.7319128133757
 31
0.0
100
AcDbText
  0
TEXT
  5
1892
330
11B8
100
AcDbEntity
  8
KADER_VERDELING
100
AcDbText
 10
292.969525199021
 20
179.0625897137481
 30
0.0
 40
4.0
  1
4
  7
ISOCP
 72
     4
 11
294.5695251990211
 21
181.0625897137481
 31
0.0
100
AcDbText
  0
LINE
  5
1893
330
11B8
100
AcDbEntity
  8
KADER_VERDELING
100
AcDbLine
 10
297.0
 20
157.5
 30
0.0
 11
292.0
 21
157.5
 31
0.0
  0
LINE
  5
1894
330
11B8
100
AcDbEntity
  8
KADER
 62
     8
100
AcDbLine
 10
301.8999999999999
 20
214.9
 30
0.0
 11
292.0
 21
214.9
 31
0.0
  0
LINE
  5
1895
330
11B8
100
AcDbEntity
  8
KADER_COPYVERBOD
100
AcDbLine
 10
289.9888036473453
 20
203.0219583976474
 30
0.0
 11
289.9888036473453
 21
200.2312905489846
 31
0.0
  0
LINE
  5
1896
330
11B8
100
AcDbEntity
  8
KADER
 62
     8
100
AcDbLine
 10
301.8999999999999
 20
214.9
 30
0.0
 11
301.8999999999999
 21
204.9999999999999
 31
0.0
  0
LINE
  5
1897
330
11B8
100
AcDbEntity
  8
KADER
 62
     8
100
AcDbLine
 10
5.099999999999999
 20
15.0
 30
0.0
 11
5.099999999999999
 21
5.099999999999999
 31
0.0
  0
LINE
  5
1898
330
11B8
100
AcDbEntity
  8
KADER
 62
     8
100
AcDbLine
 10
5.099999999999999
 20
5.099999999999999
 30
0.0
 11
15.0
 21
5.099999999999999
 31
0.0
  0
TEXT
  5
1899
330
11B8
100
AcDbEntity
  8
KADER_VERDELING
100
AcDbText
 10
11.71886931250492
 20
35.47010096938334
 30
0.0
 40
4.0
  1
1
  7
ISOCP
 72
     4
 11
12.71886931250492
 21
37.47010096938334
 31
0.0
100
AcDbText
  0
LINE
  5
189A
330
11B8
100
AcDbEntity
  8
KADER_VERDELING
100
AcDbLine
 10
15.0
 20
62.65768149588802
 30
0.0
 11
10.0
 21
62.65768149588803
 31
0.0
  0
TEXT
  5
189B
330
11B8
100
AcDbEntity
  8
KADER_VERDELING
100
AcDbText
 10
35.00369436276464
 20
9.34452757581516
 30
0.0
 40
4.0
  1
A
  7
ISOCP
 72
     4
 11
36.80369436276464
 21
11.34452757581515
 31
0.0
100
AcDbText
  0
LINE
  5
189C
330
11B8
100
AcDbEntity
  8
KADER_VERDELING
100
AcDbLine
 10
61.5
 20
14.99999999999999
 30
0.0
 11
61.5
 21
9.999999999999996
 31
0.0
  0
TEXT
  5
189D
330
11B8
100
AcDbEntity
  8
KADER_VERDELING
100
AcDbText
 10
84.1677435776212
 20
9.345613980805861
 30
0.0
 40
4.0
  1
B
  7
ISOCP
 72
     4
 11
85.76774357762122
 21
11.34561398080586
 31
0.0
100
AcDbText
  0
LINE
  5
189E
330
11B8
100
AcDbEntity
  8
KADER_TITTELHOEK
 62
     1
100
AcDbLine
 10
122.0
 20
14.99999999999999
 30
0.0
 11
122.0
 21
41.0
 31
0.0
  0
LINE
  5
189F
330
11B8
100
AcDbEntity
  8
KADER_VERDELING
100
AcDbLine
 10
107.4999999999999
 20
14.99999999999999
 30
0.0
 11
107.4999999999999
 21
9.999999999999992
 31
0.0
  0
LINE
  5
18A0
330
11B8
100
AcDbEntity
  8
KADER
 62
     1
100
AcDbLine
 10
15.0
 20
15.0
 30
0.0
 11
292.0
 21
14.99999999999998
 31
0.0
  0
LINE
  5
18A1
330
11B8
100
AcDbEntity
  8
KADER
 62
     1
100
AcDbLine
 10
15.0
 20
205.0
 30
0.0
 11
15.0
 21
15.0
 31
0.0
  0
LINE
  5
18A2
330
11B8
100
AcDbEntity
  8
KADER_TITTELHOEK
 62
     1
100
AcDbLine
 10
122.0
 20
41.0
 30
0.0
 11
292.0
 21
41.0
 31
0.0
  0
LINE
  5
18A3
330
11B8
100
AcDbEntity
  8
KADER_TITTELHOEK
 62
     1
100
AcDbLine
 10
122.0
 20
34.99999999999999
 30
0.0
 11
292.0
 21
34.99999999999999
 31
0.0
  0
LINE
  5
18A4
330
11B8
100
AcDbEntity
  8
KADER_TITTELHOEK
 62
     1
100
AcDbLine
 10
179.0
 20
14.99999999999999
 30
0.0
 11
179.0
 21
34.99999999999999
 31
0.0
  0
MTEXT
  5
18A5
330
11B8
100
AcDbEntity
  8
KADER_TITTELHOEK
 62
   160
100
AcDbMText
 10
127.572135584107
 20
22.38840959619312
 30
0.0
 40
2.0625
 41
47.33301038168969
 71
     1
 72
     5
  1
\fTimes New Roman|b0|i0|c0|p18;INNOVATION  IN  VENTILATION
1001
ACAD
1000
MTEXTBEGIN
1070
    73
1070
     1
1070
    44
1040
1.0
1070
    74
1070
     0
1000
MTEXTEND
1000
MTEXTBEGIN
1070
    73
1070
     1
1070
    44
1040
1.0
1070
    74
1070
     0
1000
MTEXTEND
  0
MTEXT
  5
18A6
330
11B8
100
AcDbEntity
  8
KADER_TITTELHOEK
 62
   160
100
AcDbMText
 10
140.7996241020081
 20
28.54653587548443
 30
0.0
 40
5.0295
 41
38.25306583304192
 71
     1
 72
     5
  1
\fSwis721 Blk BT|b0|i0|c0|p34;RENSON
1001
ACAD
1000
MTEXTBEGIN
1070
    73
1070
     1
1070
    44
1040
1.0
1070
    74
1070
     0
1000
MTEXTEND
1000
MTEXTBEGIN
1070
    73
1070
     1
1070
    44
1040
1.0
1070
    74
1070
     0
1000
MTEXTEND
  0
TEXT
  5
18A7
330
11B8
100
AcDbEntity
  8
KADER_VERDELING
100
AcDbText
 10
127.472848387761
 20
9.345613980805865
 30
0.0
 40
4.0
  1
C
  7
ISOCP
 72
     4
 11
128.779650336227
 21
11.34561398080586
 31
0.0
100
AcDbText
  0
ARC
  5
18A8
330
11B8
100
AcDbEntity
  8
KADER_TITTELHOEK
 62
   160
100
AcDbCircle
 10
136.2635349289341
 20
29.03278149239786
 30
0.0
 40
3.800859185920012
100
AcDbArc
 50
273.8341321930041
 51
297.4541931572057
  0
LWPOLYLINE
  5
18A9
102
{ACAD_REACTORS
330
18AC
102
}
330
11B8
100
AcDbEntity
  8
KADER_TITTELHOEK
 62
   160
100
AcDbPolyline
 90
        4
 70
     1
 43
0.0
 10
127.6355741262903
 20
23.55670906390923
 10
127.6355741262903
 20
28.58634202792677
 10
131.0064983468552
 20
28.58634202792677
 10
131.0064983468552
 20
23.55670906390923
  0
ARC
  5
18AA
330
11B8
100
AcDbEntity
  8
KADER_TITTELHOEK
 62
   160
100
AcDbCircle
 10
136.2635349288996
 20
28.87294607554525
 30
0.0
 40
3.642349588521795
100
AcDbArc
 50
242.5458068431327
 51
274.0012539636876
  0
LWPOLYLINE
  5
18AB
102
{ACAD_REACTORS
330
18AC
102
}
330
11B8
100
AcDbEntity
  8
KADER_TITTELHOEK
 62
   160
100
AcDbPolyline
 90
        5
 70
     1
 43
0.0
 10
134.4381102448706
 20
25.44588898098345
 42
0.0933850395627545
 10
133.1467676932456
 20
25.83537487142995
 10
133.1467676932456
 20
23.55670906390923
 10
136.5176919138105
 20
23.55670906390923
 10
136.5176919138102
 20
25.00814946732566
 42
-0.1366923164257538
  0
HATCH
  5
18AC
330
11B8
100
AcDbEntity
  8
KADER_TITTELHOEK
 62
   160
100
AcDbHatch
 10
0.0
 20
0.0
 30
0.0
210
0.0
220
0.0
230
1.0
  2
SOLID
 70
     1
 71
     1
 91
        5
 92
        7
 72
     0
 73
     1
 93
        3
 10
137.4273063860267
 20
28.98203421851541
 10
132.0766330200504
 20
31.55035743418352
 10
126.7259596540745
 20
28.98203421851541
 97
        1
330
18B3
 92
        7
 72
     0
 73
     1
 93
        4
 10
131.0064983468552
 20
28.58634202792677
 10
127.6355741262903
 20
28.58634202792677
 10
127.6355741262903
 20
23.55670906390922
 10
131.0064983468552
 20
23.55670906390922
 97
        1
330
18A9
 92
        7
 72
     1
 73
     1
 93
        5
 10
133.1467676932456
 20
28.58634202792677
 42
0.0
 10
133.1467676932456
 20
28.04835654098155
 42
-0.0955472907599551
 10
134.5842685582744
 20
27.62150074693633
 42
0.1381186475286537
 10
136.5176919138105
 20
27.22017641682043
 42
0.0
 10
136.5176919138105
 20
28.58634202792677
 42
0.0
 97
        1
330
18B2
 92
        7
 72
     1
 73
     1
 93
        6
 10
134.4381102448709
 20
26.21320837702645
 42
0.1366923164257739
 10
136.5176919138105
 20
25.77546886337359
 42
0.0
 10
136.5176919138112
 20
26.4560593988358
 42
-0.1381186475289353
 10
134.5842685582706
 20
26.857383728955
 42
0.0955472907596615
 10
133.1467676932456
 20
27.28423952300273
 42
0.0
 10
133.1467676932456
 20
26.60269426748368
 42
-0.0933850395629309
 97
        3
330
18B5
330
18B1
330
18AE
 92
        7
 72
     1
 73
     1
 93
        5
 10
133.1467676932456
 20
23.55670906390922
 42
0.0
 10
136.5176919138105
 20
23.55670906390923
 42
0.0
 10
136.5176919138102
 20
25.00814946732566
 42
-0.1366923164245158
 10
134.4381102448877
 20
25.44588898097458
 42
0.093385039564087
 10
133.1467676932456
 20
25.83537487142995
 42
0.0
 97
        1
330
18AB
 75
     0
 76
     1
 47
0.0204263905011963
 98
        5
 10
133.6516836590891
 20
29.79718793981421
 10
130.0337342948379
 20
26.80982790832663
 10
134.5715012446708
 20
28.17328969525803
 10
133.636353657441
 20
26.77918872384608
 10
133.5443717045863
 20
24.51185913134827
  0
ARC
  5
18AD
330
11B8
100
AcDbEntity
  8
KADER_TITTELHOEK
 62
   160
100
AcDbCircle
 10
136.5177239056676
 20
25.23995198914331
 30
0.0
 40
0.0004784308474229
100
AcDbArc
 50
93.83413218306442
 51
266.1658677354291
  0
ARC
  5
18AE
102
{ACAD_REACTORS
330
18AC
102
}
330
11B8
100
AcDbEntity
  8
KADER_TITTELHOEK
 62
   160
100
AcDbCircle
 10
136.2635349289116
 20
29.72667189400595
 30
0.0
 40
3.959368783310191
100
AcDbArc
 50
242.5458068428884
 51
273.6804204268458
  0
ARC
  5
18AF
330
11B8
100
AcDbEntity
  8
KADER_TITTELHOEK
 62
   160
100
AcDbCircle
 10
136.2635349289116
 20
30.94325666372702
 30
0.0
 40
3.959368783310191
100
AcDbArc
 50
242.5458068428884
 51
273.6804204268458
  0
ARC
  5
18B0
330
11B8
100
AcDbEntity
  8
KADER_TITTELHOEK
 62
   160
100
AcDbCircle
 10
136.2635349288996
 20
30.08953084526631
 30
0.0
 40
3.642349588521795
100
AcDbArc
 50
242.5458068431327
 51
274.0012539636876
  0
LWPOLYLINE
  5
18B1
102
{ACAD_REACTORS
330
18AC
102
}
330
11B8
100
AcDbEntity
  8
KADER_TITTELHOEK
 62
   160
100
AcDbPolyline
 90
        6
 70
     1
 43
0.0
 10
136.5176919138112
 20
26.4560593988358
 42
-0.138118647529108
 10
134.5842685582684
 20
26.85738372895615
 42
0.0955472907595064
 10
133.1467676932456
 20
27.28423952300305
 10
133.1467676932456
 20
26.60269426748367
 42
-0.0933850395629087
 10
134.4381102448706
 20
26.2132083770266
 42
0.1366923164257877
 10
136.5176919138105
 20
25.77546886337358
  0
LWPOLYLINE
  5
18B2
102
{ACAD_REACTORS
330
18AC
102
}
330
11B8
100
AcDbEntity
  8
KADER_TITTELHOEK
 62
   160
100
AcDbPolyline
 90
        5
 70
     1
 43
0.0
 10
136.5176919138105
 20
27.22017641682043
 42
-0.1381186475291241
 10
134.5842685582684
 20
27.62150074693942
 42
0.0955472907595267
 10
133.1467676932456
 20
28.04835654098155
 10
133.1467676932456
 20
28.58634202792677
 10
136.5176919138105
 20
28.58634202792677
  0
LWPOLYLINE
  5
18B3
102
{ACAD_REACTORS
330
18AC
102
}
330
11B8
100
AcDbEntity
  8
KADER_TITTELHOEK
 62
   160
100
AcDbPolyline
 90
        4
 70
     1
 43
0.0
 10
126.7259596540745
 20
28.98203421851541
 10
132.0766330200504
 20
31.55035743418352
 10
137.4273063860267
 20
28.98203421851541
 10
126.7259596540745
 20
28.98203421851541
  0
ARC
  5
18B4
330
11B8
100
AcDbEntity
  8
KADER_TITTELHOEK
 62
   160
100
AcDbCircle
 10
132.7588438742134
 20
24.19764603041993
 30
0.0
 40
3.642349588549349
100
AcDbArc
 50
62.54580684289827
 51
83.8861901713423
  0
ARC
  5
18B5
102
{ACAD_REACTORS
330
18AC
102
}
330
11B8
100
AcDbEntity
  8
KADER_TITTELHOEK
 62
   160
100
AcDbCircle
 10
132.7588438742312
 20
23.34392021193621
 30
0.0
 40
3.959368783344437
100
AcDbArc
 50
62.54580684320847
 51
84.37735834408702
  0
LINE
  5
18B6
330
11B8
100
AcDbEntity
  8
KADER_TITTELHOEK
 62
   160
100
AcDbLine
 10
131.0064983468538
 20
26.87603364396965
 30
0.0
 11
131.0064983468538
 21
27.41107315817134
 31
0.0
  0
ARC
  5
18B7
330
11B8
100
AcDbEntity
  8
KADER_TITTELHOEK
 62
   160
100
AcDbCircle
 10
132.7588438742117
 20
24.03826784150126
 30
0.0
 40
3.800859185948477
100
AcDbArc
 50
84.14206997181601
 51
117.4541931571088
  0
ARC
  5
18B8
330
11B8
100
AcDbEntity
  8
KADER_TITTELHOEK
 62
   160
100
AcDbCircle
 10
132.7588438742111
 20
23.50322832729948
 30
0.0
 40
3.800859185948287
100
AcDbArc
 50
84.14206997180668
 51
117.4541931571002
  0
ARC
  5
18B9
330
11B8
100
AcDbEntity
  8
KADER_TITTELHOEK
 62
   160
100
AcDbCircle
 10
132.7588438742312
 20
22.12733544221515
 30
0.0
 40
3.959368783344437
100
AcDbArc
 50
62.54580684320847
 51
84.37735834408702
  0
LINE
  5
18BA
330
11B8
100
AcDbEntity
  8
KADER_TITTELHOEK
 62
   160
100
AcDbLine
 10
131.0064983468538
 20
25.65944887424858
 30
0.0
 11
131.0064983468538
 21
26.19448838845061
 31
0.0
  0
ARC
  5
18BB
330
11B8
100
AcDbEntity
  8
KADER_TITTELHOEK
 62
   160
100
AcDbCircle
 10
132.7588438742111
 20
22.28664355757842
 30
0.0
 40
3.800859185948287
100
AcDbArc
 50
84.14206997180668
 51
117.4541931571002
  0
ARC
  5
18BC
330
11B8
100
AcDbEntity
  8
KADER_TITTELHOEK
 62
   160
100
AcDbCircle
 10
132.7588438742111
 20
22.82168307178036
 30
0.0
 40
3.800859185948353
100
AcDbArc
 50
84.14206997180681
 51
117.4541931570996
  0
ARC
  5
18BD
330
11B8
100
AcDbEntity
  8
KADER_TITTELHOEK
 62
   160
100
AcDbCircle
 10
132.7588438742134
 20
22.98106126069887
 30
0.0
 40
3.642349588549349
100
AcDbArc
 50
62.54580684289827
 51
83.8861901713423
  0
ARC
  5
18BE
330
11B8
100
AcDbEntity
  8
KADER_TITTELHOEK
 62
   160
100
AcDbCircle
 10
136.2635349289334
 20
30.78440577632061
 30
0.0
 40
3.800859185919999
100
AcDbArc
 50
273.8341321930041
 51
297.4541931572057
  0
ARC
  5
18BF
330
11B8
100
AcDbEntity
  8
KADER_TITTELHOEK
 62
   160
100
AcDbCircle
 10
136.5177239056676
 20
26.45653675886438
 30
0.0
 40
0.0004784308474229
100
AcDbArc
 50
93.83413218306442
 51
266.1658677354291
  0
LINE
  5
18C0
330
11B8
100
AcDbEntity
  8
KADER_TITTELHOEK
 62
   160
100
AcDbLine
 10
138.0158804562838
 20
27.41160045967875
 30
0.0
 11
138.0158804562845
 21
26.87656094547707
 31
0.0
  0
ARC
  5
18C1
330
11B8
100
AcDbEntity
  8
KADER_TITTELHOEK
 62
   160
100
AcDbCircle
 10
136.2635349289334
 20
29.56782100659955
 30
0.0
 40
3.800859185919999
100
AcDbArc
 50
273.8341321930041
 51
297.4541931572057
  0
LINE
  5
18C2
330
11B8
100
AcDbEntity
  8
KADER_TITTELHOEK
 62
   160
100
AcDbLine
 10
138.0158804562838
 20
26.19501568995769
 30
0.0
 11
138.0158804562845
 21
25.659976175756
 31
0.0
  0
ARC
  5
18C3
330
11B8
100
AcDbEntity
  8
KADER_TITTELHOEK
 62
   160
100
AcDbCircle
 10
136.2635349289341
 20
30.24936626211893
 30
0.0
 40
3.800859185920012
100
AcDbArc
 50
273.8341321930041
 51
297.4541931572057
  0
LINE
  5
18C4
330
11B8
100
AcDbEntity
  8
KADER_VERDELING
100
AcDbLine
 10
153.8541563139426
 20
9.999999999999992
 30
0.0
 11
153.8541563139426
 21
14.99999999999999
 31
0.0
  0
TEXT
  5
18C5
330
11B8
100
AcDbEntity
  8
KADER_VERDELING
100
AcDbText
 10
177.2494429403298
 20
9.345613980805859
 30
0.0
 40
4.0
  1
D
  7
ISOCP
 72
     4
 11
178.9633516699824
 21
11.34561398080586
 31
0.0
100
AcDbText
  0
LINE
  5
18C6
330
11B8
100
AcDbEntity
  8
KADER_TITTELHOEK
 62
     1
100
AcDbLine
 10
179.0
 20
24.99999999999999
 30
0.0
 11
292.0
 21
24.99999999999999
 31
0.0
  0
LINE
  5
18C7
330
11B8
100
AcDbEntity
  8
KADER_VERDELING
100
AcDbLine
 10
199.5
 20
14.99999999999999
 30
0.0
 11
199.5
 21
9.999999999999989
 31
0.0
  0
TEXT
  5
18C8
330
11B8
100
AcDbEntity
  8
KADER_VERDELING
100
AcDbText
 10
220.5752584285882
 20
9.345613980805863
 30
0.0
 40
4.0
  1
E
  7
ISOCP
 72
     4
 11
221.9752584285882
 21
11.34561398080586
 31
0.0
100
AcDbText
  0
LINE
  5
18C9
330
11B8
100
AcDbEntity
  8
KADER_VERDELING
100
AcDbLine
 10
245.5
 20
14.99999999999998
 30
0.0
 11
245.5
 21
9.999999999999985
 31
0.0
  0
LINE
  5
18CA
330
11B8
100
AcDbEntity
  8
KADER_TITTELHOEK
 62
     1
100
AcDbLine
 10
179.0
 20
34.99999999999999
 30
0.0
 11
179.0
 21
41.0
 31
0.0
  0
LINE
  5
18CB
330
11B8
100
AcDbEntity
  8
KADER_TITTELHOEK
 62
     1
100
AcDbLine
 10
244.4139453984888
 20
34.99999999999999
 30
0.0
 11
244.4139453984888
 21
41.0
 31
0.0
  0
LINE
  5
18CC
330
11B8
100
AcDbEntity
  8
KADER_TITTELHOEK
 62
     1
100
AcDbLine
 10
272.0
 20
34.99999999999999
 30
0.0
 11
272.0
 21
41.0
 31
0.0
  0
LINE
  5
18CD
330
11B8
100
AcDbEntity
  8
KADER_TITTELHOEK
 62
     1
100
AcDbLine
 10
272.0
 20
34.99999999999999
 30
0.0
 11
272.0
 21
24.99999999999999
 31
0.0
  0
LINE
  5
18CE
330
11B8
100
AcDbEntity
  8
KADER_TITTELHOEK
 62
     1
100
AcDbLine
 10
272.0
 20
14.99999999999999
 30
0.0
 11
272.0
 21
24.99999999999999
 31
0.0
  0
TEXT
  5
18CF
330
11B8
100
AcDbEntity
  8
KADER_VERDELING
100
AcDbText
 10
270.4175971190715
 20
9.021116724335577
 30
0.0
 40
4.0
  1
F
  7
ISOCP
 72
     4
 11
271.8175971190714
 21
11.02111672433557
 31
0.0
100
AcDbText
  0
LINE
  5
18D0
330
11B8
100
AcDbEntity
  8
KADER
 62
     8
100
AcDbLine
 10
301.8999999999999
 20
5.099999999999981
 30
0.0
 11
292.0
 21
5.099999999999982
 31
0.0
  0
LINE
  5
18D1
330
11B8
100
AcDbEntity
  8
KADER
 62
     8
100
AcDbLine
 10
301.8999999999999
 20
5.099999999999981
 30
0.0
 11
301.8999999999999
 21
14.99999999999998
 31
0.0
  0
CIRCLE
  5
18D2
330
11B8
100
AcDbEntity
  8
KADER_TITTELHOEK
 62
     1
100
AcDbCircle
 10
286.0609642956678
 20
19.73047404818043
 30
0.0
 40
1.282499999999999
  0
CIRCLE
  5
18D3
330
11B8
100
AcDbEntity
  8
KADER_TITTELHOEK
 62
     1
100
AcDbCircle
 10
286.0609642956678
 20
19.73047404818043
 30
0.0
 40
2.137499999999999
  0
LINE
  5
18D4
330
11B8
100
AcDbEntity
  8
KADER_TITTELHOEK
  6
CENTER
 62
     7
100
AcDbLine
 10
289.0534642956679
 20
19.73047404818043
 30
0.0
 11
274.930552946756
 21
19.73047404818043
 31
0.0
  0
LWPOLYLINE
  5
18D5
330
11B8
100
AcDbEntity
  8
KADER_TITTELHOEK
 62
     1
100
AcDbPolyline
 90
        4
 70
     1
 43
0.0
 10
282.4355529467561
 20
17.59297404818038
 10
282.4355529467561
 20
21.86797404818025
 10
275.7855529467562
 20
21.01297404818045
 10
275.7855529467562
 20
18.4479740481804
  0
LINE
  5
18D6
330
11B8
100
AcDbEntity
  8
KADER_TITTELHOEK
  6
CENTER
 62
     7
100
AcDbLine
 10
286.0609642956678
 20
16.73797404818037
 30
0.0
 11
286.0609642956678
 21
22.72297404818027
 31
0.0
  0
TEXT
  5
18D7
330
11B8
100
AcDbEntity
  8
KADER_VERDELING
100
AcDbText
 10
293.6368378519511
 20
36.96626471010802
 30
0.0
 40
4.0
  1
1
  7
ISOCP
 72
     4
 11
294.636837851951
 21
38.96626471010802
 31
0.0
100
AcDbText
  0
LINE
  5
18D8
330
11B8
100
AcDbEntity
  8
KADER_VERDELING
100
AcDbLine
 10
297.0
 20
62.5
 30
0.0
 11
292.0
 21
62.5
 31
0.0
  0
ATTDEF
  5
18D9
330
11B8
100
AcDbEntity
  8
TEKST
100
AcDbText
 10
196.1861830198853
 20
36.91226440164479
 30
0.0
 40
2.0
  1
\
  7
ISOCP
100
AcDbAttributeDefinition
  3
Bestand
  2
BESTAND
 70
     8
  0
ATTDEF
  5
18DA
330
11B8
100
AcDbEntity
  8
TEKST
100
AcDbText
 10
258.5220697013271
 20
36.91226440164479
 30
0.0
 40
2.0
  1
00/00/00
  7
ISOCP
100
AcDbAttributeDefinition
  3
Datum
  2
DATUM
 70
     8
  0
ATTDEF
  5
18DB
330
11B8
100
AcDbEntity
  8
TEKST
100
AcDbText
 10
285.6590585004342
 20
36.93024149312396
 30
0.0
 40
2.0
  1
1/1
  7
ISOCP
100
AcDbAttributeDefinition
  3
Schaal
  2
SCHAAL
 70
     8
  0
ATTDEF
  5
18DC
330
11B8
100
AcDbEntity
  8
TEKST
 62
     6
100
AcDbText
 10
279.9703604814353
 20
26.88034664844781
 30
0.0
 40
3.0
  1
A4
  7
ISOCP
100
AcDbAttributeDefinition
  3
Formaat
  2
FORMAAT
 70
     8
  0
ATTDEF
  5
18DD
330
11B8
100
AcDbEntity
  8
TEKST
100
AcDbText
 10
140.5661695035547
 20
36.91226440164479
 30
0.0
 40
2.0
  1
naam
  7
ISOCP
100
AcDbAttributeDefinition
  3
Getekend
  2
GETEKEND
 70
     8
  0
ATTDEF
  5
18DE
330
11B8
100
AcDbEntity
  8
T_NEDERLANDS
 62
     6
100
AcDbText
 10
219.9375123695069
 20
27.703158674853
 30
0.0
 40
5.0
  1
XXX
  7
ISOCP
 72
     1
 11
226.6875123695069
 21
27.703158674853
 31
0.0
100
AcDbAttributeDefinition
  3
Titel (N)
  2
TITEL
 70
     8
  0
ATTDEF
  5
18DF
330
11B8
100
AcDbEntity
  8
T_NEDERLANDS
 62
     6
100
AcDbText
 10
223.5375123695069
 20
18.9721999812301
 30
0.0
 40
3.0
  1
xxx
  7
ISOCP
 72
     1
 11
226.6875123695069
 21
18.9721999812301
 31
0.0
100
AcDbAttributeDefinition
  3
Ondertitel (N)
  2
ONDERTITEL
 70
     8
  0
ATTDEF
  5
18E0
330
11B8
100
AcDbEntity
  8
T_FRANS
 62
     6
100
AcDbText
 10
219.9375123695069
 20
27.703158674853
 30
0.0
 40
5.0
  1
XXX
  7
ISOCP
 72
     1
 11
226.6875123695069
 21
27.703158674853
 31
0.0
100
AcDbAttributeDefinition
  3
Titel (F)
  2
TITEL
 70
     8
  0
ATTDEF
  5
18E1
330
11B8
100
AcDbEntity
  8
T_FRANS
 62
     6
100
AcDbText
 10
223.5375123695069
 20
18.97219998123011
 30
0.0
 40
3.0
  1
xxx
  7
ISOCP
 72
     1
 11
226.6875123695069
 21
18.97219998123011
 31
0.0
100
AcDbAttributeDefinition
  3
Ondertitel (F)
  2
ONDERTITEL
 70
     8
  0
ATTDEF
  5
18E2
330
11B8
100
AcDbEntity
  8
T_ENGELS
 62
     6
100
AcDbText
 10
219.9375123695069
 20
27.70315867485305
 30
0.0
 40
5.0
  1
XXX
  7
ISOCP
 72
     1
 11
226.6875123695069
 21
27.70315867485305
 31
0.0
100
AcDbAttributeDefinition
  3
Titel (E)
  2
TITEL
 70
     8
  0
ATTDEF
  5
18E3
330
11B8
100
AcDbEntity
  8
T_ENGELS
 62
     6
100
AcDbText
 10
223.5375123695069
 20
18.97219998123011
 30
0.0
 40
3.0
  1
xxx
  7
ISOCP
 72
     1
 11
226.6875123695069
 21
18.97219998123011
 31
0.0
100
AcDbAttributeDefinition
  3
Ondertitel (E)
  2
ONDERTITEL
 70
     8
  0
ATTDEF
  5
18E4
330
11B8
100
AcDbEntity
  8
T_DUITS
 62
     6
100
AcDbText
 10
219.9375123695069
 20
27.70315867485305
 30
0.0
 40
5.0
  1
XXX
  7
ISOCP
 72
     1
 11
226.6875123695069
 21
27.70315867485305
 31
0.0
100
AcDbAttributeDefinition
  3
Titel (D)
  2
TITEL
 70
     8
  0
ATTDEF
  5
18E5
330
11B8
100
AcDbEntity
  8
T_DUITS
 62
     6
100
AcDbText
 10
223.5375123695069
 20
18.97219998123011
 30
0.0
 40
3.0
  1
xxx
  7
ISOCP
 72
     1
 11
226.6875123695069
 21
18.97219998123011
 31
0.0
100
AcDbAttributeDefinition
  3
Ondertitel (D)
  2
ONDERTITEL
 70
     8
  0
ENDBLK
  5
1241
330
11B8
100
AcDbEntity
  8
0
100
AcDbBlockEnd
  0
ENDSEC
  0
SECTION
  2
ENTITIES
  0
HATCH
  5
1E
330
2
100
AcDbEntity
  8
A
100
AcDbHatch
 10
0.0
 20
0.0
 30
0.0
210
0.0
220
0.0
230
1.0
  2
ANSI31
 70
     0
 71
     0
 91
        1
 92
        7
 72
     1
 73
     1
 93
       31
 10
1505.644430522425
 20
451.2975222855182
 42
0.0
 10
1505.644430522425
 20
451.2975266744732
 42
0.0
 10
1505.772383561916
 20
451.3714003962672
 42
0.267426867071256
 10
1506.644430522426
 20
452.8852360744201
 42
0.0
 10
1506.644430522425
 20
463.9405869054207
 42
0.2559241411155169
 10
1506.182892060887
 20
464.7832369938899
 42
-0.2559241411155591
 10
1506.044430522425
 20
465.0360320204305
 42
0.0
 10
1506.044430522425
 20
465.2671020444117
 42
0.3113638392797915
 10
1505.915521091311
 20
465.4540408873939
 42
0.0
 10
1503.646991451006
 20
464.1443046888987
 42
0.0400714945126703
 10
1503.644430522425
 20
464.1124015060318
 42
0.0
 10
1503.644430522425
 20
463.13090604841
 42
0.5773502691898908
 10
1503.944430522425
 20
462.957700967653
 42
0.0
 10
1504.944430522425
 20
463.5350512368427
 42
-0.5773502691895693
 10
1505.394430522425
 20
463.2752436157075
 42
0.0
 10
1505.394430522426
 20
452.8852399147446
 42
-0.2679491924311602
 10
1505.144430522426
 20
452.4522272128524
 42
0.0
 10
1486.344430522425
 20
441.5980421520875
 42
0.2679491924311859
 10
1486.244430522425
 20
441.4248370713307
 42
0.0
 10
1486.244430522425
 20
435.7403071251684
 42
0.414213562373012
 10
1486.444430522425
 20
435.5403071251685
 42
0.0
 10
1487.294430522425
 20
435.5403071251684
 42
0.4142135623734281
 10
1487.494430522425
 20
435.7403071251685
 42
0.0
 10
1487.494430522425
 20
440.7031492348436
 42
-0.2679491924310658
 10
1487.594430522425
 20
440.8763543156004
 42
0.0
 10
1489.594430522425
 20
442.0310548539797
 42
-0.5773502691892154
 10
1489.894430522425
 20
441.8578497732227
 42
0.0
 10
1489.894430522425
 20
440.0208479681158
 42
0.550760424586117
 10
1490.18014480814
 20
439.8401463875347
 42
0.2706038449531442
 10
1491.886917456184
 20
442.3384863285252
 42
-0.2509897368941853
 10
1492.894456326682
 20
443.9362652923797
 42
0.0
 97
        0
 75
     0
 76
     1
 52
90.0
 41
1.0
 77
     0
 78
     1
 53
135.0
 43
4.90000000000009
 44
-4.507384834396987
 45
-2.245064030267288
 46
-2.245064030267287
 79
     0
 47
0.1655761997851315
 98
        1
 10
1497.922339216896
 20
447.5406774004286
  0
INSERT
  5
1F
330
2
100
AcDbEntity
  8
0
100
AcDbBlockReference
  2
P-2015
 10
1506.644430522426
 20
451.8748769436629
 30
0.0
  0
HATCH
  5
65
330
2
100
AcDbEntity
  8
A
100
AcDbHatch
 10
0.0
 20
0.0
 30
0.0
210
0.0
220
0.0
230
1.0
  2
ANSI31
 70
     0
 71
     1
 91
        1
 92
        7
 72
     1
 73
     1
 93
      150
 10
1505.644430522425
 20
469.3375914334878
 42
-0.4931454260312871
 10
1504.385611477323
 20
468.3716656071988
 42
0.0
 10
1489.894430522426
 20
472.2545658414367
 42
0.0
 10
1489.894430522426
 20
473.904876943663
 42
0.5773502691894387
 10
1489.444430522426
 20
474.1646845647982
 42
0.0
 10
1488.144430522426
 20
473.4141292148517
 42
0.529006449909042
 10
1488.083286015978
 20
472.5897227264641
 42
0.5249677444925588
 10
1488.635611477323
 20
471.0389511173739
 42
0.0
 10
1504.296405497522
 20
466.8426540068314
 42
-0.6681786379192383
 10
1504.368759783991
 20
466.2930686378094
 42
0.0
 10
1503.644430522426
 20
465.8748769436629
 42
0.0
 10
1503.644430522426
 20
464.1428261360939
 42
0.0
 10
1506.144911469588
 20
465.5864794840414
 42
0.0
 10
1506.144911469587
 20
465.7596845647981
 42
0.0
 10
1506.794430522426
 20
466.1346845647983
 42
0.0
 10
1506.794430522425
 20
465.3846845647983
 42
0.0
 10
1506.644430522426
 20
465.2980820244197
 42
0.0
 10
1506.644430522426
 20
459.374876943663
 42
0.0
 10
1507.144430522425
 20
458.8748769436627
 42
0.0
 10
1506.644430522426
 20
458.374876943663
 42
0.0
 10
1506.644430522426
 20
451.8748769436629
 42
0.0
 10
1505.644430522425
 20
451.2975266744731
 42
0.0
 10
1505.644430522425
 20
446.3748769436631
 42
0.0
 10
1506.144430522425
 20
445.8748769436629
 42
0.0
 10
1505.644430522425
 20
445.3748769436628
 42
0.0
 10
1505.644430522425
 20
440.1748769436626
 42
-0.2522636525022106
 10
1505.194430522426
 20
439.3397122892382
 42
0.2522636525021981
 10
1504.744430522426
 20
438.5045476348138
 42
0.0
 10
1504.744430522426
 20
436.7448769436627
 42
-0.4142135623730951
 10
1503.744430522426
 20
435.7448769436627
 42
0.0
 10
1501.761191041181
 20
435.7448769436628
 42
0.0
 10
1489.894430522426
 20
438.9245658414366
 42
0.0
 10
1489.894430522426
 20
440.5748769436628
 42
0.5773502691896556
 10
1489.444430522426
 20
440.8346845647981
 42
0.0
 10
1488.144430522426
 20
440.0841292148517
 42
0.5290064499089845
 10
1488.083286015978
 20
439.2597227264641
 42
0.5249677444925016
 10
1488.635611477323
 20
437.7089511173738
 42
0.0
 10
1501.436545747284
 20
434.2789511173736
 42
0.06554346281524
 10
1501.695364792387
 20
434.2448769436628
 42
0.0
 10
1506.544430522426
 20
434.2448769436628
 42
0.0
 10
1506.544430522426
 20
437.0448769436628
 42
0.0
 10
1508.64443052243
 20
437.0448769436629
 42
0.0
 10
1508.644430522426
 20
451.3748769436626
 42
0.0
 10
1508.144430522426
 20
451.8748769436628
 42
0.0
 10
1508.644430522426
 20
452.3748769436629
 42
0.0
 10
1508.644430522426
 20
484.7048769436628
 42
0.0
 10
1508.144430522426
 20
485.2048769436629
 42
0.0
 10
1508.644430522426
 20
485.7048769436631
 42
0.0
 10
1508.644430522426
 20
518.034876943663
 42
0.0
 10
1508.144430522426
 20
518.5348769436628
 42
0.0
 10
1508.644430522426
 20
519.034876943663
 42
0.0
 10
1508.644430522426
 20
551.364876943663
 42
0.0
 10
1508.144430522426
 20
551.8648769436629
 42
0.0
 10
1508.644430522426
 20
552.364876943663
 42
0.0
 10
1508.644430522426
 20
584.6948769436631
 42
0.0
 10
1508.144430522426
 20
585.1948769436631
 42
0.0
 10
1508.644430522426
 20
585.6948769436631
 42
0.0
 10
1508.644430522426
 20
603.6948769436632
 42
0.0
 10
1506.644430522425
 20
603.6948769436628
 42
0.0
 10
1506.644430522426
 20
600.894876943663
 42
0.0
 10
1504.644430522426
 20
600.8948769436629
 42
0.0
 10
1504.644430522426
 20
599.7722272128527
 42
0.0
 10
1503.644430522426
 20
599.1948769436628
 42
0.0
 10
1503.644430522426
 20
597.6857768153676
 42
-0.1653061528652657
 10
1503.739268813072
 20
597.5175810487281
 42
0.0
 10
1505.490857594039
 20
598.528861302929
 42
0.0
 10
1506.644430522425
 20
599.3366017632604
 42
0.0
 10
1506.644430522426
 20
592.6948769436633
 42
0.0
 10
1507.144430522426
 20
592.1948769436629
 42
0.0
 10
1506.644430522426
 20
591.6948769436626
 42
0.0
 10
1506.644430522426
 20
585.1948769436631
 42
0.0
 10
1505.644430522425
 20
584.6175266744735
 42
0.0
 10
1505.644430522425
 20
579.6948769436632
 42
0.0
 10
1506.144430522425
 20
579.194876943663
 42
0.0
 10
1505.644430522425
 20
578.6948769436632
 42
0.0
 10
1505.644430522425
 20
569.3275914334878
 42
-0.4931454260312693
 10
1504.385611477323
 20
568.3616656071989
 42
0.0
 10
1489.894430522426
 20
572.2445658414368
 42
0.0
 10
1489.894430522426
 20
573.8948769436631
 42
0.577350269189502
 10
1489.444430522426
 20
574.1546845647983
 42
0.0
 10
1488.144430522425
 20
573.4041292148517
 42
0.5290064499090216
 10
1488.083286015978
 20
572.579722726464
 42
0.5249677444924511
 10
1488.635611477323
 20
571.0289511173739
 42
0.0
 10
1504.296405497522
 20
566.8326540068314
 42
-0.6681786379191447
 10
1504.368759783991
 20
566.2830686378095
 42
0.0
 10
1503.644430522426
 20
565.864876943663
 42
0.0
 10
1503.644430522427
 20
564.1328261360943
 42
0.0
 10
1506.144911469587
 20
565.5764794840415
 42
0.0
 10
1506.144911469587
 20
565.7496845647982
 42
0.0
 10
1506.794430522425
 20
566.1246845647984
 42
0.0
 10
1506.794430522425
 20
565.3746845647983
 42
0.0
 10
1506.644430522426
 20
565.2880820244199
 42
0.0
 10
1506.644430522426
 20
559.3648769436635
 42
0.0
 10
1507.144430522426
 20
558.8648769436632
 42
0.0
 10
1506.644430522426
 20
558.3648769436629
 42
0.0
 10
1506.644430522426
 20
551.864876943663
 42
0.0
 10
1505.644430522425
 20
551.2875266744734
 42
0.0
 10
1505.644430522425
 20
546.3648769436632
 42
0.0
 10
1506.144430522426
 20
545.8648769436629
 42
0.0
 10
1505.644430522425
 20
545.3648769436629
 42
0.0
 10
1505.644430522425
 20
535.997591433488
 42
-0.4931454260312693
 10
1504.385611477323
 20
535.0316656071989
 42
0.0
 10
1489.894430522426
 20
538.9145658414369
 42
0.0
 10
1489.894430522426
 20
540.5648769436631
 42
0.577350269189502
 10
1489.444430522426
 20
540.8246845647984
 42
0.0
 10
1488.144430522425
 20
540.0741292148518
 42
0.5290064499090216
 10
1488.083286015978
 20
539.249722726464
 42
0.5249677444924511
 10
1488.635611477323
 20
537.6989511173739
 42
0.0
 10
1504.296405497522
 20
533.5026540068315
 42
-0.6681786379191447
 10
1504.368759783991
 20
532.9530686378095
 42
0.0
 10
1503.644430522426
 20
532.5348769436632
 42
0.0
 10
1503.644430522427
 20
530.8028261360942
 42
0.0
 10
1506.144911469587
 20
532.2464794840416
 42
0.0
 10
1506.144911469587
 20
532.4196845647984
 42
0.0
 10
1506.794430522425
 20
532.7946845647983
 42
0.0
 10
1506.794430522426
 20
532.0446845647986
 42
0.0
 10
1506.644430522426
 20
531.9580820244198
 42
0.0
 10
1506.644430522426
 20
526.0348769436633
 42
0.0
 10
1507.144430522426
 20
525.5348769436631
 42
0.0
 10
1506.644430522426
 20
525.0348769436628
 42
0.0
 10
1506.644430522426
 20
518.534876943663
 42
0.0
 10
1505.644430522425
 20
517.9575266744732
 42
0.0
 10
1505.644430522425
 20
513.0348769436628
 42
0.0
 10
1506.144430522425
 20
512.5348769436628
 42
0.0
 10
1505.644430522425
 20
512.034876943663
 42
0.0
 10
1505.644430522425
 20
502.6675914334879
 42
-0.4931454260312871
 10
1504.385611477323
 20
501.7016656071989
 42
0.0
 10
1489.894430522426
 20
505.5845658414368
 42
0.0
 10
1489.894430522426
 20
507.2348769436631
 42
0.5773502691894387
 10
1489.444430522426
 20
507.4946845647983
 42
0.0
 10
1488.144430522425
 20
506.7441292148518
 42
0.5290064499090216
 10
1488.083286015978
 20
505.919722726464
 42
0.5249677444923784
 10
1488.635611477323
 20
504.3689511173741
 42
0.0
 10
1504.296405497522
 20
500.1726540068315
 42
-0.6681786379192383
 10
1504.368759783991
 20
499.6230686378096
 42
0.0
 10
1503.644430522426
 20
499.204876943663
 42
0.0
 10
1503.644430522426
 20
497.4728261360941
 42
0.0
 10
1506.144911469588
 20
498.9164794840416
 42
0.0
 10
1506.144911469587
 20
499.0896845647983
 42
0.0
 10
1506.794430522426
 20
499.4646845647984
 42
0.0
 10
1506.794430522426
 20
498.7146845647985
 42
0.0
 10
1506.644430522426
 20
498.6280820244202
 42
0.0
 10
1506.644430522426
 20
492.7048769436628
 42
0.0
 10
1507.144430522425
 20
492.2048769436629
 42
0.0
 10
1506.644430522426
 20
491.704876943663
 42
0.0
 10
1506.644430522426
 20
485.2048769436629
 42
0.0
 10
1505.644430522425
 20
484.6275266744733
 42
0.0
 10
1505.644430522425
 20
479.7048769436629
 42
0.0
 10
1506.144430522426
 20
479.2048769436627
 42
0.0
 10
1505.644430522425
 20
478.704876943663
 42
0.0
 97
        2
330
66
330
97
 75
     0
 76
     1
 52
90.0
 41
1.0
 77
     0
 78
     1
 53
135.0
 43
1113.588357731831
 44
278.1394388092105
 45
-2.245064030267288
 46
-2.245064030267287
 79
     0
 47
0.1483351801478254
 98
        1
 10
1501.120923166118
 20
582.9559959379812
  0
INSERT
  5
66
102
{ACAD_REACTORS
330
65
102
}
330
2
100
AcDbEntity
  8
0
  6
HIDDEN
100
AcDbBlockReference
  2
P-2045
 10
1506.644430522426
 20
585.1948769436631
 30
0.0
  0
HATCH
  5
6C
330
2
100
AcDbEntity
  8
A
  6
HIDDEN
100
AcDbHatch
 10
0.0
 20
0.0
 30
0.0
210
0.0
220
0.0
230
1.0
  2
ANSI31
 70
     0
 71
     1
 91
        1
 92
        7
 72
     1
 73
     1
 93
       31
 10
1492.894456326654
 20
477.2662652923638
 42
0.0
 10
1505.644430522425
 20
484.6275222855182
 42
0.0
 10
1505.644430522425
 20
484.6340972443357
 42
0.0196870759266334
 10
1505.766474157076
 20
484.6979885997919
 42
0.0
 10
1505.772383561979
 20
484.7014003963031
 42
0.2674268670602676
 10
1506.644430522426
 20
486.2152360744198
 42
0.0
 10
1506.644430522426
 20
491.7048769436629
 42
0.0
 10
1506.644430522426
 20
497.189812197427
 42
0.2982166266986248
 10
1506.044430522425
 20
498.1063273364181
 42
0.0
 10
1506.044430522425
 20
498.5120522316804
 42
0.5773502691896294
 10
1505.744430522425
 20
498.6852573124374
 42
0.0
 10
1503.744430522426
 20
497.5305567740583
 42
0.267949192431296
 10
1503.644430522426
 20
497.3573516933014
 42
0.0
 10
1503.644430522426
 20
496.3758562356791
 42
0.5773502691894401
 10
1503.944430522425
 20
496.2026511549222
 42
0.0
 10
1505.394430522426
 20
497.0398090452468
 42
0.0
 10
1505.394430522426
 20
485.9265647801501
 42
0.0
 10
1486.344430522425
 20
474.9280421520877
 42
0.2679491924309678
 10
1486.244430522425
 20
474.7548370713309
 42
0.0
 10
1486.244430522425
 20
461.736332528953
 42
0.5773502691897607
 10
1486.994430522425
 20
461.3033198270608
 42
0.0
 10
1489.144430522425
 20
462.5446229058185
 42
0.2679491924309666
 10
1489.244430522425
 20
462.7178279865753
 42
0.0
 10
1489.244430522425
 20
463.6993234441978
 42
0.5773502691895619
 10
1488.944430522425
 20
463.8725285249545
 42
0.0
 10
1487.494430522425
 20
463.0353706346296
 42
0.0
 10
1487.494430522426
 20
474.1486192886817
 42
0.0
 10
1489.894430522425
 20
475.5342599347368
 42
0.0
 10
1489.894430522426
 20
473.3403289118163
 42
0.4501325888490865
 10
1490.118583505207
 20
473.1417926848379
 42
0.2766749932453878
 10
1491.886917456184
 20
475.6684863285255
 42
-0.2509897368897962
 97
        2
330
97
330
6D
 75
     0
 76
     1
 52
90.0
 41
1.0
 77
     0
 78
     1
 53
135.0
 43
1113.588357731831
 44
278.1394388092105
 45
-2.245064030267288
 46
-2.245064030267287
 79
     0
 47
0.1323619609349437
 98
        1
 10
1496.697884139879
 20
480.4510448515186
  0
INSERT
  5
6D
102
{ACAD_REACTORS
330
6C
102
}
330
2
100
AcDbEntity
  8
0
  6
HIDDEN
100
AcDbBlockReference
  2
P-2012
 10
1506.644430522426
 20
485.204876943663
 30
0.0
  0
HATCH
  5
93
330
2
100
AcDbEntity
  8
A
  6
HIDDEN
100
AcDbHatch
 10
0.0
 20
0.0
 30
0.0
210
0.0
220
0.0
230
1.0
  2
ANSI31
 70
     0
 71
     1
 91
        1
 92
        7
 72
     1
 73
     1
 93
       31
 10
1492.894456326654
 20
510.5962652923637
 42
0.0
 10
1505.644430522425
 20
517.9575222855182
 42
0.0
 10
1505.644430522425
 20
517.9640972443354
 42
0.0196870759081864
 10
1505.766474156964
 20
518.0279885997272
 42
0.0
 10
1505.77238356203
 20
518.0314003963326
 42
0.2674268670512134
 10
1506.644430522426
 20
519.5452360744196
 42
0.0
 10
1506.644430522426
 20
525.0348769436629
 42
0.0
 10
1506.644430522426
 20
530.5198121974269
 42
0.2982166266986557
 10
1506.044430522425
 20
531.4363273364182
 42
0.0
 10
1506.044430522425
 20
531.8420522316803
 42
0.5773502691897337
 10
1505.744430522425
 20
532.0152573124373
 42
0.0
 10
1503.744430522425
 20
530.8605567740583
 42
0.2679491924309678
 10
1503.644430522426
 20
530.6873516933015
 42
0.0
 10
1503.644430522426
 20
529.705856235679
 42
0.5773502691893551
 10
1503.944430522425
 20
529.5326511549221
 42
0.0
 10
1505.394430522426
 20
530.3698090452468
 42
0.0
 10
1505.394430522426
 20
519.2565647801501
 42
0.0
 10
1486.344430522425
 20
508.2580421520876
 42
0.2679491924309678
 10
1486.244430522425
 20
508.0848370713308
 42
0.0
 10
1486.244430522425
 20
495.066332528953
 42
0.5773502691897705
 10
1486.994430522425
 20
494.6333198270608
 42
0.0
 10
1489.144430522425
 20
495.8746229058183
 42
0.2679491924313099
 10
1489.244430522425
 20
496.0478279865753
 42
0.0
 10
1489.244430522425
 20
497.0293234441976
 42
0.5773502691895807
 10
1488.944430522425
 20
497.2025285249545
 42
0.0
 10
1487.494430522425
 20
496.3653706346295
 42
0.0
 10
1487.494430522426
 20
507.4786192886817
 42
0.0
 10
1489.894430522425
 20
508.8642599347367
 42
0.0
 10
1489.894430522426
 20
506.6703289118162
 42
0.4501325888490865
 10
1490.118583505207
 20
506.4717926848379
 42
0.2766749932453872
 10
1491.886917456184
 20
508.9984863285255
 42
-0.2509897368898035
 97
        2
330
97
330
94
 75
     0
 76
     1
 52
90.0
 41
1.0
 77
     0
 78
     1
 53
135.0
 43
1113.588357731831
 44
278.1394388092105
 45
-2.245064030267288
 46
-2.245064030267287
 79
     0
 47
0.1323619609349437
 98
        1
 10
1498.02237237045
 20
514.6923993881109
  0
INSERT
  5
94
102
{ACAD_REACTORS
330
93
102
}
330
2
100
AcDbEntity
  8
0
  6
HIDDEN
100
AcDbBlockReference
  2
P-2012
 10
1506.644430522426
 20
518.534876943663
 30
0.0
  0
HATCH
  5
95
330
2
100
AcDbEntity
  8
A
  6
HIDDEN
100
AcDbHatch
 10
0.0
 20
0.0
 30
0.0
210
0.0
220
0.0
230
1.0
  2
ANSI31
 70
     0
 71
     1
 91
        1
 92
        7
 72
     1
 73
     1
 93
       31
 10
1492.89445632666
 20
543.926265292367
 42
0.0
 10
1505.644430522425
 20
551.2875222855179
 42
0.0
 10
1505.644430522766
 20
551.2940972444969
 42
0.0196870758615541
 10
1505.766474157008
 20
551.3579885997525
 42
0.0
 10
1505.772383562086
 20
551.3614003963652
 42
0.2674268670411918
 10
1506.644430522426
 20
552.8752360744195
 42
0.0
 10
1506.644430522426
 20
558.364876943663
 42
0.0
 10
1506.644430522426
 20
563.8498121974269
 42
0.2982166266986557
 10
1506.044430522425
 20
564.7663273364181
 42
0.0
 10
1506.044430522425
 20
565.1720522316802
 42
0.5773502691897337
 10
1505.744430522425
 20
565.3452573124373
 42
0.0
 10
1503.744430522425
 20
564.1905567740582
 42
0.2679491924309678
 10
1503.644430522426
 20
564.0173516933014
 42
0.0
 10
1503.644430522426
 20
563.0358562356788
 42
0.5773502691893551
 10
1503.944430522425
 20
562.8626511549221
 42
0.0
 10
1505.394430522426
 20
563.6998090452467
 42
0.0
 10
1505.394430522426
 20
552.58656478015
 42
0.0
 10
1486.344430522425
 20
541.5880421520876
 42
0.2679491924309678
 10
1486.244430522425
 20
541.4148370713308
 42
0.0
 10
1486.244430522425
 20
528.3963325289529
 42
0.5773502691896947
 10
1486.994430522425
 20
527.9633198270608
 42
0.0
 10
1489.144430522425
 20
529.2046229058183
 42
0.2679491924313099
 10
1489.244430522425
 20
529.3778279865753
 42
0.0
 10
1489.244430522425
 20
530.3593234441975
 42
0.5773502691903322
 10
1488.944430522425
 20
530.5325285249543
 42
0.0
 10
1487.494430522425
 20
529.6953706346296
 42
0.0
 10
1487.494430522426
 20
540.8086192886817
 42
0.0
 10
1489.894430522426
 20
542.1942599347367
 42
0.0
 10
1489.894430522426
 20
540.000328911816
 42
0.4501325888487861
 10
1490.118583505207
 20
539.8017926848377
 42
0.2766749932454098
 10
1491.886917456184
 20
542.3284863285253
 42
-0.2509897368906992
 97
        2
330
97
330
96
 75
     0
 76
     1
 52
90.0
 41
1.0
 77
     0
 78
     1
 53
135.0
 43
1113.588357731831
 44
278.1394388092105
 45
-2.245064030267288
 46
-2.245064030267287
 79
     0
 47
0.1081528723448515
 98
        1
 10
1497.585362329081
 20
547.2975989172336
  0
INSERT
  5
96
102
{ACAD_REACTORS
330
95
102
}
330
2
100
AcDbEntity
  8
0
  6
HIDDEN
100
AcDbBlockReference
  2
P-2012
 10
1506.644430522426
 20
551.8648769436629
 30
0.0
  0
INSERT
  5
97
102
{ACAD_REACTORS
330
95
330
93
330
6C
330
65
102
}
330
2
100
AcDbEntity
  8
0
  6
HIDDEN
100
AcDbBlockReference
  2
P-4061
 10
1508.644430522426
 20
603.694876943663
 30
0.0
  0
DIMENSION
  5
9C
330
2
100
AcDbEntity
  8
M
100
AcDbDimension
  2
*D18
 10
1515.14443052243
 20
392.4482528923353
 30
0.0
 11
1500.79443052243
 21
395.5315862256686
 31
0.0
 70
    32
  1
28,5
  3
STANDARD
100
AcDbAlignedDimension
 13
1486.444430522429
 23
407.8136830738411
 33
0.0
 14
1515.14443052243
 24
432.2448769436627
 34
0.0
100
AcDbRotatedDimension
1001
ACAD
1000
DSTYLE
1002
{
1070
   140
1040
3.5
1002
}
  0
DIMENSION
  5
AB
330
2
100
AcDbEntity
  8
M
100
AcDbDimension
  2
*D15
 10
1515.144430522426
 20
645.1260708134848
 30
0.0
 11
1498.344141965338
 21
645.1260708134848
 31
0.0
 70
   160
  1
33.5
  3
STANDARD
100
AcDbAlignedDimension
 13
1481.54385340825
 23
629.030133990916
 33
0.0
 14
1515.144430522426
 24
606.0603071251687
 34
0.0
100
AcDbRotatedDimension
1001
ACAD
1000
DSTYLE
1002
{
1070
   140
1040
3.5
1002
}
  0
HATCH
  5
B8
330
2
100
AcDbEntity
  8
A
100
AcDbHatch
 10
0.0
 20
0.0
 30
0.0
210
0.0
220
0.0
230
1.0
  2
ANSI31
 70
     0
 71
     0
 91
        1
 92
        7
 72
     1
 73
     1
 93
       28
 10
1515.144430522429
 20
434.2448769436628
 42
0.0
 10
1510.14443052243
 20
434.2448769436628
 42
0.0
 10
1510.14443052243
 20
438.2448769436628
 42
0.0
 10
1512.778405118645
 20
438.2448769436625
 42
1.732050807568568
 10
1513.64443052243
 20
439.7448769436627
 42
0.0
 10
1510.14443052243
 20
439.7448769436627
 42
0.0
 10
1510.14443052243
 20
447.7448769436628
 42
0.0
 10
1508.644430522428
 20
447.7448769436628
 42
0.0
 10
1508.64443052243
 20
443.3834213583726
 42
0.0
 10
1508.64443052243
 20
434.2448769436628
 42
0.0
 10
1481.64443052243
 20
434.2448769436627
 42
0.0
 10
1481.644430522429
 20
409.2448769436628
 42
0.0
 10
1486.386960945316
 20
407.8221178167969
 42
0.5023968879033732
 10
1486.64443052243
 20
408.013683073841
 42
0.0
 10
1486.64443052243
 20
409.3109229199995
 42
0.0
 10
1483.14443052243
 20
410.3609229199994
 42
0.0
 10
1483.144430522429
 20
428.6948769436628
 42
0.0
 10
1485.64443052243
 20
428.6948769436627
 42
0.0
 10
1485.64443052243
 20
430.1948769436628
 42
0.0
 10
1483.64443052243
 20
430.1948769436627
 42
0.0
 10
1483.64443052243
 20
432.2448769436627
 42
0.0
 10
1511.64443052243
 20
432.2448769436627
 42
0.0
 10
1511.64443052243
 20
430.1948769436628
 42
0.0
 10
1509.644430522429
 20
430.1948769436628
 42
0.0
 10
1509.644430522429
 20
428.6948769436628
 42
0.0
 10
1513.64443052243
 20
428.6948769436628
 42
0.0
 10
1513.64443052243
 20
432.2448769436627
 42
0.0
 10
1515.14443052243
 20
432.2448769436627
 42
0.0
 97
        0
 75
     0
 76
     1
 52
0.0
 41
0.5
 77
     0
 78
     1
 53
45.0
 43
1113.588357731831
 44
284.8434134054261
 45
-1.122532015133643
 46
1.122532015133644
 79
     0
 47
0.0871250369300294
 98
        1
 10
1488.145698237144
 20
433.2199101221815
  0
HATCH
  5
B9
330
2
100
AcDbEntity
  8
A
100
AcDbHatch
 10
0.0
 20
0.0
 30
0.0
210
0.0
220
0.0
230
1.0
  2
ANSI31
 70
     0
 71
     1
 91
        1
 92
        7
 72
     1
 73
     1
 93
       27
 10
1485.644430522426
 20
608.1103071251689
 42
0.0
 10
1485.644430522425
 20
609.610307125169
 42
0.0
 10
1483.144430522425
 20
609.6103071251689
 42
0.0
 10
1483.144430522426
 20
627.9442611488323
 42
0.0
 10
1486.644430522425
 20
628.9942611488321
 42
0.0
 10
1486.644430522426
 20
630.2915009949906
 42
0.5023968879039491
 10
1486.386960945312
 20
630.4830662520348
 42
0.0
 10
1481.644430522426
 20
629.0603071251688
 42
0.0
 10
1481.644430522425
 20
604.0603071251689
 42
0.0
 10
1508.644430522426
 20
604.0603071251689
 42
0.0
 10
1508.644430522426
 20
590.5603071251689
 42
0.0
 10
1510.144430522426
 20
590.5603071251689
 42
0.0
 10
1510.144430522426
 20
598.5603071251689
 42
0.0
 10
1513.644430522425
 20
598.5603071251688
 42
1.732050807568796
 10
1512.778405118641
 20
600.060307125169
 42
0.0
 10
1510.144430522426
 20
600.0603071251689
 42
0.0
 10
1510.144430522426
 20
604.0603071251689
 42
0.0
 10
1515.144430522426
 20
604.0603071251689
 42
0.0
 10
1515.144430522426
 20
606.0603071251689
 42
0.0
 10
1513.644430522426
 20
606.0603071251689
 42
0.0
 10
1513.644430522426
 20
609.6103071251688
 42
0.0
 10
1509.644430522426
 20
609.6103071251688
 42
0.0
 10
1509.644430522426
 20
608.1103071251689
 42
0.0
 10
1511.644430522426
 20
608.1103071251689
 42
0.0
 10
1511.644430522426
 20
606.0603071251689
 42
0.0
 10
1483.644430522426
 20
606.0603071251689
 42
0.0
 10
1483.644430522426
 20
608.110307125169
 42
0.0
 97
        1
330
BA
 75
     0
 76
     1
 52
0.0
 41
0.5
 77
     0
 78
     1
 53
45.0
 43
1113.588357731831
 44
278.5048689907163
 45
-1.122532015133643
 46
1.122532015133644
 79
     0
 47
0.0899301979996614
 98
        1
 10
1482.529911776892
 20
619.6964213175106
  0
INSERT
  5
BA
102
{ACAD_REACTORS
330
B9
102
}
330
2
100
AcDbEntity
  8
0
100
AcDbBlockReference
  2
P-7021
 10
1508.644430522426
 20
594.921762710459
 30
0.0
 41
-1.0
 50
180.0
  0
INSERT
  5
BF
330
2
100
AcDbEntity
  8
0
100
AcDbBlockReference
  2
P-7021
 10
1508.64443052243
 20
443.3834213583726
 30
0.0
  0
DIMENSION
  5
C0
330
2
100
AcDbEntity
  8
M
100
AcDbDimension
  2
*D21
 10
1466.644430522426
 20
527.5309023474473
 30
0.0
 11
1463.894430522425
 21
517.6251546186364
 31
0.0
 70
    32
  1
20
  3
STANDARD
100
AcDbAlignedDimension
 13
1486.244430522425
 23
507.7194068898249
 33
0.0
 14
1486.744430522425
 24
527.5309023474473
 34
0.0
 50
90.0
100
AcDbRotatedDimension
1001
ACAD
1000
DSTYLE
1002
{
1070
   140
1040
3.5
1002
}
  0
LINE
  5
CD
330
2
100
AcDbEntity
  8
0
100
AcDbLine
 10
1481.644430522426
 20
604.0603071251687
 30
0.0
 11
1481.644430522426
 21
433.879446762157
 31
0.0
  0
DIMENSION
  5
CE
330
2
100
AcDbEntity
  8
M
100
AcDbDimension
  2
*D20
 10
1466.644430522426
 20
407.8136830738411
 30
0.0
 11
1463.894430522426
 21
418.2542800087522
 31
0.0
 70
    32
  1
21
  3
STANDARD
100
AcDbAlignedDimension
 13
1485.64443052243
 23
428.6948769436628
 33
0.0
 14
1486.444430522429
 24
407.8136830738411
 34
0.0
 50
90.0
100
AcDbRotatedDimension
1001
ACAD
1000
DSTYLE
1002
{
1070
   140
1040
3.5
1002
}
  0
DIMENSION
  5
DB
330
2
100
AcDbEntity
  8
M
100
AcDbDimension
  2
*D19
 10
1486.444430522429
 20
392.4482528923353
 30
0.0
 11
1472.263478141477
 21
392.4482528923353
 31
0.0
 70
   160
  1
5
  3
STANDARD
100
AcDbAlignedDimension
 13
1481.64443052243
 23
409.2448769436628
 33
0.0
 14
1486.444430522429
 24
407.8136830738411
 34
0.0
100
AcDbRotatedDimension
1001
ACAD
1000
DSTYLE
1002
{
1070
   140
1040
3.5
1002
}
  0
DIMENSION
  5
E9
330
2
100
AcDbEntity
  8
M
100
AcDbDimension
  2
*D16
 10
1466.644430522426
 20
604.0603071251687
 30
0.0
 11
1463.561097189092
 21
617.2561333529088
 31
0.0
 70
    32
  1
26,5
  3
STANDARD
100
AcDbAlignedDimension
 13
1486.563816628354
 23
630.4519595806485
 33
0.0
 14
1481.644430522426
 24
604.0603071251687
 34
0.0
 50
90.0
100
AcDbRotatedDimension
1001
ACAD
1000
DSTYLE
1002
{
1070
   140
1040
3.5
1002
}
  0
DIMENSION
  5
F6
330
2
100
AcDbEntity
  8
M
100
AcDbDimension
  2
*D22
 10
1466.644430522426
 20
527.5309023474473
 30
0.0
 11
1463.561097189092
 21
544.3786174382005
 31
0.0
 70
    32
  1
33,5
  3
STANDARD
100
AcDbAlignedDimension
 13
1486.744430522425
 23
561.2263325289531
 33
0.0
 14
1486.744430522425
 24
527.5309023474473
 34
0.0
 50
90.0
100
AcDbRotatedDimension
1001
ACAD
1000
DSTYLE
1002
{
1070
   140
1040
3.5
1002
}
  0
INSERT
  5
103
102
{ACAD_REACTORS
330
242
330
105
330
1E0
102
}
330
2
100
AcDbEntity
  8
0
  6
HIDDEN
100
AcDbBlockReference
  2
P-4061
 10
1745.644430522426
 20
603.694876943663
 30
0.0
  0
INSERT
  5
104
102
{ACAD_REACTORS
330
105
102
}
330
2
100
AcDbEntity
  8
0
  6
HIDDEN
100
AcDbBlockReference
  2
P-2012
 10
1743.644430522426
 20
518.534876943663
 30
0.0
  0
HATCH
  5
105
330
2
100
AcDbEntity
  8
A
  6
HIDDEN
100
AcDbHatch
 10
0.0
 20
0.0
 30
0.0
210
0.0
220
0.0
230
1.0
  2
ANSI31
 70
     0
 71
     1
 91
        1
 92
        7
 72
     1
 73
     1
 93
       31
 10
1729.894456326654
 20
510.5962652923637
 42
0.0
 10
1742.644430522426
 20
517.9575222855183
 42
0.0
 10
1742.644430522085
 20
517.964097244174
 42
0.0196870759609325
 10
1742.766474156958
 20
518.0279885997233
 42
0.0
 10
1742.772383562007
 20
518.0314003963196
 42
0.2674268670551622
 10
1743.644430522426
 20
519.5452360744196
 42
0.0
 10
1743.644430522426
 20
525.0348769436629
 42
0.0
 10
1743.644430522426
 20
530.5198121974269
 42
0.2982166266986557
 10
1743.044430522425
 20
531.4363273364182
 42
0.0
 10
1743.044430522425
 20
531.8420522316803
 42
0.5773502691897337
 10
1742.744430522425
 20
532.0152573124373
 42
0.0
 10
1740.744430522425
 20
530.8605567740583
 42
0.2679491924309678
 10
1740.644430522426
 20
530.6873516933015
 42
0.0
 10
1740.644430522426
 20
529.705856235679
 42
0.5773502691893551
 10
1740.944430522425
 20
529.5326511549221
 42
0.0
 10
1742.394430522426
 20
530.3698090452468
 42
0.0
 10
1742.394430522425
 20
519.2565647801501
 42
0.0
 10
1723.344430522425
 20
508.2580421520876
 42
0.2679491924309678
 10
1723.244430522425
 20
508.0848370713308
 42
0.0
 10
1723.244430522425
 20
495.066332528953
 42
0.5773502691897705
 10
1723.994430522425
 20
494.6333198270608
 42
0.0
 10
1726.144430522425
 20
495.8746229058183
 42
0.2679491924313099
 10
1726.244430522425
 20
496.0478279865753
 42
0.0
 10
1726.244430522425
 20
497.0293234441976
 42
0.5773502691895807
 10
1725.944430522425
 20
497.2025285249545
 42
0.0
 10
1724.494430522425
 20
496.3653706346296
 42
0.0
 10
1724.494430522425
 20
507.4786192886817
 42
0.0
 10
1726.894430522426
 20
508.8642599347368
 42
0.0
 10
1726.894430522426
 20
506.6703289118162
 42
0.4501325888490865
 10
1727.118583505207
 20
506.4717926848379
 42
0.2766749932453872
 10
1728.886917456184
 20
508.9984863285255
 42
-0.2509897368898035
 97
        2
330
103
330
104
 75
     0
 76
     1
 52
90.0
 41
1.0
 77
     0
 78
     1
 53
135.0
 43
1350.588357731831
 44
278.1394388092105
 45
-2.245064030267288
 46
-2.245064030267287
 79
     0
 47
0.1323619609349437
 98
        1
 10
1735.02237237045
 20
514.6923993881109
  0
INSERT
  5
106
102
{ACAD_REACTORS
330
107
102
}
330
2
100
AcDbEntity
  8
0
  6
HIDDEN
100
AcDbBlockReference
  2
P-2012
 10
1624.144430522425
 20
518.534876943663
 30
0.0
  0
HATCH
  5
107
330
2
100
AcDbEntity
  8
A
  6
HIDDEN
100
AcDbHatch
 10
0.0
 20
0.0
 30
0.0
210
0.0
220
0.0
230
1.0
  2
ANSI31
 70
     0
 71
     1
 91
        1
 92
        7
 72
     1
 73
     1
 93
       31
 10
1610.394456326654
 20
510.5962652923637
 42
0.0
 10
1623.144430522425
 20
517.9575222855182
 42
0.0
 10
1623.144430522766
 20
517.9640972444969
 42
0.0196870758687812
 10
1623.266474157052
 20
518.0279885997777
 42
0.0
 10
1623.272383562006
 20
518.0314003963185
 42
0.2674268670554618
 10
1624.144430522425
 20
519.5452360744194
 42
0.0
 10
1624.144430522425
 20
525.0348769436629
 42
0.0
 10
1624.144430522425
 20
530.5198121974269
 42
0.2982166266986557
 10
1623.544430522425
 20
531.4363273364182
 42
0.0
 10
1623.544430522425
 20
531.8420522316803
 42
0.5773502691897337
 10
1623.244430522426
 20
532.0152573124373
 42
0.0
 10
1621.244430522426
 20
530.8605567740583
 42
0.2679491924309678
 10
1621.144430522425
 20
530.6873516933015
 42
0.0
 10
1621.144430522425
 20
529.705856235679
 42
0.5773502691893551
 10
1621.444430522426
 20
529.5326511549221
 42
0.0
 10
1622.894430522426
 20
530.3698090452468
 42
0.0
 10
1622.894430522425
 20
519.2565647801501
 42
0.0
 10
1603.844430522425
 20
508.2580421520876
 42
0.2679491924309678
 10
1603.744430522425
 20
508.0848370713308
 42
0.0
 10
1603.744430522425
 20
495.066332528953
 42
0.5773502691897705
 10
1604.494430522426
 20
494.6333198270608
 42
0.0
 10
1606.644430522425
 20
495.8746229058183
 42
0.2679491924313099
 10
1606.744430522425
 20
496.0478279865753
 42
0.0
 10
1606.744430522425
 20
497.0293234441976
 42
0.5773502691895807
 10
1606.444430522425
 20
497.2025285249545
 42
0.0
 10
1604.994430522426
 20
496.3653706346296
 42
0.0
 10
1604.994430522426
 20
507.4786192886818
 42
0.0
 10
1607.394430522425
 20
508.8642599347367
 42
0.0
 10
1607.394430522425
 20
506.6703289118162
 42
0.4501325888490865
 10
1607.618583505207
 20
506.4717926848379
 42
0.2766749932453872
 10
1609.386917456184
 20
508.9984863285255
 42
-0.2509897368898035
 97
        2
330
108
330
106
 75
     0
 76
     1
 52
90.0
 41
1.0
 77
     0
 78
     1
 53
135.0
 43
1231.088357731831
 44
278.1394388092105
 45
-2.245064030267288
 46
-2.245064030267287
 79
     0
 47
0.1323619609349437
 98
        1
 10
1615.522372370451
 20
514.6923993881109
  0
INSERT
  5
108
102
{ACAD_REACTORS
330
21C
330
107
330
18F
102
}
330
2
100
AcDbEntity
  8
0
  6
HIDDEN
100
AcDbBlockReference
  2
P-4061
 10
1626.144430522426
 20
603.694876943663
 30
0.0
  0
LINE
  5
109
330
2
100
AcDbEntity
  8
GAAS
  6
HIDDEN
100
AcDbLine
 10
1751.64443052243
 20
420.4063325289529
 30
0.0
 11
1751.644430522426
 21
599.5603071251687
 31
0.0
  0
LINE
  5
10B
330
2
100
AcDbEntity
  8
GAAS
  6
HIDDEN
100
AcDbLine
 10
1632.144430522426
 20
599.5603071251689
 30
0.0
 11
1632.14443052243
 21
432.0409023474472
 31
0.0
  0
LINE
  5
10C
330
2
100
AcDbEntity
  8
GAAS
  6
HIDDEN
100
AcDbLine
 10
1514.644430522426
 20
599.5603071251687
 30
0.0
 11
1514.644430522429
 21
438.7448769436628
 31
0.0
  0
DIMENSION
  5
10D
330
2
100
AcDbEntity
  8
M
100
AcDbDimension
  2
*D33
 10
1703.644430522428
 20
508.1848370713307
 30
0.0
 11
1700.894430522428
 21
518.0405848001421
 31
0.0
 70
    32
  1
20
  3
STANDARD
100
AcDbAlignedDimension
 13
1723.744430522425
 23
527.896332528953
 33
0.0
 14
1723.271225441669
 24
508.1848370713307
 34
0.0
 50
90.0
100
AcDbRotatedDimension
1001
ACAD
1000
DSTYLE
1002
{
1070
   140
1040
3.5
1002
}
  0
DIMENSION
  5
11A
330
2
100
AcDbEntity
  8
M
100
AcDbDimension
  2
*D26
 10
1584.144430522426
 20
527.896332528953
 30
0.0
 11
1581.394430522426
 21
518.0771873405205
 31
0.0
 70
    32
  1
20
  3
STANDARD
100
AcDbAlignedDimension
 13
1603.844430522426
 23
508.2580421520877
 33
0.0
 14
1604.244430522425
 24
527.896332528953
 34
0.0
 50
90.0
100
AcDbRotatedDimension
1001
ACAD
1000
DSTYLE
1002
{
1070
   140
1040
3.5
1002
}
  0
LINE
  5
127
330
2
100
AcDbEntity
  8
0
100
AcDbLine
 10
1718.644430522429
 20
415.5409023474473
 30
0.0
 11
1718.644430522425
 21
604.0603071251687
 31
0.0
  0
LINE
  5
128
330
2
100
AcDbEntity
  8
0
100
AcDbLine
 10
1599.144430522426
 20
604.0603071251687
 30
0.0
 11
1599.144430522426
 21
427.5409023474472
 31
0.0
  0
LINE
  5
129
330
2
100
AcDbEntity
  8
0
100
AcDbLine
 10
1747.144430522429
 20
429.4063325289529
 30
0.0
 11
1747.144430522426
 21
590.194876943663
 31
0.0
  0
LINE
  5
12A
330
2
100
AcDbEntity
  8
0
100
AcDbLine
 10
1627.644430522425
 20
590.194876943663
 30
0.0
 11
1627.64443052243
 21
441.406332528953
 31
0.0
  0
LINE
  5
12B
330
2
100
AcDbEntity
  8
0
100
AcDbLine
 10
1510.144430522426
 20
590.194876943663
 30
0.0
 11
1510.14443052243
 21
447.379446762157
 31
0.0
  0
DIMENSION
  5
12C
330
2
100
AcDbEntity
  8
M
100
AcDbDimension
  2
*D37
 10
1766.644430522426
 20
410.3563325289529
 30
0.0
 11
1763.894430522426
 21
509.983319827061
 31
0.0
 70
    32
  1
H
  3
STANDARD
100
AcDbAlignedDimension
 13
1750.644430522426
 23
609.6103071251686
 33
0.0
 14
1750.64443052243
 24
410.3563325289529
 34
0.0
 50
90.0
100
AcDbRotatedDimension
1001
ACAD
1000
DSTYLE
1002
{
1070
   140
1040
3.5
1002
}
  0
DIMENSION
  5
139
330
2
100
AcDbEntity
  8
M
100
AcDbDimension
  2
*D30
 10
1647.14443052243
 20
422.356332528953
 30
0.0
 11
1644.39443052243
 21
515.9833198270611
 31
0.0
 70
    32
  1
H
  3
STANDARD
100
AcDbAlignedDimension
 13
1631.144430522426
 23
609.6103071251686
 33
0.0
 14
1631.14443052243
 24
422.356332528953
 34
0.0
 50
90.0
100
AcDbRotatedDimension
1001
ACAD
1000
DSTYLE
1002
{
1070
   140
1040
3.5
1002
}
  0
DIMENSION
  5
146
330
2
100
AcDbEntity
  8
M
100
AcDbDimension
  2
*D17
 10
1529.644430522426
 20
428.6948769436628
 30
0.0
 11
1526.894430522426
 21
519.152592034416
 31
0.0
 70
    32
  1
H
  3
STANDARD
100
AcDbAlignedDimension
 13
1513.644430522426
 23
609.6103071251686
 33
0.0
 14
1513.64443052243
 24
428.6948769436628
 34
0.0
 50
90.0
100
AcDbRotatedDimension
1001
ACAD
1000
DSTYLE
1002
{
1070
   140
1040
3.5
1002
}
  0
DIMENSION
  5
153
330
2
100
AcDbEntity
  8
M
100
AcDbDimension
  2
*D34
 10
1703.64443052243
 20
389.4751386591312
 30
0.0
 11
1700.89443052243
 21
399.9157355940424
 31
0.0
 70
    32
  1
21
  3
STANDARD
100
AcDbAlignedDimension
 13
1720.14443052243
 23
410.3563325289529
 33
0.0
 14
1723.44443052243
 24
389.4751386591312
 34
0.0
 50
90.0
100
AcDbRotatedDimension
1001
ACAD
1000
DSTYLE
1002
{
1070
   140
1040
3.5
1002
}
  0
INSERT
  5
160
330
2
100
AcDbEntity
  8
0
100
AcDbBlockReference
  2
P-7021
 10
1626.14443052243
 20
437.0448769436628
 30
0.0
  0
HATCH
  5
161
330
2
100
AcDbEntity
  8
A
100
AcDbHatch
 10
0.0
 20
0.0
 30
0.0
210
0.0
220
0.0
230
1.0
  2
ANSI31
 70
     0
 71
     0
 91
        1
 92
        7
 72
     1
 73
     1
 93
       28
 10
1632.644430522429
 20
427.906332528953
 42
0.0
 10
1627.64443052243
 20
427.906332528953
 42
0.0
 10
1627.64443052243
 20
431.906332528953
 42
0.0
 10
1630.278405118645
 20
431.9063325289527
 42
1.732050807568568
 10
1631.14443052243
 20
433.4063325289529
 42
0.0
 10
1627.64443052243
 20
433.4063325289529
 42
0.0
 10
1627.64443052243
 20
441.406332528953
 42
0.0
 10
1626.144430522428
 20
441.406332528953
 42
0.0
 10
1626.14443052243
 20
437.0448769436628
 42
0.0
 10
1626.14443052243
 20
427.906332528953
 42
0.0
 10
1599.14443052243
 20
427.906332528953
 42
0.0
 10
1599.144430522429
 20
402.906332528953
 42
0.0
 10
1603.886960945317
 20
401.483573402087
 42
0.5023968879033732
 10
1604.144430522429
 20
401.6751386591312
 42
0.0
 10
1604.144430522429
 20
402.9723785052897
 42
0.0
 10
1600.64443052243
 20
404.0223785052896
 42
0.0
 10
1600.64443052243
 20
422.356332528953
 42
0.0
 10
1603.14443052243
 20
422.356332528953
 42
0.0
 10
1603.14443052243
 20
423.856332528953
 42
0.0
 10
1601.144430522429
 20
423.856332528953
 42
0.0
 10
1601.144430522429
 20
425.9063325289529
 42
0.0
 10
1629.14443052243
 20
425.9063325289529
 42
0.0
 10
1629.14443052243
 20
423.856332528953
 42
0.0
 10
1627.14443052243
 20
423.856332528953
 42
0.0
 10
1627.144430522429
 20
422.356332528953
 42
0.0
 10
1631.14443052243
 20
422.356332528953
 42
0.0
 10
1631.14443052243
 20
425.9063325289529
 42
0.0
 10
1632.64443052243
 20
425.9063325289529
 42
0.0
 97
        0
 75
     0
 76
     1
 52
0.0
 41
0.5
 77
     0
 78
     1
 53
45.0
 43
1231.088357731831
 44
278.5048689907163
 45
-1.122532015133643
 46
1.122532015133644
 79
     0
 47
0.0871250369300294
 98
        1
 10
1605.645698237145
 20
426.8813657074717
  0
DIMENSION
  5
162
330
2
100
AcDbEntity
  8
M
100
AcDbDimension
  2
*D29
 10
1632.64443052243
 20
386.1097084776255
 30
0.0
 11
1618.39443052243
 21
388.8597084776256
 31
0.0
 70
    32
  3
STANDARD
100
AcDbAlignedDimension
 13
1604.144430522429
 23
401.6751386591312
 33
0.0
 14
1632.64443052243
 24
425.9063325289529
 34
0.0
100
AcDbRotatedDimension
1001
ACAD
1000
DSTYLE
1002
{
1070
   140
1040
3.5
1002
}
  0
DIMENSION
  5
16F
330
2
100
AcDbEntity
  8
M
100
AcDbDimension
  2
*D28
 10
1599.14443052243
 20
386.1097084776255
 30
0.0
 11
1601.64443052243
 21
388.8597084776256
 31
0.0
 70
    32
  3
STANDARD
100
AcDbAlignedDimension
 13
1604.144430522429
 23
399.3097084776255
 33
0.0
 14
1599.14443052243
 24
402.906332528953
 34
0.0
100
AcDbRotatedDimension
1001
ACAD
1000
DSTYLE
1002
{
1070
   140
1040
3.5
1002
}
  0
DIMENSION
  5
17D
330
2
100
AcDbEntity
  8
M
100
AcDbDimension
  2
*D27
 10
1584.144430522426
 20
401.4751386591313
 30
0.0
 11
1581.394430522426
 21
411.9157355940424
 31
0.0
 70
    32
  1
21
  3
STANDARD
100
AcDbAlignedDimension
 13
1603.14443052243
 23
422.356332528953
 33
0.0
 14
1603.94443052243
 24
401.4751386591313
 34
0.0
 50
90.0
100
AcDbRotatedDimension
1001
ACAD
1000
DSTYLE
1002
{
1070
   140
1040
3.5
1002
}
  0
INSERT
  5
18C
330
2
100
AcDbEntity
  8
0
  6
HIDDEN
100
AcDbBlockReference
  2
P-2012
 10
1624.144430522425
 20
451.8748769436629
 30
0.0
  0
HATCH
  5
18D
330
2
100
AcDbEntity
  8
A
  6
HIDDEN
100
AcDbHatch
 10
0.0
 20
0.0
 30
0.0
210
0.0
220
0.0
230
1.0
  2
ANSI31
 70
     0
 71
     0
 91
        1
 92
        7
 72
     1
 73
     1
 93
       37
 10
1603.844430522426
 20
441.5980421520875
 42
0.2679491924311244
 10
1603.744430522425
 20
441.4248370713306
 42
0.0
 10
1603.744430522425
 20
428.4063325289529
 42
0.577350269189597
 10
1604.494430522426
 20
427.9733198270607
 42
0.0
 10
1606.644430522425
 20
429.2146229058184
 42
0.2679491924309953
 10
1606.744430522425
 20
429.3878279865753
 42
0.0
 10
1606.744430522426
 20
430.3693234441976
 42
0.5773502691898715
 10
1606.444430522426
 20
430.5425285249545
 42
0.0
 10
1605.294430522425
 20
429.8785757153866
 42
-0.5773502691898697
 10
1604.994430522426
 20
430.0517807961433
 42
0.0
 10
1604.994430522426
 20
440.7031492348436
 42
-0.2679491924311083
 10
1605.094430522426
 20
440.8763543156005
 42
0.0
 10
1607.094430522426
 20
442.0310548539798
 42
-0.577350269189753
 10
1607.394430522426
 20
441.8578497732229
 42
0.0
 10
1607.394430522425
 20
440.0103289118161
 42
0.5773502691895196
 10
1607.694430522426
 20
439.8371238310592
 42
0.0
 10
1607.894430522426
 20
439.9525938848977
 42
0.2490694201735129
 10
1609.386917456184
 20
442.3384863285254
 42
-0.2509897368930801
 10
1610.394456326675
 20
443.9362652923759
 42
0.0
 10
1623.144430522425
 20
451.2975222855181
 42
0.0
 10
1623.144430522425
 20
451.2975266744732
 42
0.0
 10
1623.27238356187
 20
451.37140039624
 42
0.2674268670795322
 10
1624.144430522425
 20
452.88523607442
 42
0.0
 10
1624.144430522425
 20
458.3748769436628
 42
0.0
 10
1624.144430522425
 20
463.8598121974268
 42
0.2559241411155972
 10
1623.682892060887
 20
464.7024622858963
 42
-0.2559241411155281
 10
1623.544430522426
 20
464.9552573124371
 42
0.0
 10
1623.544430522426
 20
465.1820522316802
 42
0.5773502691895894
 10
1623.244430522426
 20
465.3552573124372
 42
0.0
 10
1621.244430522426
 20
464.2005567740581
 42
0.2679491924311244
 10
1621.144430522425
 20
464.0273516933012
 42
0.0
 10
1621.144430522425
 20
463.0458562356789
 42
0.5773502691895894
 10
1621.444430522426
 20
462.872651154922
 42
0.0
 10
1622.444430522426
 20
463.4500014241116
 42
-0.5773502691893129
 10
1622.894430522426
 20
463.1901938029763
 42
0.0
 10
1622.894430522426
 20
452.8852399147448
 42
-0.267949192431101
 10
1622.644430522425
 20
452.4522272128526
 42
0.0
 97
        0
 75
     0
 76
     1
 52
90.0
 41
1.0
 77
     0
 78
     1
 53
135.0
 43
1231.088357731831
 44
244.8094388092104
 45
-2.245064030267288
 46
-2.245064030267287
 79
     0
 47
0.1323619609349437
 98
        1
 10
1614.197884139879
 20
447.1210448515185
  0
INSERT
  5
18E
102
{ACAD_REACTORS
330
18F
102
}
330
2
100
AcDbEntity
  8
0
  6
HIDDEN
100
AcDbBlockReference
  2
P-2012
 10
1624.144430522425
 20
485.204876943663
 30
0.0
  0
HATCH
  5
18F
330
2
100
AcDbEntity
  8
A
  6
HIDDEN
100
AcDbHatch
 10
0.0
 20
0.0
 30
0.0
210
0.0
220
0.0
230
1.0
  2
ANSI31
 70
     0
 71
     1
 91
        1
 92
        7
 72
     1
 73
     1
 93
       31
 10
1610.394456326654
 20
477.2662652923638
 42
0.0
 10
1623.144430522425
 20
484.6275222855182
 42
0.0
 10
1623.144430522766
 20
484.6340972444972
 42
0.0196870758727915
 10
1623.266474157076
 20
484.6979885997918
 42
0.0
 10
1623.272383561957
 20
484.7014003962905
 42
0.2674268670640952
 10
1624.144430522425
 20
486.2152360744198
 42
0.0
 10
1624.144430522425
 20
491.7048769436629
 42
0.0
 10
1624.144430522425
 20
497.189812197427
 42
0.2982166266986248
 10
1623.544430522425
 20
498.1063273364181
 42
0.0
 10
1623.544430522425
 20
498.5120522316804
 42
0.5773502691896294
 10
1623.244430522426
 20
498.6852573124374
 42
0.0
 10
1621.244430522426
 20
497.5305567740583
 42
0.267949192431296
 10
1621.144430522425
 20
497.3573516933014
 42
0.0
 10
1621.144430522425
 20
496.3758562356791
 42
0.5773502691894401
 10
1621.444430522426
 20
496.2026511549222
 42
0.0
 10
1622.894430522426
 20
497.0398090452468
 42
0.0
 10
1622.894430522426
 20
485.9265647801501
 42
0.0
 10
1603.844430522425
 20
474.9280421520877
 42
0.2679491924309678
 10
1603.744430522425
 20
474.7548370713309
 42
0.0
 10
1603.744430522425
 20
461.736332528953
 42
0.5773502691897607
 10
1604.494430522426
 20
461.3033198270608
 42
0.0
 10
1606.644430522425
 20
462.5446229058185
 42
0.2679491924309666
 10
1606.744430522425
 20
462.7178279865753
 42
0.0
 10
1606.744430522425
 20
463.6993234441978
 42
0.5773502691895619
 10
1606.444430522425
 20
463.8725285249545
 42
0.0
 10
1604.994430522426
 20
463.0353706346297
 42
0.0
 10
1604.994430522426
 20
474.1486192886819
 42
0.0
 10
1607.394430522425
 20
475.5342599347368
 42
0.0
 10
1607.394430522425
 20
473.3403289118163
 42
0.4501325888490865
 10
1607.618583505207
 20
473.1417926848379
 42
0.2766749932453878
 10
1609.386917456184
 20
475.6684863285255
 42
-0.2509897368897962
 97
        2
330
108
330
18E
 75
     0
 76
     1
 52
90.0
 41
1.0
 77
     0
 78
     1
 53
135.0
 43
1231.088357731831
 44
278.1394388092105
 45
-2.245064030267288
 46
-2.245064030267287
 79
     0
 47
0.1323619609349437
 98
        1
 10
1614.197884139879
 20
480.4510448515186
  0
HATCH
  5
191
330
2
100
AcDbEntity
  8
A
100
AcDbHatch
 10
0.0
 20
0.0
 30
0.0
210
0.0
220
0.0
230
1.0
  2
ANSI31
 70
     0
 71
     0
 91
        1
 92
        7
 72
     1
 73
     1
 93
       45
 10
1723.344430522425
 20
441.5980421520873
 42
0.2679491924310656
 10
1723.244430522425
 20
441.4248370713306
 42
0.0
 10
1723.244430522425
 20
427.7135122059256
 42
0.2679491924310793
 10
1723.394430522425
 20
427.4537045847903
 42
0.0
 10
1724.094430522426
 20
427.0495593963575
 42
-0.2679491924311294
 10
1724.244430522425
 20
426.7897517752224
 42
0.0
 10
1724.244430522425
 20
416.406332528953
 42
0.5773502691896476
 10
1724.994430522425
 20
415.9733198270607
 42
0.0
 10
1727.144430522425
 20
417.214622905818
 42
0.2679491924312942
 10
1727.244430522425
 20
417.387827986575
 42
0.0
 10
1727.244430522425
 20
418.3693234441975
 42
0.5773502691900485
 10
1726.944430522425
 20
418.5425285249547
 42
0.0
 10
1725.794430522425
 20
417.8785757153865
 42
-0.577350269189458
 10
1725.494430522425
 20
418.0517807961432
 42
0.0
 10
1725.494430522425
 20
427.1072944232766
 42
0.2679491924310933
 10
1724.994430522425
 20
427.9733198270608
 42
0.0
 10
1724.644430522426
 20
428.1753924212772
 42
-0.2679491924310668
 10
1724.494430522426
 20
428.4352000424124
 42
0.0
 10
1724.494430522425
 20
440.7031492348436
 42
-0.2679491924311183
 10
1724.594430522425
 20
440.8763543156005
 42
0.0
 10
1726.594430522425
 20
442.0310548539799
 42
-0.577350269189859
 10
1726.894430522426
 20
441.8578497732229
 42
0.0
 10
1726.894430522426
 20
439.9949742432949
 42
0.5773502691900193
 10
1727.194430522426
 20
439.821769162538
 42
0.0
 10
1727.394430522427
 20
439.937239216377
 42
0.2499176206059902
 10
1728.887579902932
 20
442.3326906859706
 42
-0.2499167462797493
 10
1729.883007121866
 20
443.9296550406476
 42
0.0
 10
1742.644430522426
 20
451.2975222855183
 42
0.0
 10
1742.644430522426
 20
451.2975266744733
 42
0.0
 10
1742.772383561963
 20
451.3714003962938
 42
0.2674268670630769
 10
1743.644430522426
 20
452.8852360744198
 42
0.0
 10
1743.644430522426
 20
458.3748769436629
 42
0.0
 10
1743.644430522426
 20
463.8483618046718
 42
0.2559241411155291
 10
1743.182892060887
 20
464.691011893141
 42
-0.2559241411156334
 10
1743.044430522425
 20
464.9438069196818
 42
0.0
 10
1743.044430522425
 20
465.1748769436628
 42
0.5773502691895035
 10
1742.744430522425
 20
465.3480820244197
 42
0.0
 10
1740.744430522426
 20
464.1933814860407
 42
0.2679491924312824
 10
1740.644430522426
 20
464.0201764052838
 42
0.0
 10
1740.644430522426
 20
463.0386809476615
 42
0.5773502691898369
 10
1740.944430522425
 20
462.8654758669045
 42
0.0
 10
1741.944430522426
 20
463.4428261360942
 42
-0.5773502691899921
 10
1742.394430522426
 20
463.1830185149589
 42
0.0
 10
1742.394430522426
 20
452.8852399147446
 42
-0.267949192431074
 10
1742.144430522426
 20
452.4522272128526
 42
0.0
 97
        0
 75
     0
 76
     1
 52
90.0
 41
1.0
 77
     0
 78
     1
 53
135.0
 43
-75.0999999999999
 44
-4.507384834396987
 45
-2.245064030267288
 46
-2.245064030267287
 79
     0
 47
0.1498615155698557
 98
        1
 10
1739.679120706469
 20
450.5878595714231
  0
INSERT
  5
192
330
2
100
AcDbEntity
  8
0
100
AcDbBlockReference
  2
P-2016
 10
1743.644430522426
 20
451.8748769436629
 30
0.0
  0
HATCH
  5
1C1
330
2
100
AcDbEntity
  8
A
100
AcDbHatch
 10
0.0
 20
0.0
 30
0.0
210
0.0
220
0.0
230
1.0
  2
ANSI31
 70
     0
 71
     0
 91
        1
 92
        7
 72
     1
 73
     1
 93
       28
 10
1752.144430522429
 20
415.9063325289529
 42
0.0
 10
1747.144430522429
 20
415.9063325289529
 42
0.0
 10
1747.144430522429
 20
419.9063325289529
 42
0.0
 10
1749.778405118645
 20
419.9063325289527
 42
1.732050807568568
 10
1750.64443052243
 20
421.4063325289528
 42
0.0
 10
1747.144430522429
 20
421.4063325289528
 42
0.0
 10
1747.144430522429
 20
429.4063325289529
 42
0.0
 10
1745.644430522428
 20
429.4063325289529
 42
0.0
 10
1745.644430522429
 20
425.0448769436628
 42
0.0
 10
1745.644430522429
 20
415.9063325289529
 42
0.0
 10
1718.644430522429
 20
415.9063325289528
 42
0.0
 10
1718.644430522429
 20
390.9063325289529
 42
0.0
 10
1723.386960945316
 20
389.483573402087
 42
0.5023968879033732
 10
1723.64443052243
 20
389.6751386591312
 42
0.0
 10
1723.64443052243
 20
390.9723785052896
 42
0.0
 10
1720.14443052243
 20
392.0223785052895
 42
0.0
 10
1720.144430522429
 20
410.3563325289529
 42
0.0
 10
1722.64443052243
 20
410.3563325289528
 42
0.0
 10
1722.64443052243
 20
411.8563325289529
 42
0.0
 10
1720.64443052243
 20
411.8563325289529
 42
0.0
 10
1720.64443052243
 20
413.9063325289529
 42
0.0
 10
1748.644430522429
 20
413.9063325289528
 42
0.0
 10
1748.644430522429
 20
411.8563325289529
 42
0.0
 10
1746.64443052243
 20
411.8563325289529
 42
0.0
 10
1746.644430522429
 20
410.3563325289529
 42
0.0
 10
1750.64443052243
 20
410.3563325289529
 42
0.0
 10
1750.64443052243
 20
413.9063325289529
 42
0.0
 10
1752.14443052243
 20
413.9063325289529
 42
0.0
 97
        0
 75
     0
 76
     1
 52
0.0
 41
0.5
 77
     0
 78
     1
 53
45.0
 43
1350.588357731831
 44
266.5048689907162
 45
-1.122532015133643
 46
1.122532015133644
 79
     0
 47
0.0871250369300294
 98
        1
 10
1725.145698237144
 20
414.8813657074716
  0
INSERT
  5
1C2
330
2
100
AcDbEntity
  8
0
100
AcDbBlockReference
  2
P-7021
 10
1745.644430522429
 20
425.0448769436628
 30
0.0
  0
DIMENSION
  5
1C3
330
2
100
AcDbEntity
  8
M
100
AcDbDimension
  2
*D32
 10
1718.644430522429
 20
374.1097084776256
 30
0.0
 11
1721.14443052243
 21
376.8597084776256
 31
0.0
 70
    32
  3
STANDARD
100
AcDbAlignedDimension
 13
1723.64443052243
 23
387.3097084776256
 33
0.0
 14
1718.644430522429
 24
390.9063325289529
 34
0.0
100
AcDbRotatedDimension
1001
ACAD
1000
DSTYLE
1002
{
1070
   140
1040
3.5
1002
}
  0
DIMENSION
  5
1D1
330
2
100
AcDbEntity
  8
M
100
AcDbDimension
  2
*D31
 10
1752.14443052243
 20
374.1097084776256
 30
0.0
 11
1737.89443052243
 21
376.8597084776256
 31
0.0
 70
    32
  3
STANDARD
100
AcDbAlignedDimension
 13
1723.64443052243
 23
389.6751386591312
 33
0.0
 14
1752.14443052243
 24
413.9063325289529
 34
0.0
100
AcDbRotatedDimension
1001
ACAD
1000
DSTYLE
1002
{
1070
   140
1040
3.5
1002
}
  0
INSERT
  5
1DF
102
{ACAD_REACTORS
330
1E0
102
}
330
2
100
AcDbEntity
  8
0
  6
HIDDEN
100
AcDbBlockReference
  2
P-2012
 10
1743.644430522426
 20
485.204876943663
 30
0.0
  0
HATCH
  5
1E0
330
2
100
AcDbEntity
  8
A
  6
HIDDEN
100
AcDbHatch
 10
0.0
 20
0.0
 30
0.0
210
0.0
220
0.0
230
1.0
  2
ANSI31
 70
     0
 71
     1
 91
        1
 92
        7
 72
     1
 73
     1
 93
       31
 10
1729.894456326654
 20
477.2662652923638
 42
0.0
 10
1742.644430522426
 20
484.6275222855184
 42
0.0
 10
1742.644430522085
 20
484.6340972441742
 42
0.0196870759685382
 10
1742.766474157004
 20
484.6979885997501
 42
0.0
 10
1742.772383561944
 20
484.7014003962828
 42
0.2674268670664703
 10
1743.644430522426
 20
486.2152360744198
 42
0.0
 10
1743.644430522426
 20
491.7048769436629
 42
0.0
 10
1743.644430522426
 20
497.189812197427
 42
0.2982166266986248
 10
1743.044430522425
 20
498.1063273364181
 42
0.0
 10
1743.044430522425
 20
498.5120522316804
 42
0.5773502691896294
 10
1742.744430522425
 20
498.6852573124374
 42
0.0
 10
1740.744430522426
 20
497.5305567740583
 42
0.267949192431296
 10
1740.644430522426
 20
497.3573516933014
 42
0.0
 10
1740.644430522426
 20
496.3758562356791
 42
0.5773502691894401
 10
1740.944430522425
 20
496.2026511549222
 42
0.0
 10
1742.394430522426
 20
497.0398090452468
 42
0.0
 10
1742.394430522426
 20
485.9265647801501
 42
0.0
 10
1723.344430522425
 20
474.9280421520877
 42
0.2679491924309678
 10
1723.244430522425
 20
474.7548370713309
 42
0.0
 10
1723.244430522425
 20
461.736332528953
 42
0.5773502691897607
 10
1723.994430522425
 20
461.3033198270608
 42
0.0
 10
1726.144430522426
 20
462.5446229058185
 42
0.2679491924309666
 10
1726.244430522425
 20
462.7178279865753
 42
0.0
 10
1726.244430522425
 20
463.6993234441978
 42
0.5773502691895619
 10
1725.944430522425
 20
463.8725285249545
 42
0.0
 10
1724.494430522425
 20
463.0353706346297
 42
0.0
 10
1724.494430522425
 20
474.1486192886817
 42
0.0
 10
1726.894430522426
 20
475.5342599347367
 42
0.0
 10
1726.894430522426
 20
473.3403289118163
 42
0.4501325888490865
 10
1727.118583505207
 20
473.1417926848379
 42
0.2766749932453878
 10
1728.886917456184
 20
475.6684863285255
 42
-0.2509897368897962
 97
        2
330
103
330
1DF
 75
     0
 76
     1
 52
90.0
 41
1.0
 77
     0
 78
     1
 53
135.0
 43
1350.588357731831
 44
278.1394388092105
 45
-2.245064030267288
 46
-2.245064030267287
 79
     0
 47
0.1323619609349437
 98
        1
 10
1733.697884139879
 20
480.4510448515186
  0
DIMENSION
  5
1E3
330
2
100
AcDbEntity
  8
M
100
AcDbDimension
  2
*D36
 10
1703.644430522427
 20
527.896332528953
 30
0.0
 11
1700.561097189093
 21
544.5613325289533
 31
0.0
 70
    32
  1
33,5
  3
STANDARD
100
AcDbAlignedDimension
 13
1723.744430522425
 23
561.2263325289531
 33
0.0
 14
1723.744430522425
 24
527.896332528953
 34
0.0
 50
90.0
100
AcDbRotatedDimension
1001
ACAD
1000
DSTYLE
1002
{
1070
   140
1040
3.5
1002
}
  0
DIMENSION
  5
1F0
330
2
100
AcDbEntity
  8
M
100
AcDbDimension
  2
*D35
 10
1703.644430522426
 20
604.0603071251687
 30
0.0
 11
1700.561097189092
 21
617.2561333529088
 31
0.0
 70
    32
  1
26,5
  3
STANDARD
100
AcDbAlignedDimension
 13
1723.563816628354
 23
630.4519595806485
 33
0.0
 14
1718.644430522425
 24
604.0603071251687
 34
0.0
 50
90.0
100
AcDbRotatedDimension
1001
ACAD
1000
DSTYLE
1002
{
1070
   140
1040
3.5
1002
}
  0
DIMENSION
  5
1FD
330
2
100
AcDbEntity
  8
M
100
AcDbDimension
  2
*D23
 10
1584.144430522426
 20
604.0603071251687
 30
0.0
 11
1581.061097189092
 21
617.2759040600798
 31
0.0
 70
    32
  1
26,5
  3
STANDARD
100
AcDbAlignedDimension
 13
1603.944430522426
 23
630.4915009949905
 33
0.0
 14
1599.144430522426
 24
604.0603071251687
 34
0.0
 50
90.0
100
AcDbRotatedDimension
1001
ACAD
1000
DSTYLE
1002
{
1070
   140
1040
3.5
1002
}
  0
INSERT
  5
20A
102
{ACAD_REACTORS
330
20B
102
}
330
2
100
AcDbEntity
  8
0
100
AcDbBlockReference
  2
P-7021
 10
1626.144430522426
 20
594.921762710459
 30
0.0
 41
-1.0
 50
180.0
  0
HATCH
  5
20B
330
2
100
AcDbEntity
  8
A
100
AcDbHatch
 10
0.0
 20
0.0
 30
0.0
210
0.0
220
0.0
230
1.0
  2
ANSI31
 70
     0
 71
     1
 91
        1
 92
        7
 72
     1
 73
     1
 93
       27
 10
1603.144430522426
 20
608.1103071251689
 42
0.0
 10
1603.144430522426
 20
609.610307125169
 42
0.0
 10
1600.644430522426
 20
609.6103071251689
 42
0.0
 10
1600.644430522426
 20
627.9442611488323
 42
0.0
 10
1604.144430522426
 20
628.9942611488323
 42
0.0
 10
1604.144430522426
 20
630.2915009949906
 42
0.5023968879039491
 10
1603.886960945312
 20
630.4830662520348
 42
0.0
 10
1599.144430522426
 20
629.0603071251688
 42
0.0
 10
1599.144430522426
 20
604.0603071251689
 42
0.0
 10
1626.144430522426
 20
604.0603071251689
 42
0.0
 10
1626.144430522426
 20
590.5603071251689
 42
0.0
 10
1627.644430522425
 20
590.5603071251689
 42
0.0
 10
1627.644430522425
 20
598.5603071251689
 42
0.0
 10
1631.144430522426
 20
598.5603071251688
 42
1.732050807568796
 10
1630.278405118641
 20
600.060307125169
 42
0.0
 10
1627.644430522425
 20
600.0603071251689
 42
0.0
 10
1627.644430522425
 20
604.0603071251689
 42
0.0
 10
1632.644430522426
 20
604.0603071251689
 42
0.0
 10
1632.644430522426
 20
606.0603071251689
 42
0.0
 10
1631.144430522426
 20
606.0603071251689
 42
0.0
 10
1631.144430522426
 20
609.6103071251688
 42
0.0
 10
1627.144430522426
 20
609.6103071251689
 42
0.0
 10
1627.144430522426
 20
608.1103071251689
 42
0.0
 10
1629.144430522426
 20
608.1103071251689
 42
0.0
 10
1629.144430522426
 20
606.0603071251689
 42
0.0
 10
1601.144430522426
 20
606.0603071251689
 42
0.0
 10
1601.144430522426
 20
608.110307125169
 42
0.0
 97
        1
330
20A
 75
     0
 76
     1
 52
0.0
 41
0.5
 77
     0
 78
     1
 53
45.0
 43
1231.088357731831
 44
278.5048689907163
 45
-1.122532015133643
 46
1.122532015133644
 79
     0
 47
0.0899301979996614
 98
        1
 10
1600.029911776892
 20
619.6964213175106
  0
DIMENSION
  5
20C
330
2
100
AcDbEntity
  8
M
100
AcDbDimension
  2
*D24
 10
1632.644430522426
 20
645.1260708134848
 30
0.0
 11
1615.894430522426
 21
645.1260708134848
 31
0.0
 70
   160
  3
STANDARD
100
AcDbAlignedDimension
 13
1599.144430522426
 23
629.0603071251687
 33
0.0
 14
1632.644430522426
 24
606.0603071251687
 34
0.0
100
AcDbRotatedDimension
1001
ACAD
1000
DSTYLE
1002
{
1070
   140
1040
3.5
1002
}
  0
HATCH
  5
219
330
2
100
AcDbEntity
  8
A
100
AcDbHatch
 10
0.0
 20
0.0
 30
0.0
210
0.0
220
0.0
230
1.0
  2
ANSI31
 70
     0
 71
     0
 91
        1
 92
        7
 72
     1
 73
     1
 93
       35
 10
1624.144430522425
 20
598.7603071251688
 42
0.3589444010551991
 10
1623.901769515661
 20
599.0547765460851
 42
0.0
 10
1622.990857594037
 20
598.5288613029281
 42
0.0
 10
1621.116503453331
 20
597.2164244043308
 42
-0.6068148963145296
 10
1620.644430522426
 20
597.4621700176176
 42
0.0
 10
1620.644430522426
 20
602.3103071251687
 42
0.4142135623730951
 10
1619.394430522426
 20
603.5603071251687
 42
0.0
 10
1605.294430522425
 20
603.5603071251687
 42
-0.2518068897010091
 10
1605.044164953385
 20
603.694876943663
 42
0.0
 10
1603.744430522425
 20
603.694876943663
 42
0.0
 10
1603.744430522425
 20
594.1903071251688
 42
0.0
 10
1606.744430522425
 20
595.9223579327376
 42
0.0
 10
1606.744430522425
 20
597.3657336057117
 42
0.0
 10
1604.994430522426
 20
596.3553706346299
 42
0.0
 10
1604.994430522426
 20
602.0103071251687
 42
-0.4142135623730959
 10
1605.294430522425
 20
602.3103071251687
 42
0.0
 10
1619.094430522426
 20
602.3103071251687
 42
-0.4142135623730951
 10
1619.394430522426
 20
602.0103071251687
 42
0.0
 10
1619.394430522426
 20
596.8858753795261
 42
0.6068148963145508
 10
1621.361401067864
 20
595.8619353241649
 42
0.0
 10
1622.894430522426
 20
596.9353741045461
 42
0.0
 10
1622.894430522426
 20
585.9165647801501
 42
0.0
 10
1603.744430522425
 20
574.8603071251686
 42
0.0
 10
1603.744430522425
 20
560.8603071251686
 42
0.0
 10
1606.744430522425
 20
562.5923579327375
 42
0.0
 10
1606.744430522426
 20
564.0357336057117
 42
0.0
 10
1604.994430522426
 20
563.0253706346297
 42
0.0
 10
1604.994430522426
 20
574.1386192886816
 42
0.0
 10
1607.394430522425
 20
575.5242599347368
 42
0.0
 10
1607.394430522425
 20
573.3303289118161
 42
0.5773502691896115
 10
1607.694430522426
 20
573.1571238310594
 42
0.0
 10
1607.906952299495
 20
573.2798233362586
 42
0.2490694201736009
 10
1609.399439233254
 20
575.665715779887
 42
-0.2490694201735577
 10
1610.394430522426
 20
577.2563107423057
 42
0.0
 10
1624.144430522425
 20
585.1948769436631
 42
0.0
 97
        0
 75
     0
 76
     1
 52
90.0
 41
1.0
 77
     0
 78
     1
 53
135.0
 43
1073.588357731831
 44
278.1394388092105
 45
-2.245064030267288
 46
-2.245064030267287
 79
     0
 47
0.1483351801478254
 98
        1
 10
1623.40489133156
 20
588.5927326120834
  0
INSERT
  5
21A
330
2
100
AcDbEntity
  8
0
  6
HIDDEN
100
AcDbBlockReference
  2
P-2045
 10
1624.144430522425
 20
585.1948769436631
 30
0.0
  0
INSERT
  5
21B
102
{ACAD_REACTORS
330
21C
102
}
330
2
100
AcDbEntity
  8
0
  6
HIDDEN
100
AcDbBlockReference
  2
P-2012
 10
1624.144430522425
 20
551.8648769436629
 30
0.0
  0
HATCH
  5
21C
330
2
100
AcDbEntity
  8
A
  6
HIDDEN
100
AcDbHatch
 10
0.0
 20
0.0
 30
0.0
210
0.0
220
0.0
230
1.0
  2
ANSI31
 70
     0
 71
     1
 91
        1
 92
        7
 72
     1
 73
     1
 93
       31
 10
1610.39445632666
 20
543.926265292367
 42
0.0
 10
1623.144430522425
 20
551.2875222855179
 42
0.0
 10
1623.144430522766
 20
551.2940972444969
 42
0.0196870758615541
 10
1623.266474157008
 20
551.3579885997525
 42
0.0
 10
1623.272383562086
 20
551.3614003963652
 42
0.2674268670411918
 10
1624.144430522425
 20
552.8752360744195
 42
0.0
 10
1624.144430522425
 20
558.364876943663
 42
0.0
 10
1624.144430522425
 20
563.8498121974269
 42
0.2982166266986557
 10
1623.544430522425
 20
564.7663273364181
 42
0.0
 10
1623.544430522425
 20
565.1720522316802
 42
0.5773502691897337
 10
1623.244430522426
 20
565.3452573124373
 42
0.0
 10
1621.244430522426
 20
564.1905567740582
 42
0.2679491924309678
 10
1621.144430522425
 20
564.0173516933014
 42
0.0
 10
1621.144430522425
 20
563.0358562356788
 42
0.5773502691893551
 10
1621.444430522426
 20
562.8626511549221
 42
0.0
 10
1622.894430522426
 20
563.6998090452468
 42
0.0
 10
1622.894430522426
 20
552.58656478015
 42
0.0
 10
1603.844430522425
 20
541.5880421520876
 42
0.2679491924309678
 10
1603.744430522425
 20
541.4148370713308
 42
0.0
 10
1603.744430522425
 20
528.3963325289529
 42
0.5773502691896947
 10
1604.494430522426
 20
527.9633198270608
 42
0.0
 10
1606.644430522425
 20
529.2046229058183
 42
0.2679491924313099
 10
1606.744430522425
 20
529.3778279865753
 42
0.0
 10
1606.744430522425
 20
530.3593234441975
 42
0.5773502691903322
 10
1606.444430522425
 20
530.5325285249543
 42
0.0
 10
1604.994430522426
 20
529.6953706346296
 42
0.0
 10
1604.994430522426
 20
540.8086192886818
 42
0.0
 10
1607.394430522425
 20
542.1942599347367
 42
0.0
 10
1607.394430522425
 20
540.000328911816
 42
0.4501325888487861
 10
1607.618583505207
 20
539.8017926848377
 42
0.2766749932454098
 10
1609.386917456184
 20
542.3284863285253
 42
-0.2509897368906992
 97
        2
330
108
330
21B
 75
     0
 76
     1
 52
90.0
 41
1.0
 77
     0
 78
     1
 53
135.0
 43
1231.088357731831
 44
278.1394388092105
 45
-2.245064030267288
 46
-2.245064030267287
 79
     0
 47
0.1081528723448515
 98
        1
 10
1615.085362329081
 20
547.2975989172336
  0
DIMENSION
  5
21D
330
2
100
AcDbEntity
  8
M
100
AcDbDimension
  2
*D25
 10
1584.144430522426
 20
527.896332528953
 30
0.0
 11
1581.061097189092
 21
544.5613325289533
 31
0.0
 70
    32
  1
33,5
  3
STANDARD
100
AcDbAlignedDimension
 13
1604.244430522425
 23
561.2263325289531
 33
0.0
 14
1604.244430522425
 24
527.896332528953
 34
0.0
 50
90.0
100
AcDbRotatedDimension
1001
ACAD
1000
DSTYLE
1002
{
1070
   140
1040
3.5
1002
}
  0
DIMENSION
  5
22F
330
2
100
AcDbEntity
  8
M
100
AcDbDimension
  2
*D38
 10
1752.144430522426
 20
645.1260708134848
 30
0.0
 11
1735.394430522426
 21
645.1260708134848
 31
0.0
 70
   160
  3
STANDARD
100
AcDbAlignedDimension
 13
1718.644430522425
 23
629.0603071251687
 33
0.0
 14
1752.144430522426
 24
606.0603071251687
 34
0.0
100
AcDbRotatedDimension
1001
ACAD
1000
DSTYLE
1002
{
1070
   140
1040
3.5
1002
}
  0
INSERT
  5
23C
102
{ACAD_REACTORS
330
23D
102
}
330
2
100
AcDbEntity
  8
0
100
AcDbBlockReference
  2
P-7021
 10
1745.644430522426
 20
594.921762710459
 30
0.0
 41
-1.0
 50
180.0
  0
HATCH
  5
23D
330
2
100
AcDbEntity
  8
A
100
AcDbHatch
 10
0.0
 20
0.0
 30
0.0
210
0.0
220
0.0
230
1.0
  2
ANSI31
 70
     0
 71
     1
 91
        1
 92
        7
 72
     1
 73
     1
 93
       27
 10
1722.644430522426
 20
608.1103071251689
 42
0.0
 10
1722.644430522426
 20
609.610307125169
 42
0.0
 10
1720.144430522426
 20
609.610307125169
 42
0.0
 10
1720.144430522426
 20
627.9442611488323
 42
0.0
 10
1723.644430522426
 20
628.9942611488323
 42
0.0
 10
1723.644430522426
 20
630.2915009949906
 42
0.5023968879039491
 10
1723.386960945312
 20
630.4830662520348
 42
0.0
 10
1718.644430522425
 20
629.0603071251688
 42
0.0
 10
1718.644430522426
 20
604.0603071251689
 42
0.0
 10
1745.644430522426
 20
604.0603071251689
 42
0.0
 10
1745.644430522426
 20
590.5603071251689
 42
0.0
 10
1747.144430522426
 20
590.5603071251689
 42
0.0
 10
1747.144430522426
 20
598.5603071251689
 42
0.0
 10
1750.644430522426
 20
598.5603071251688
 42
1.732050807568796
 10
1749.778405118641
 20
600.060307125169
 42
0.0
 10
1747.144430522426
 20
600.0603071251689
 42
0.0
 10
1747.144430522426
 20
604.0603071251689
 42
0.0
 10
1752.144430522426
 20
604.0603071251689
 42
0.0
 10
1752.144430522426
 20
606.0603071251689
 42
0.0
 10
1750.644430522426
 20
606.0603071251689
 42
0.0
 10
1750.644430522426
 20
609.6103071251688
 42
0.0
 10
1746.644430522426
 20
609.610307125169
 42
0.0
 10
1746.644430522425
 20
608.1103071251689
 42
0.0
 10
1748.644430522426
 20
608.1103071251689
 42
0.0
 10
1748.644430522426
 20
606.0603071251689
 42
0.0
 10
1720.644430522426
 20
606.0603071251689
 42
0.0
 10
1720.644430522426
 20
608.110307125169
 42
0.0
 97
        1
330
23C
 75
     0
 76
     1
 52
0.0
 41
0.5
 77
     0
 78
     1
 53
45.0
 43
1350.588357731831
 44
278.5048689907163
 45
-1.122532015133643
 46
1.122532015133644
 79
     0
 47
0.0899301979996614
 98
        1
 10
1719.529911776892
 20
619.6964213175106
  0
HATCH
  5
23E
330
2
100
AcDbEntity
  8
A
100
AcDbHatch
 10
0.0
 20
0.0
 30
0.0
210
0.0
220
0.0
230
1.0
  2
ANSI31
 70
     0
 71
     0
 91
        1
 92
        7
 72
     1
 73
     1
 93
       35
 10
1743.644430522426
 20
585.1948769436631
 42
0.0
 10
1743.644430522426
 20
598.7603071251688
 42
0.3589444010551991
 10
1743.40176951566
 20
599.0547765460851
 42
0.0
 10
1742.490857594038
 20
598.5288613029283
 42
0.0
 10
1740.616503453331
 20
597.2164244043308
 42
-0.6068148963145296
 10
1740.144430522426
 20
597.4621700176176
 42
0.0
 10
1740.144430522426
 20
602.3103071251687
 42
0.4142135623730951
 10
1738.894430522426
 20
603.5603071251687
 42
0.0
 10
1724.794430522425
 20
603.5603071251687
 42
-0.2518068897010091
 10
1724.544164953385
 20
603.694876943663
 42
0.0
 10
1723.244430522425
 20
603.694876943663
 42
0.0
 10
1723.244430522426
 20
594.1903071251688
 42
0.0
 10
1726.244430522426
 20
595.9223579327376
 42
0.0
 10
1726.244430522425
 20
597.3657336057117
 42
0.0
 10
1724.494430522425
 20
596.3553706346299
 42
0.0
 10
1724.494430522425
 20
602.0103071251687
 42
-0.4142135623730959
 10
1724.794430522425
 20
602.3103071251687
 42
0.0
 10
1738.594430522426
 20
602.3103071251687
 42
-0.4142135623730951
 10
1738.894430522426
 20
602.0103071251687
 42
0.0
 10
1738.894430522426
 20
596.8858753795261
 42
0.6068148963145508
 10
1740.861401067864
 20
595.8619353241649
 42
0.0
 10
1742.394430522426
 20
596.9353741045461
 42
0.0
 10
1742.394430522426
 20
585.9165647801501
 42
0.0
 10
1723.244430522425
 20
574.8603071251689
 42
0.0
 10
1723.244430522425
 20
560.8603071251686
 42
0.0
 10
1726.244430522425
 20
562.5923579327375
 42
0.0
 10
1726.244430522426
 20
564.0357336057117
 42
0.0
 10
1724.494430522425
 20
563.02537063463
 42
0.0
 10
1724.494430522426
 20
574.1386192886816
 42
0.0
 10
1726.894430522426
 20
575.5242599347368
 42
0.0
 10
1726.894430522426
 20
573.3303289118161
 42
0.5773502691896115
 10
1727.194430522426
 20
573.1571238310594
 42
0.0
 10
1727.406952299495
 20
573.2798233362586
 42
0.2490694201736009
 10
1728.899439233253
 20
575.665715779887
 42
-0.2490694201735577
 10
1729.894430522426
 20
577.2563107423057
 42
0.0
 97
        0
 75
     0
 76
     1
 52
90.0
 41
1.0
 77
     0
 78
     1
 53
135.0
 43
1033.588357731831
 44
278.1394388092105
 45
-2.245064030267288
 46
-2.245064030267287
 79
     0
 47
0.1483351818293461
 98
        1
 10
1735.015408245266
 20
581.1759740587028
  0
INSERT
  5
23F
330
2
100
AcDbEntity
  8
0
  6
HIDDEN
100
AcDbBlockReference
  2
P-2045
 10
1743.644430522426
 20
585.1948769436631
 30
0.0
  0
INSERT
  5
241
102
{ACAD_REACTORS
330
242
102
}
330
2
100
AcDbEntity
  8
0
  6
HIDDEN
100
AcDbBlockReference
  2
P-2012
 10
1743.644430522426
 20
551.8648769436629
 30
0.0
  0
HATCH
  5
242
330
2
100
AcDbEntity
  8
A
  6
HIDDEN
100
AcDbHatch
 10
0.0
 20
0.0
 30
0.0
210
0.0
220
0.0
230
1.0
  2
ANSI31
 70
     0
 71
     1
 91
        1
 92
        7
 72
     1
 73
     1
 93
       31
 10
1729.89445632666
 20
543.926265292367
 42
0.0
 10
1742.644430522426
 20
551.287522285518
 42
0.0
 10
1742.644430522085
 20
551.2940972441739
 42
0.0196870759537054
 10
1742.766474156914
 20
551.3579885996981
 42
0.0
 10
1742.772383562089
 20
551.3614003963664
 42
0.26742686704082
 10
1743.644430522426
 20
552.8752360744193
 42
0.0
 10
1743.644430522426
 20
558.364876943663
 42
0.0
 10
1743.644430522426
 20
563.8498121974269
 42
0.2982166266986557
 10
1743.044430522425
 20
564.7663273364181
 42
0.0
 10
1743.044430522425
 20
565.1720522316802
 42
0.5773502691897337
 10
1742.744430522425
 20
565.3452573124373
 42
0.0
 10
1740.744430522425
 20
564.1905567740582
 42
0.2679491924309678
 10
1740.644430522426
 20
564.0173516933014
 42
0.0
 10
1740.644430522426
 20
563.0358562356788
 42
0.5773502691893551
 10
1740.944430522425
 20
562.8626511549221
 42
0.0
 10
1742.394430522426
 20
563.6998090452468
 42
0.0
 10
1742.394430522426
 20
552.5865647801501
 42
0.0
 10
1723.344430522425
 20
541.5880421520876
 42
0.2679491924309678
 10
1723.244430522425
 20
541.4148370713308
 42
0.0
 10
1723.244430522425
 20
528.3963325289529
 42
0.5773502691896947
 10
1723.994430522425
 20
527.9633198270608
 42
0.0
 10
1726.144430522425
 20
529.2046229058183
 42
0.2679491924313099
 10
1726.244430522425
 20
529.3778279865753
 42
0.0
 10
1726.244430522425
 20
530.3593234441975
 42
0.5773502691903322
 10
1725.944430522425
 20
530.5325285249543
 42
0.0
 10
1724.494430522426
 20
529.6953706346295
 42
0.0
 10
1724.494430522426
 20
540.8086192886817
 42
0.0
 10
1726.894430522426
 20
542.1942599347367
 42
0.0
 10
1726.894430522426
 20
540.000328911816
 42
0.4501325888487861
 10
1727.118583505206
 20
539.8017926848377
 42
0.2766749932454098
 10
1728.886917456184
 20
542.3284863285253
 42
-0.2509897368906992
 97
        2
330
103
330
241
 75
     0
 76
     1
 52
90.0
 41
1.0
 77
     0
 78
     1
 53
135.0
 43
1350.588357731831
 44
278.1394388092105
 45
-2.245064030267288
 46
-2.245064030267287
 79
     0
 47
0.1081528723448515
 98
        1
 10
1734.585362329081
 20
547.2975989172336
  0
DIMENSION
  5
394
330
2
100
AcDbEntity
  8
M
100
AcDbDimension
  2
*D8
 10
1887.389904810458
 20
411.3281940539568
 30
0.0
 11
1884.639904810458
 21
510.4692505895631
 31
0.0
 70
    32
  1
H
  3
STANDARD
100
AcDbAlignedDimension
 13
1871.389904810454
 23
609.6103071251686
 33
0.0
 14
1871.389904810461
 24
411.3281940539568
 34
0.0
 50
90.0
100
AcDbRotatedDimension
1001
ACAD
1000
DSTYLE
1002
{
1070
   140
1040
3.5
1002
}
  0
LINE
  5
395
330
2
100
AcDbEntity
  8
0
100
AcDbLine
 10
1867.889904810454
 20
590.194876943663
 30
0.0
 11
1867.889904810458
 21
441.406332528953
 31
0.0
  0
LINE
  5
396
330
2
100
AcDbEntity
  8
0
100
AcDbLine
 10
1839.389904810454
 20
604.0603071251687
 30
0.0
 11
1839.389904810461
 21
416.6108842520655
 31
0.0
  0
DIMENSION
  5
397
330
2
100
AcDbEntity
  8
M
100
AcDbDimension
  2
*D7
 10
1824.389904810455
 20
527.896332528953
 30
0.0
 11
1821.639904810454
 21
518.0771873405206
 31
0.0
 70
    32
  1
20
  3
STANDARD
100
AcDbAlignedDimension
 13
1844.089904810454
 23
508.2580421520877
 33
0.0
 14
1844.489904810454
 24
527.896332528953
 34
0.0
 50
90.0
100
AcDbRotatedDimension
1001
ACAD
1000
DSTYLE
1002
{
1070
   140
1040
3.5
1002
}
  0
LINE
  5
398
330
2
100
AcDbEntity
  8
GAAS
  6
HIDDEN
100
AcDbLine
 10
1872.389904810455
 20
599.5603071251689
 30
0.0
 11
1872.389904810458
 21
458.9108842513641
 31
0.0
  0
INSERT
  5
399
102
{ACAD_REACTORS
330
3A2
330
39A
330
3AC
102
}
330
2
100
AcDbEntity
  8
0
  6
HIDDEN
100
AcDbBlockReference
  2
P-4061
 10
1866.389904810454
 20
603.694876943663
 30
0.0
  0
HATCH
  5
39A
330
2
100
AcDbEntity
  8
A
  6
HIDDEN
100
AcDbHatch
 10
0.0
 20
0.0
 30
0.0
210
0.0
220
0.0
230
1.0
  2
ANSI31
 70
     0
 71
     1
 91
        1
 92
        7
 72
     1
 73
     1
 93
       31
 10
1850.639930614683
 20
510.5962652923637
 42
0.0
 10
1863.389904810454
 20
517.9575222855183
 42
0.0
 10
1863.389904810454
 20
517.9640972443354
 42
0.0196870759081864
 10
1863.511948444993
 20
518.0279885997272
 42
0.0
 10
1863.517857850059
 20
518.0314003963326
 42
0.2674268670512134
 10
1864.389904810454
 20
519.5452360744196
 42
0.0
 10
1864.389904810454
 20
525.0348769436629
 42
0.0
 10
1864.389904810454
 20
530.5198121974269
 42
0.2982166266986557
 10
1863.789904810454
 20
531.4363273364182
 42
0.0
 10
1863.789904810454
 20
531.8420522316803
 42
0.5773502691897337
 10
1863.489904810454
 20
532.0152573124373
 42
0.0
 10
1861.489904810454
 20
530.8605567740583
 42
0.2679491924309678
 10
1861.389904810454
 20
530.6873516933015
 42
0.0
 10
1861.389904810454
 20
529.705856235679
 42
0.5773502691893551
 10
1861.689904810454
 20
529.5326511549221
 42
0.0
 10
1863.139904810454
 20
530.3698090452468
 42
0.0
 10
1863.139904810454
 20
519.2565647801502
 42
0.0
 10
1844.089904810454
 20
508.2580421520876
 42
0.2679491924309678
 10
1843.989904810454
 20
508.0848370713308
 42
0.0
 10
1843.989904810454
 20
495.066332528953
 42
0.5773502691897705
 10
1844.739904810454
 20
494.6333198270608
 42
0.0
 10
1846.889904810454
 20
495.8746229058183
 42
0.2679491924313099
 10
1846.989904810454
 20
496.0478279865753
 42
0.0
 10
1846.989904810454
 20
497.0293234441976
 42
0.5773502691895807
 10
1846.689904810454
 20
497.2025285249545
 42
0.0
 10
1845.239904810454
 20
496.3653706346295
 42
0.0
 10
1845.239904810454
 20
507.4786192886817
 42
0.0
 10
1847.639904810454
 20
508.8642599347367
 42
0.0
 10
1847.639904810454
 20
506.6703289118162
 42
0.4501325888490865
 10
1847.864057793236
 20
506.4717926848379
 42
0.2766749932453872
 10
1849.632391744213
 20
508.9984863285255
 42
-0.2509897368898035
 97
        2
330
399
330
39B
 75
     0
 76
     1
 52
90.0
 41
1.0
 77
     0
 78
     1
 53
135.0
 43
1471.333832019859
 44
278.1394388092105
 45
-2.245064030267288
 46
-2.245064030267287
 79
     0
 47
0.1323619609349437
 98
        1
 10
1855.767846658479
 20
514.6923993881109
  0
INSERT
  5
39B
102
{ACAD_REACTORS
330
39A
102
}
330
2
100
AcDbEntity
  8
0
  6
HIDDEN
100
AcDbBlockReference
  2
P-2012
 10
1864.389904810454
 20
518.534876943663
 30
0.0
  0
DIMENSION
  5
39C
330
2
100
AcDbEntity
  8
M
100
AcDbDimension
  2
*D9
 10
1872.889904810461
 20
374.8142602007381
 30
0.0
 11
1858.639904810461
 21
377.5642602007381
 31
0.0
 70
    32
  3
STANDARD
100
AcDbAlignedDimension
 13
1844.389904810461
 23
390.3796903822438
 33
0.0
 14
1872.889904810461
 24
414.6108842520655
 34
0.0
100
AcDbRotatedDimension
1001
ACAD
1000
DSTYLE
1002
{
1070
   140
1040
3.5
1002
}
  0
HATCH
  5
39D
330
2
100
AcDbEntity
  8
A
100
AcDbHatch
 10
0.0
 20
0.0
 30
0.0
210
0.0
220
0.0
230
1.0
  2
ANSI31
 70
     0
 71
     0
 91
        1
 92
        7
 72
     1
 73
     1
 93
       28
 10
1872.889904810461
 20
416.6108842520655
 42
0.0
 10
1867.889904810461
 20
416.6108842520655
 42
0.0
 10
1867.889904810461
 20
420.6108842520655
 42
0.0
 10
1870.523879406676
 20
420.6108842520653
 42
1.732050807568568
 10
1871.389904810461
 20
422.1108842520655
 42
0.0
 10
1867.889904810461
 20
422.1108842520655
 42
0.0
 10
1867.889904810461
 20
430.1108842520655
 42
0.0
 10
1866.38990481046
 20
430.1108842520655
 42
0.0
 10
1866.389904810461
 20
425.7494286667754
 42
0.0
 10
1866.389904810461
 20
416.6108842520655
 42
0.0
 10
1839.389904810461
 20
416.6108842520655
 42
0.0
 10
1839.389904810461
 20
391.6108842520655
 42
0.0
 10
1844.132435233348
 20
390.1881251251996
 42
0.5023968879033732
 10
1844.389904810461
 20
390.3796903822438
 42
0.0
 10
1844.389904810461
 20
391.6769302284022
 42
0.0
 10
1840.889904810461
 20
392.7269302284021
 42
0.0
 10
1840.889904810461
 20
411.0608842520655
 42
0.0
 10
1843.389904810461
 20
411.0608842520655
 42
0.0
 10
1843.389904810461
 20
412.5608842520655
 42
0.0
 10
1841.389904810461
 20
412.5608842520655
 42
0.0
 10
1841.389904810461
 20
414.6108842520655
 42
0.0
 10
1869.389904810461
 20
414.6108842520655
 42
0.0
 10
1869.389904810461
 20
412.5608842520655
 42
0.0
 10
1867.389904810461
 20
412.5608842520655
 42
0.0
 10
1867.389904810461
 20
411.0608842520655
 42
0.0
 10
1871.389904810461
 20
411.0608842520655
 42
0.0
 10
1871.389904810461
 20
414.6108842520655
 42
0.0
 10
1872.889904810461
 20
414.6108842520655
 42
0.0
 97
        0
 75
     0
 76
     1
 52
0.0
 41
0.5
 77
     0
 78
     1
 53
45.0
 43
1471.333832019862
 44
267.2094207138288
 45
-1.122532015133643
 46
1.122532015133644
 79
     0
 47
0.0871250369300294
 98
        1
 10
1845.891172525176
 20
415.5859174305842
  0
INSERT
  5
39E
330
2
100
AcDbEntity
  8
0
100
AcDbBlockReference
  2
P-7021
 10
1866.389904810461
 20
425.7494286667754
 30
0.0
  0
DIMENSION
  5
39F
330
2
100
AcDbEntity
  8
M
100
AcDbDimension
  2
*D10
 10
1839.389904810461
 20
374.8142602007381
 30
0.0
 11
1841.889904810461
 21
377.5642602007381
 31
0.0
 70
    32
  3
STANDARD
100
AcDbAlignedDimension
 13
1844.389904810461
 23
388.0142602007381
 33
0.0
 14
1839.389904810461
 24
391.6108842520655
 34
0.0
100
AcDbRotatedDimension
1001
ACAD
1000
DSTYLE
1002
{
1070
   140
1040
3.5
1002
}
  0
DIMENSION
  5
3A0
330
2
100
AcDbEntity
  8
M
100
AcDbDimension
  2
*D11
 10
1824.389904810457
 20
390.1796903822439
 30
0.0
 11
1821.639904810457
 21
400.620287317155
 31
0.0
 70
    32
  1
21
  3
STANDARD
100
AcDbAlignedDimension
 13
1843.389904810461
 23
411.0608842520655
 33
0.0
 14
1844.189904810461
 24
390.1796903822439
 34
0.0
 50
90.0
100
AcDbRotatedDimension
1001
ACAD
1000
DSTYLE
1002
{
1070
   140
1040
3.5
1002
}
  0
HATCH
  5
3A2
330
2
100
AcDbEntity
  8
A
  6
HIDDEN
100
AcDbHatch
 10
0.0
 20
0.0
 30
0.0
210
0.0
220
0.0
230
1.0
  2
ANSI31
 70
     0
 71
     1
 91
        1
 92
        7
 72
     1
 73
     1
 93
       31
 10
1850.639930614683
 20
477.2662652923638
 42
0.0
 10
1863.389904810454
 20
484.6275222855183
 42
0.0
 10
1863.389904810454
 20
484.6340972443357
 42
0.0196870759266334
 10
1863.511948445105
 20
484.6979885997919
 42
0.0
 10
1863.517857850007
 20
484.7014003963031
 42
0.2674268670602676
 10
1864.389904810454
 20
486.2152360744198
 42
0.0
 10
1864.389904810454
 20
491.7048769436629
 42
0.0
 10
1864.389904810454
 20
497.189812197427
 42
0.2982166266986248
 10
1863.789904810454
 20
498.1063273364181
 42
0.0
 10
1863.789904810454
 20
498.5120522316804
 42
0.5773502691896294
 10
1863.489904810454
 20
498.6852573124374
 42
0.0
 10
1861.489904810454
 20
497.5305567740583
 42
0.267949192431296
 10
1861.389904810454
 20
497.3573516933014
 42
0.0
 10
1861.389904810454
 20
496.3758562356791
 42
0.5773502691894401
 10
1861.689904810454
 20
496.2026511549222
 42
0.0
 10
1863.139904810454
 20
497.0398090452468
 42
0.0
 10
1863.139904810454
 20
485.9265647801501
 42
0.0
 10
1844.089904810454
 20
474.9280421520877
 42
0.2679491924309678
 10
1843.989904810454
 20
474.7548370713309
 42
0.0
 10
1843.989904810454
 20
461.736332528953
 42
0.5773502691897607
 10
1844.739904810454
 20
461.3033198270608
 42
0.0
 10
1846.889904810454
 20
462.5446229058185
 42
0.2679491924309666
 10
1846.989904810454
 20
462.7178279865753
 42
0.0
 10
1846.989904810454
 20
463.6993234441978
 42
0.5773502691895619
 10
1846.689904810454
 20
463.8725285249545
 42
0.0
 10
1845.239904810454
 20
463.0353706346297
 42
0.0
 10
1845.239904810454
 20
474.1486192886817
 42
0.0
 10
1847.639904810454
 20
475.5342599347367
 42
0.0
 10
1847.639904810454
 20
473.3403289118163
 42
0.4501325888490865
 10
1847.864057793236
 20
473.1417926848379
 42
0.2766749932453878
 10
1849.632391744213
 20
475.6684863285255
 42
-0.2509897368897962
 97
        2
330
399
330
3A3
 75
     0
 76
     1
 52
90.0
 41
1.0
 77
     0
 78
     1
 53
135.0
 43
1471.333832019859
 44
278.1394388092105
 45
-2.245064030267288
 46
-2.245064030267287
 79
     0
 47
0.1323619609349437
 98
        1
 10
1854.443358427907
 20
480.4510448515186
  0
INSERT
  5
3A3
102
{ACAD_REACTORS
330
3A2
102
}
330
2
100
AcDbEntity
  8
0
  6
HIDDEN
100
AcDbBlockReference
  2
P-2012
 10
1864.389904810454
 20
485.204876943663
 30
0.0
  0
HATCH
  5
3A4
330
2
100
AcDbEntity
  8
A
  6
HIDDEN
100
AcDbHatch
 10
0.0
 20
0.0
 30
0.0
210
0.0
220
0.0
230
1.0
  2
ANSI31
 70
     0
 71
     0
 91
        1
 92
        7
 72
     1
 73
     1
 93
       37
 10
1844.089904810454
 20
441.5980421520875
 42
0.2679491924311244
 10
1843.989904810454
 20
441.4248370713306
 42
0.0
 10
1843.989904810454
 20
428.4063325289529
 42
0.577350269189597
 10
1844.739904810454
 20
427.9733198270607
 42
0.0
 10
1846.889904810454
 20
429.2146229058184
 42
0.2679491924309953
 10
1846.989904810454
 20
429.3878279865753
 42
0.0
 10
1846.989904810454
 20
430.3693234441976
 42
0.5773502691898715
 10
1846.689904810454
 20
430.5425285249545
 42
0.0
 10
1845.539904810454
 20
429.8785757153866
 42
-0.5773502691898697
 10
1845.239904810454
 20
430.0517807961433
 42
0.0
 10
1845.239904810455
 20
440.7031492348436
 42
-0.2679491924311083
 10
1845.339904810454
 20
440.8763543156005
 42
0.0
 10
1847.339904810454
 20
442.0310548539798
 42
-0.577350269189753
 10
1847.639904810454
 20
441.8578497732229
 42
0.0
 10
1847.639904810454
 20
440.0103289118161
 42
0.5773502691895196
 10
1847.939904810454
 20
439.8371238310592
 42
0.0
 10
1848.139904810455
 20
439.9525938848977
 42
0.2490694201735129
 10
1849.632391744213
 20
442.3384863285254
 42
-0.2509897368930801
 10
1850.639930614704
 20
443.9362652923759
 42
0.0
 10
1863.389904810454
 20
451.2975222855181
 42
0.0
 10
1863.389904810454
 20
451.2975266744732
 42
0.0
 10
1863.517857849899
 20
451.37140039624
 42
0.2674268670795322
 10
1864.389904810454
 20
452.88523607442
 42
0.0
 10
1864.389904810454
 20
458.3748769436628
 42
0.0
 10
1864.389904810454
 20
463.8598121974268
 42
0.2559241411155972
 10
1863.928366348916
 20
464.7024622858963
 42
-0.2559241411155281
 10
1863.789904810454
 20
464.9552573124371
 42
0.0
 10
1863.789904810454
 20
465.1820522316802
 42
0.5773502691895894
 10
1863.489904810454
 20
465.3552573124372
 42
0.0
 10
1861.489904810454
 20
464.2005567740581
 42
0.2679491924311244
 10
1861.389904810454
 20
464.0273516933012
 42
0.0
 10
1861.389904810454
 20
463.0458562356789
 42
0.5773502691895894
 10
1861.689904810454
 20
462.872651154922
 42
0.0
 10
1862.689904810454
 20
463.4500014241116
 42
-0.5773502691893129
 10
1863.139904810454
 20
463.1901938029763
 42
0.0
 10
1863.139904810454
 20
452.8852399147448
 42
-0.267949192431101
 10
1862.889904810454
 20
452.4522272128526
 42
0.0
 97
        0
 75
     0
 76
     1
 52
90.0
 41
1.0
 77
     0
 78
     1
 53
135.0
 43
1471.333832019859
 44
244.8094388092104
 45
-2.245064030267288
 46
-2.245064030267287
 79
     0
 47
0.1323619609349437
 98
        1
 10
1854.443358427907
 20
447.1210448515185
  0
INSERT
  5
3A5
330
2
100
AcDbEntity
  8
0
  6
HIDDEN
100
AcDbBlockReference
  2
P-2012
 10
1864.389904810454
 20
451.8748769436629
 30
0.0
  0
DIMENSION
  5
3A8
330
2
100
AcDbEntity
  8
M
100
AcDbDimension
  2
*D13
 10
1872.889904810454
 20
645.1260708134848
 30
0.0
 11
1856.139904810454
 21
645.1260708134848
 31
0.0
 70
   160
  3
STANDARD
100
AcDbAlignedDimension
 13
1839.389904810454
 23
629.0603071251687
 33
0.0
 14
1872.889904810454
 24
606.0603071251687
 34
0.0
100
AcDbRotatedDimension
1001
ACAD
1000
DSTYLE
1002
{
1070
   140
1040
3.5
1002
}
  0
HATCH
  5
3A9
330
2
100
AcDbEntity
  8
A
100
AcDbHatch
 10
0.0
 20
0.0
 30
0.0
210
0.0
220
0.0
230
1.0
  2
ANSI31
 70
     0
 71
     1
 91
        1
 92
        7
 72
     1
 73
     1
 93
       27
 10
1843.389904810454
 20
608.1103071251689
 42
0.0
 10
1843.389904810455
 20
609.610307125169
 42
0.0
 10
1840.889904810454
 20
609.6103071251688
 42
0.0
 10
1840.889904810454
 20
627.9442611488324
 42
0.0
 10
1844.389904810454
 20
628.9942611488323
 42
0.0
 10
1844.389904810454
 20
630.2915009949906
 42
0.5023968879039491
 10
1844.132435233341
 20
630.4830662520348
 42
0.0
 10
1839.389904810455
 20
629.0603071251688
 42
0.0
 10
1839.389904810454
 20
604.0603071251689
 42
0.0
 10
1866.389904810454
 20
604.0603071251689
 42
0.0
 10
1866.389904810455
 20
590.5603071251689
 42
0.0
 10
1867.889904810454
 20
590.5603071251689
 42
0.0
 10
1867.889904810454
 20
598.5603071251689
 42
0.0
 10
1871.389904810454
 20
598.5603071251688
 42
1.732050807568796
 10
1870.52387940667
 20
600.060307125169
 42
0.0
 10
1867.889904810454
 20
600.0603071251689
 42
0.0
 10
1867.889904810454
 20
604.0603071251689
 42
0.0
 10
1872.889904810454
 20
604.0603071251689
 42
0.0
 10
1872.889904810454
 20
606.0603071251689
 42
0.0
 10
1871.389904810454
 20
606.0603071251689
 42
0.0
 10
1871.389904810454
 20
609.6103071251688
 42
0.0
 10
1867.389904810455
 20
609.610307125169
 42
0.0
 10
1867.389904810455
 20
608.1103071251689
 42
0.0
 10
1869.389904810454
 20
608.1103071251689
 42
0.0
 10
1869.389904810455
 20
606.0603071251689
 42
0.0
 10
1841.389904810454
 20
606.0603071251689
 42
0.0
 10
1841.389904810455
 20
608.110307125169
 42
0.0
 97
        1
330
3AA
 75
     0
 76
     1
 52
0.0
 41
0.5
 77
     0
 78
     1
 53
45.0
 43
1471.333832019859
 44
278.5048689907163
 45
-1.122532015133643
 46
1.122532015133644
 79
     0
 47
0.0899301979996614
 98
        1
 10
1840.27538606492
 20
619.6964213175106
  0
INSERT
  5
3AA
102
{ACAD_REACTORS
330
3A9
102
}
330
2
100
AcDbEntity
  8
0
100
AcDbBlockReference
  2
P-7021
 10
1866.389904810454
 20
594.921762710459
 30
0.0
 41
-1.0
 50
180.0
  0
DIMENSION
  5
3AB
330
2
100
AcDbEntity
  8
M
100
AcDbDimension
  2
*D12
 10
1824.389904810455
 20
604.0603071251687
 30
0.0
 11
1821.306571477121
 21
617.2759040600799
 31
0.0
 70
    32
  1
26,5
  3
STANDARD
100
AcDbAlignedDimension
 13
1844.189904810455
 23
630.4915009949905
 33
0.0
 14
1839.389904810454
 24
604.0603071251687
 34
0.0
 50
90.0
100
AcDbRotatedDimension
1001
ACAD
1000
DSTYLE
1002
{
1070
   140
1040
3.5
1002
}
  0
HATCH
  5
3AC
330
2
100
AcDbEntity
  8
A
  6
HIDDEN
100
AcDbHatch
 10
0.0
 20
0.0
 30
0.0
210
0.0
220
0.0
230
1.0
  2
ANSI31
 70
     0
 71
     1
 91
        1
 92
        7
 72
     1
 73
     1
 93
       31
 10
1850.639930614688
 20
543.926265292367
 42
0.0
 10
1863.389904810454
 20
551.2875222855182
 42
0.0
 10
1863.389904810454
 20
551.2940972443353
 42
0.0196870759009517
 10
1863.511948444949
 20
551.3579885997018
 42
0.0
 10
1863.517857850096
 20
551.3614003963542
 42
0.2674268670445814
 10
1864.389904810454
 20
552.8752360744196
 42
0.0
 10
1864.389904810454
 20
558.364876943663
 42
0.0
 10
1864.389904810454
 20
563.8498121974269
 42
0.2982166266986557
 10
1863.789904810454
 20
564.7663273364181
 42
0.0
 10
1863.789904810454
 20
565.1720522316802
 42
0.5773502691897337
 10
1863.489904810454
 20
565.3452573124373
 42
0.0
 10
1861.489904810454
 20
564.1905567740582
 42
0.2679491924309678
 10
1861.389904810454
 20
564.0173516933014
 42
0.0
 10
1861.389904810454
 20
563.0358562356788
 42
0.5773502691893551
 10
1861.689904810454
 20
562.8626511549221
 42
0.0
 10
1863.139904810454
 20
563.6998090452467
 42
0.0
 10
1863.139904810454
 20
552.5865647801501
 42
0.0
 10
1844.089904810454
 20
541.5880421520876
 42
0.2679491924309678
 10
1843.989904810454
 20
541.4148370713308
 42
0.0
 10
1843.989904810454
 20
528.3963325289529
 42
0.5773502691896947
 10
1844.739904810454
 20
527.9633198270608
 42
0.0
 10
1846.889904810454
 20
529.2046229058183
 42
0.2679491924313099
 10
1846.989904810454
 20
529.3778279865753
 42
0.0
 10
1846.989904810454
 20
530.3593234441975
 42
0.5773502691903322
 10
1846.689904810454
 20
530.5325285249543
 42
0.0
 10
1845.239904810453
 20
529.6953706346295
 42
0.0
 10
1845.239904810455
 20
540.8086192886818
 42
0.0
 10
1847.639904810454
 20
542.194259934737
 42
0.0
 10
1847.639904810454
 20
540.000328911816
 42
0.4501325888487861
 10
1847.864057793235
 20
539.8017926848377
 42
0.2766749932454098
 10
1849.632391744213
 20
542.3284863285253
 42
-0.2509897368906992
 97
        2
330
399
330
3AD
 75
     0
 76
     1
 52
90.0
 41
1.0
 77
     0
 78
     1
 53
135.0
 43
1471.333832019859
 44
278.1394388092105
 45
-2.245064030267288
 46
-2.245064030267287
 79
     0
 47
0.1081528723448515
 98
        1
 10
1855.330836617109
 20
547.2975989172336
  0
INSERT
  5
3AD
102
{ACAD_REACTORS
330
3AC
102
}
330
2
100
AcDbEntity
  8
0
  6
HIDDEN
100
AcDbBlockReference
  2
P-2012
 10
1864.389904810454
 20
551.8648769436629
 30
0.0
  0
INSERT
  5
3AE
330
2
100
AcDbEntity
  8
0
  6
HIDDEN
100
AcDbBlockReference
  2
P-2045
 10
1864.389904810454
 20
585.1948769436631
 30
0.0
  0
HATCH
  5
3AF
330
2
100
AcDbEntity
  8
A
100
AcDbHatch
 10
0.0
 20
0.0
 30
0.0
210
0.0
220
0.0
230
1.0
  2
ANSI31
 70
     0
 71
     0
 91
        1
 92
        7
 72
     1
 73
     1
 93
       35
 10
1864.389904810454
 20
598.7603071251688
 42
0.3589444010551991
 10
1864.147243803689
 20
599.0547765460851
 42
0.0
 10
1863.236331882066
 20
598.5288613029281
 42
0.0
 10
1861.36197774136
 20
597.2164244043308
 42
-0.6068148963145296
 10
1860.889904810454
 20
597.4621700176176
 42
0.0
 10
1860.889904810454
 20
602.3103071251687
 42
0.4142135623730951
 10
1859.639904810454
 20
603.5603071251687
 42
0.0
 10
1845.539904810454
 20
603.5603071251687
 42
-0.2518068897010091
 10
1845.289639241414
 20
603.694876943663
 42
0.0
 10
1843.989904810454
 20
603.694876943663
 42
0.0
 10
1843.989904810454
 20
594.1903071251688
 42
0.0
 10
1846.989904810454
 20
595.9223579327376
 42
0.0
 10
1846.989904810454
 20
597.3657336057117
 42
0.0
 10
1845.239904810454
 20
596.3553706346299
 42
0.0
 10
1845.239904810454
 20
602.0103071251687
 42
-0.4142135623730959
 10
1845.539904810454
 20
602.3103071251687
 42
0.0
 10
1859.339904810454
 20
602.3103071251687
 42
-0.4142135623730951
 10
1859.639904810454
 20
602.0103071251687
 42
0.0
 10
1859.639904810454
 20
596.8858753795261
 42
0.6068148963145508
 10
1861.606875355893
 20
595.8619353241649
 42
0.0
 10
1863.139904810454
 20
596.9353741045461
 42
0.0
 10
1863.139904810454
 20
585.9165647801501
 42
0.0
 10
1843.989904810454
 20
574.8603071251686
 42
0.0
 10
1843.989904810454
 20
560.8603071251686
 42
0.0
 10
1846.989904810454
 20
562.5923579327375
 42
0.0
 10
1846.989904810454
 20
564.0357336057117
 42
0.0
 10
1845.239904810454
 20
563.0253706346297
 42
0.0
 10
1845.239904810454
 20
574.1386192886816
 42
0.0
 10
1847.639904810454
 20
575.5242599347368
 42
0.0
 10
1847.639904810454
 20
573.3303289118161
 42
0.5773502691896115
 10
1847.939904810454
 20
573.1571238310594
 42
0.0
 10
1848.152426587523
 20
573.2798233362586
 42
0.2490694201736009
 10
1849.644913521282
 20
575.665715779887
 42
-0.2490694201735577
 10
1850.639904810454
 20
577.2563107423057
 42
0.0
 10
1864.389904810454
 20
585.1948769436631
 42
0.0
 97
        0
 75
     0
 76
     1
 52
90.0
 41
1.0
 77
     0
 78
     1
 53
135.0
 43
1313.833832019859
 44
278.1394388092105
 45
-2.245064030267288
 46
-2.245064030267287
 79
     0
 47
0.1483351801478254
 98
        1
 10
1863.650365619588
 20
588.5927326120834
  0
DIMENSION
  5
3B0
330
2
100
AcDbEntity
  8
M
100
AcDbDimension
  2
*D14
 10
1824.389904810455
 20
527.896332528953
 30
0.0
 11
1821.306571477121
 21
544.5613325289534
 31
0.0
 70
    32
  1
33,5
  3
STANDARD
100
AcDbAlignedDimension
 13
1844.489904810454
 23
561.2263325289531
 33
0.0
 14
1844.489904810454
 24
527.896332528953
 34
0.0
 50
90.0
100
AcDbRotatedDimension
1001
ACAD
1000
DSTYLE
1002
{
1070
   140
1040
3.5
1002
}
  0
INSERT
  5
47F
330
2
100
AcDbEntity
  8
A
100
AcDbBlockReference
  2
P-7030
 10
1867.889904810461
 20
458.9108842513641
 30
0.0
  0
HATCH
  5
AA6
330
2
100
AcDbEntity
  8
A
100
AcDbHatch
 10
0.0
 20
0.0
 30
0.0
210
0.0
220
0.0
230
1.0
  2
ANSI31
 70
     0
 71
     0
 91
        1
 92
        7
 72
     1
 73
     1
 93
       44
 10
1870.282195200791
 20
434.8538136349294
 42
0.0
 10
1888.709178834634
 20
441.6533512391519
 42
0.3140807141289726
 10
1889.689904810461
 20
443.0606019232234
 42
0.0
 10
1889.689904810461
 20
451.1108842513627
 42
0.4142135623730951
 10
1889.389904810461
 20
451.4108842513627
 42
0.0
 10
1887.689904810461
 20
451.4108842513628
 42
0.4142135623732615
 10
1887.389904810461
 20
451.1108842513628
 42
0.0
 10
1887.389904810461
 20
450.210884251363
 42
0.4142135623732617
 10
1887.689904810461
 20
449.9108842513629
 42
0.0
 10
1887.889904810461
 20
449.9108842513629
 42
-0.4142135623732061
 10
1888.189904810461
 20
449.6108842513628
 42
0.0
 10
1888.189904810461
 20
443.2499022383591
 42
-0.4142135623730951
 10
1887.889904810461
 20
442.949902238359
 42
0.0
 10
1870.189904810461
 20
436.4186208313626
 42
-0.4142135623731507
 10
1869.889904810461
 20
436.7186208313627
 42
0.0
 10
1869.889904810461
 20
451.4108842513643
 42
0.0
 10
1874.589904810461
 20
451.4108842513642
 42
0.0
 10
1874.589904810461
 20
453.410884251364
 42
0.0
 10
1869.389904810461
 20
453.4108842513642
 42
0.0
 10
1869.389904810461
 20
457.4108842513636
 42
0.0
 10
1872.223879406676
 20
457.4108842513648
 42
1.732050807569529
 10
1873.089904810461
 20
458.9108842513641
 42
0.0
 10
1867.889904810461
 20
458.9108842513642
 42
0.0
 10
1867.889904810461
 20
439.7578059502015
 42
0.0
 10
1868.389904810461
 20
439.257805950202
 42
0.0
 10
1867.889904810461
 20
438.7578059502019
 42
0.0
 10
1867.889904810461
 20
435.7789960132418
 42
-0.3140807141291249
 10
1867.693759615295
 20
435.4975458764275
 42
0.0
 10
1860.558991396552
 20
432.8648238984441
 42
0.3140807141289582
 10
1857.289904810461
 20
428.1739882848728
 42
0.0
 10
1857.289904810461
 20
419.8608842520655
 42
1.0
 10
1858.789904810461
 20
419.8608842520655
 42
0.0
 10
1858.789904810461
 20
428.1739882848726
 42
-0.3140807141289534
 10
1861.078265420724
 20
431.4575732143725
 42
0.0
 10
1867.21681346907
 20
433.7226909959609
 42
-0.5219765258679058
 10
1867.889904810461
 20
433.2536074346037
 42
0.0
 10
1867.889904810461
 20
422.4108842520655
 42
0.4142135623730397
 10
1868.189904810461
 20
422.1108842520655
 42
0.0
 10
1869.589904810461
 20
422.1108842520655
 42
0.4142135623731507
 10
1869.889904810461
 20
422.4108842520655
 42
0.0
 10
1869.889904810461
 20
425.4797554666655
 42
0.0
 10
1869.389904810461
 20
425.9797554666659
 42
0.0
 10
1869.889904810461
 20
426.4797554666658
 42
0.0
 10
1869.889904810461
 20
434.2909133613009
 42
-0.3140807141289327
 97
        0
 75
     0
 76
     1
 52
90.0
 41
10.0
 77
     0
 78
     1
 53
135.0
 43
-115.0999999999999
 44
-4.507384834396987
 45
-0.8838834764831844
 46
-0.8838834764831842
 79
     0
 47
0.2509054430002238
 98
        1
 10
1869.104089115342
 20
434.6756809411971
  0
INSERT
  5
18E6
330
2
100
AcDbEntity
  8
A
100
AcDbBlockReference
 66
     1
  2
ISO_A4HOR
 10
1370.94606028182
 20
269.4335991848701
 30
0.0
 41
2.0
 42
2.0
 43
2.0
  0
ATTRIB
  5
18E7
330
18E6
100
AcDbEntity
  8
TEKST
100
AcDbText
 10
1763.318426321591
 20
343.2581279881596
 30
0.0
 40
4.0
  1
\Roosters\411
  7
ISOCP
100
AcDbAttribute
  2
BESTAND
 70
     8
  0
ATTRIB
  5
18E8
330
18E6
100
AcDbEntity
  8
TEKST
100
AcDbText
 10
1887.990199684474
 20
343.2581279881596
 30
0.0
 40
4.0
  1
31/10/00
  7
ISOCP
100
AcDbAttribute
  2
DATUM
 70
     8
  0
ATTRIB
  5
18E9
330
18E6
100
AcDbEntity
  8
TEKST
100
AcDbText
 10
1942.264177282688
 20
343.294082171118
 30
0.0
 40
4.0
  1
1/2
  7
ISOCP
100
AcDbAttribute
  2
SCHAAL
 70
     8
  0
ATTRIB
  5
18EA
330
18E6
100
AcDbEntity
  8
TEKST
 62
     6
100
AcDbText
 10
1930.886781244691
 20
323.1942924817657
 30
0.0
 40
6.0
  1
A4
  7
ISOCP
100
AcDbAttribute
  2
FORMAAT
 70
     8
  0
ATTRIB
  5
18EB
330
18E6
100
AcDbEntity
  8
TEKST
100
AcDbText
 10
1652.07839928893
 20
343.2581279881596
 30
0.0
 40
4.0
  1
F.C.
  7
ISOCP
100
AcDbAttribute
  2
GETEKEND
 70
     8
  0
ATTRIB
  5
18EC
330
18E6
100
AcDbEntity
  8
T_NEDERLANDS
 62
     6
100
AcDbText
 10
1740.296085020834
 20
324.8399165345761
 30
0.0
 40
10.0
  1
Muurroosters gewoon model
  7
ISOCP
 72
     1
 11
1824.321085020834
 21
324.8399165345761
 31
0.0
100
AcDbAttribute
  2
TITEL
 70
     8
  0
ATTRIB
  5
18ED
330
18E6
100
AcDbEntity
  8
T_NEDERLANDS
 62
     6
100
AcDbText
 10
1812.621085020834
 20
307.3779991473303
 30
0.0
 40
6.0
  1
Nr. 411
  7
ISOCP
 72
     1
 11
1824.321085020834
 21
307.3779991473303
 31
0.0
100
AcDbAttribute
  2
ONDERTITEL
 70
     8
  0
ATTRIB
  5
18EE
330
18E6
100
AcDbEntity
  8
T_FRANS
 62
     6
100
AcDbText
 10
1743.708191802021
 20
324.8399165345761
 30
0.0
 40
8.0
  1
Grilles murales exécution normale
  7
ISOCP
 72
     1
 11
1824.321085020834
 21
324.8399165345761
 31
0.0
100
AcDbAttribute
  2
TITEL
 70
     8
  0
ATTRIB
  5
18EF
330
18E6
100
AcDbEntity
  8
T_FRANS
 62
     6
100
AcDbText
 10
1813.521085020834
 20
307.3779991473303
 30
0.0
 40
6.0
  1
N° 411
  7
ISOCP
 72
     1
 11
1824.321085020834
 21
307.3779991473303
 31
0.0
100
AcDbAttribute
  2
ONDERTITEL
 70
     8
  0
ATTRIB
  5
18F0
330
18E6
100
AcDbEntity
  8
T_ENGELS
 62
     6
100
AcDbText
 10
1740.666065335795
 20
324.8399165345762
 30
0.0
 40
10.0
  1
Wall louvre standard series
  7
ISOCP
 72
     1
 11
1824.321085020834
 21
324.8399165345762
 31
0.0
100
AcDbAttribute
  2
TITEL
 70
     8
  0
ATTRIB
  5
18F1
330
18E6
100
AcDbEntity
  8
T_ENGELS
 62
     6
100
AcDbText
 10
1813.521085020834
 20
307.3779991473303
 30
0.0
 40
6.0
  1
N° 411
  7
ISOCP
 72
     1
 11
1824.321085020834
 21
307.3779991473303
 31
0.0
100
AcDbAttribute
  2
ONDERTITEL
 70
     8
  0
ATTRIB
  5
18F2
330
18E6
100
AcDbEntity
  8
T_DUITS
 62
     6
100
AcDbText
 10
1738.146110274003
 20
324.8399165345762
 30
0.0
 40
8.0
  1
Lüftungsgitter standardausführung
  7
ISOCP
 72
     1
 11
1824.321085020834
 21
324.8399165345762
 31
0.0
100
AcDbAttribute
  2
TITEL
 70
     8
  0
ATTRIB
  5
18F3
330
18E6
100
AcDbEntity
  8
T_DUITS
 62
     6
100
AcDbText
 10
1812.621085020834
 20
307.3779991473303
 30
0.0
 40
6.0
  1
Nr. 411
  7
ISOCP
 72
     1
 11
1824.321085020834
 21
307.3779991473303
 31
0.0
100
AcDbAttribute
  2
ONDERTITEL
 70
     8
  0
SEQEND
  5
18F4
330
18E6
100
AcDbEntity
  8
A
  0
ENDSEC
  0
SECTION
  2
OBJECTS
  0
DICTIONARY
  5
1A
330
0
100
AcDbDictionary
  3
ACAD_GROUP
350
18
  3
ACAD_LAYOUT
350
1161
  3
ACAD_MLINESTYLE
350
19
  3
ACAD_PLOTSETTINGS
350
1162
  3
ACAD_PLOTSTYLENAME
350
115F
  3
ACDBVARIABLEDICTIONARY
350
9BA
  3
ACDBHEADERROUNDTRIPXREC
350
1C2C
  0
DICTIONARY
  5
1C1E
330
2
100
AcDbDictionary
280
     1
  3
ACAD_LAYOUTSELFREF
360
1C4C
  0
DICTIONARY
  5
1C20
330
7
100
AcDbDictionary
280
     1
  3
ACAD_LAYOUTSELFREF
360
1C4D
  0
DICTIONARY
  5
18
102
{ACAD_REACTORS
330
1A
102
}
330
1A
100
AcDbDictionary
  0
DICTIONARY
  5
1161
102
{ACAD_REACTORS
330
1A
102
}
330
1A
100
AcDbDictionary
  0
DICTIONARY
  5
19
102
{ACAD_REACTORS
330
1A
102
}
330
1A
100
AcDbDictionary
  3
STANDARD
350
1C
  0
DICTIONARY
  5
1162
102
{ACAD_REACTORS
330
1A
102
}
330
1A
100
AcDbDictionary
  0
ACDBDICTIONARYWDFLT
  5
115F
102
{ACAD_REACTORS
330
1A
102
}
330
1A
100
AcDbDictionary
281
     1
  3
Normal
350
1160
100
AcDbDictionaryWithDefault
340
1160
  0
DICTIONARY
  5
9BA
102
{ACAD_REACTORS
330
1A
102
}
330
1A
100
AcDbDictionary
  3
SORTENTS
350
9BB
  0
DICTIONARY
  5
1C2C
102
{ACAD_REACTORS
330
1A
102
}
330
1A
100
AcDbDictionary
  3
TSTACKALIGN
350
1C2D
  3
TSTACKSIZE
350
1C2E
  3
HYPERLINKBASE
350
1C2F
  3
STYLESHEET
350
1C30
  3
LAYOUTDICT
350
1C31
  3
PLOTSETDICT
350
1C32
  3
PLOTSTYLNAMDICT
350
1C33
  3
LWETCUNION
350
1C34
  3
INSUNITS
350
1C35
  3
CEPSNTYPE
350
1C36
  3
FINGERPRINTGUID
350
1C37
  3
VERSIONGUID
350
1C38
  3
PSVPSCALE
350
1C39
  3
PUCSORTHOREF
350
1C3A
  3
PUCSORTHOVIEW
350
1C3B
  3
PUCSBASE
350
1C3C
  3
PUCSORGTOP
350
1C3D
  3
PUCSORGBOTTOM
350
1C3E
  3
PUCSORGLEFT
350
1C3F
  3
PUCSORGRIGHT
350
1C40
  3
PUCSORGFRONT
350
1C41
  3
PUCSORGBACK
350
1C42
  3
UCSORTHOREF
350
1C43
  3
UCSORTHOVIEW
350
1C44
  3
UCSBASE
350
1C45
  3
UCSORGTOP
350
1C46
  3
UCSORGBOTTOM
350
1C47
  3
UCSORGLEFT
350
1C48
  3
UCSORGRIGHT
350
1C49
  3
UCSORGFRONT
350
1C4A
  3
UCSORGBACK
350
1C4B
  0
XRECORD
  5
1C4C
102
{ACAD_REACTORS
330
1C1E
102
}
330
1C1E
100
AcDbXrecord
340
2
  0
XRECORD
  5
1C4D
102
{ACAD_REACTORS
330
1C20
102
}
330
1C20
100
AcDbXrecord
340
7
  0
MLINESTYLE
  5
1C
102
{ACAD_REACTORS
330
19
102
}
330
19
100
AcDbMlineStyle
  2
STANDARD
 70
     0
  3

 62
     0
 51
90.0
 52
90.0
 71
     2
 49
0.5
 62
   256
  6
BYLAYER
 49
-0.5
 62
   256
  6
BYLAYER
  0
ACDBPLACEHOLDER
  5
1160
102
{ACAD_REACTORS
330
115F
102
}
330
115F
100
AcDbPlaceHolder
280
     0
  0
DICTIONARYVAR
  5
9BB
102
{ACAD_REACTORS
330
9BA
102
}
330
9BA
100
DictionaryVariables
280
     0
  1
96
  0
XRECORD
  5
1C2D
102
{ACAD_REACTORS
330
1C2C
102
}
330
1C2C
100
AcDbXrecord
 90
        1
  0
XRECORD
  5
1C2E
102
{ACAD_REACTORS
330
1C2C
102
}
330
1C2C
100
AcDbXrecord
 90
       70
  0
XRECORD
  5
1C2F
102
{ACAD_REACTORS
330
1C2C
102
}
330
1C2C
100
AcDbXrecord
  1

  0
XRECORD
  5
1C30
102
{ACAD_REACTORS
330
1C2C
102
}
330
1C2C
100
AcDbXrecord
  1
monochrome.ctb
  0
XRECORD
  5
1C31
102
{ACAD_REACTORS
330
1C2C
102
}
330
1C2C
100
AcDbXrecord
340
1161
  0
XRECORD
  5
1C32
102
{ACAD_REACTORS
330
1C2C
102
}
330
1C2C
100
AcDbXrecord
340
1162
  0
XRECORD
  5
1C33
102
{ACAD_REACTORS
330
1C2C
102
}
330
1C2C
100
AcDbXrecord
340
115F
  0
XRECORD
  5
1C34
102
{ACAD_REACTORS
330
1C2C
102
}
330
1C2C
100
AcDbXrecord
 90
    10781
  0
XRECORD
  5
1C35
102
{ACAD_REACTORS
330
1C2C
102
}
330
1C2C
100
AcDbXrecord
 90
        0
  0
XRECORD
  5
1C36
102
{ACAD_REACTORS
330
1C2C
102
}
330
1C2C
100
AcDbXrecord
 90
        0
  0
XRECORD
  5
1C37
102
{ACAD_REACTORS
330
1C2C
102
}
330
1C2C
100
AcDbXrecord
  1
{1A92D7F9-E2B7-11D3-87E9-00A0C9A30151}
  0
XRECORD
  5
1C38
102
{ACAD_REACTORS
330
1C2C
102
}
330
1C2C
100
AcDbXrecord
  1
{0D1F6144-26D3-4E89-AF2A-A75407AEF7C9}
  0
XRECORD
  5
1C39
102
{ACAD_REACTORS
330
1C2C
102
}
330
1C2C
100
AcDbXrecord
 40
0.0
  0
XRECORD
  5
1C3A
102
{ACAD_REACTORS
330
1C2C
102
}
330
1C2C
100
AcDbXrecord
340
0
  0
XRECORD
  5
1C3B
102
{ACAD_REACTORS
330
1C2C
102
}
330
1C2C
100
AcDbXrecord
 70
     0
  0
XRECORD
  5
1C3C
102
{ACAD_REACTORS
330
1C2C
102
}
330
1C2C
100
AcDbXrecord
340
0
  0
XRECORD
  5
1C3D
102
{ACAD_REACTORS
330
1C2C
102
}
330
1C2C
100
AcDbXrecord
 10
0.0
 20
0.0
 30
0.0
  0
XRECORD
  5
1C3E
102
{ACAD_REACTORS
330
1C2C
102
}
330
1C2C
100
AcDbXrecord
 10
0.0
 20
0.0
 30
0.0
  0
XRECORD
  5
1C3F
102
{ACAD_REACTORS
330
1C2C
102
}
330
1C2C
100
AcDbXrecord
 10
0.0
 20
0.0
 30
0.0
  0
XRECORD
  5
1C40
102
{ACAD_REACTORS
330
1C2C
102
}
330
1C2C
100
AcDbXrecord
 10
0.0
 20
0.0
 30
0.0
  0
XRECORD
  5
1C41
102
{ACAD_REACTORS
330
1C2C
102
}
330
1C2C
100
AcDbXrecord
 10
0.0
 20
0.0
 30
0.0
  0
XRECORD
  5
1C42
102
{ACAD_REACTORS
330
1C2C
102
}
330
1C2C
100
AcDbXrecord
 10
0.0
 20
0.0
 30
0.0
  0
XRECORD
  5
1C43
102
{ACAD_REACTORS
330
1C2C
102
}
330
1C2C
100
AcDbXrecord
340
0
  0
XRECORD
  5
1C44
102
{ACAD_REACTORS
330
1C2C
102
}
330
1C2C
100
AcDbXrecord
 70
     0
  0
XRECORD
  5
1C45
102
{ACAD_REACTORS
330
1C2C
102
}
330
1C2C
100
AcDbXrecord
340
0
  0
XRECORD
  5
1C46
102
{ACAD_REACTORS
330
1C2C
102
}
330
1C2C
100
AcDbXrecord
 10
0.0
 20
0.0
 30
0.0
  0
XRECORD
  5
1C47
102
{ACAD_REACTORS
330
1C2C
102
}
330
1C2C
100
AcDbXrecord
 10
0.0
 20
0.0
 30
0.0
  0
XRECORD
  5
1C48
102
{ACAD_REACTORS
330
1C2C
102
}
330
1C2C
100
AcDbXrecord
 10
0.0
 20
0.0
 30
0.0
  0
XRECORD
  5
1C49
102
{ACAD_REACTORS
330
1C2C
102
}
330
1C2C
100
AcDbXrecord
 10
0.0
 20
0.0
 30
0.0
  0
XRECORD
  5
1C4A
102
{ACAD_REACTORS
330
1C2C
102
}
330
1C2C
100
AcDbXrecord
 10
0.0
 20
0.0
 30
0.0
  0
XRECORD
  5
1C4B
102
{ACAD_REACTORS
330
1C2C
102
}
330
1C2C
100
AcDbXrecord
 10
0.0
 20
0.0
 30
0.0
  0
ENDSEC
  0
EOF
